osu file format v7

[General]
AudioFilename: Shawty Get Loose.mp3
AudioLeadIn: 0
PreviewTime: 49655
Countdown: 1
SampleSet: Normal
StackLeniency: 0.7
Mode: 0
LetterboxInBreaks: 1

[Editor]
Bookmarks: 90,8437,33481,50176,66872,75220,91916,108611,125307,133655,150350,167046,183742,192090
DistanceSpacing: 1
BeatDivisor: 4
GridSize: 8

[Metadata]
Title:Shawty Get Loose
Artist:Lil Mama ft. Chris Brown & T-Pain
Creator:YGOkid8
Version:Normal
Source:
Tags:lepidopodus

[Difficulty]
HPDrainRate:3
CircleSize:4
OverallDifficulty:4
SliderMultiplier:1.5
SliderTickRate:2

[Events]
//Background and Video events
Video,-8600,"sgl.avi"
0,0,"lilmamashawty.jpg"
//Break Periods
2,67072,71813
2,125507,132335
//Storyboard Layer 0 (Background)
//Storyboard Layer 1 (Fail)
//Storyboard Layer 2 (Pass)
//Storyboard Layer 3 (Foreground)
//Storyboard Sound Samples
//Background Colour Transformations
3,100,163,162,255

[TimingPoints]
90,521.739130434783,4,1,1,100,1,0
50176,-100,4,1,1,100,0,1
66872,-100,4,1,1,100,0,0
108611,-100,4,1,1,100,0,1
125307,-100,4,1,1,100,0,0
162872,-200,4,1,1,100,0,0
164437,-100,4,1,1,100,0,0
167046,-100,4,1,1,100,0,1
183742,-100,4,1,1,100,0,0

[Colours]
Combo1 : 255,255,255
Combo2 : 108,108,108

[HitObjects]
328,96,8437,2,0,B|400:104|448:168,2,75,4|0|0
256,88,9220,1,0
184,96,9481,2,0,B|104:112|72:192,1,150
32,296,10394,1,0
144,296,10785,6,0,B|264:296,1,112.5
344,224,11568,2,0,B|192:224,1,150
148,80,12611,5,4
220,72,12872,1,0
292,72,13133,1,0
364,80,13394,1,0
328,144,13655,2,0,B|256:188|184:144,1,150
256,192,14698,12,4,16785
256,192,17307,5,8
328,320,17829,1,0
256,336,18090,1,0
184,320,18350,1,8
104,192,18872,6,0,B|64:200|32:240,2,75,0|0|8
176,176,19655,1,0
248,160,19916,2,0,B|288:152|320:112,3,75,0|0|8|0
360,64,20959,1,4
348,212,21481,5,8
297,262,21742,1,0
367,282,22003,1,0
216,260,22524,1,8
166,209,22785,1,0
146,279,23046,1,0
24,192,23568,5,8
88,152,23829,1,0
160,128,24090,2,0,B|220:106|307:121,2,112.5
160,128,25133,1,4
296,192,25655,5,8
328,264,25916,1,0
296,336,26176,1,0
168,264,26698,5,8
96,296,26959,1,0
24,264,27220,1,0
96,136,27742,5,8
168,112,28003,1,0
240,104,28263,2,0,B|304:104|352:144,2,112.5
240,104,29307,1,4
392,80,29829,5,8
392,232,30350,1,0
320,232,30611,1,0
248,232,30872,2,0,B|248:272,2,37.5,8|0|0
256,192,31394,12,4,33481
256,192,34003,5,8
184,64,34524,1,0
256,48,34785,1,0
328,64,35046,1,8
408,192,35568,6,0,B|448:184|480:144,2,75,0|0|8
336,208,36350,1,0
264,224,36611,2,0,B|224:232|192:272,3,75,0|0|8|0
152,320,37655,1,4
164,172,38176,5,8
215,122,38437,1,0
145,102,38698,1,0
296,124,39220,1,8
346,175,39481,1,0
366,105,39742,1,0
488,192,40263,5,8
424,232,40524,1,0
352,256,40785,2,0,B|292:278|205:263,2,112.5
352,256,41829,1,4
216,192,42350,5,8
184,120,42611,1,0
216,48,42872,1,0
344,120,43394,5,8
416,88,43655,1,0
488,120,43916,1,0
416,248,44437,5,0
344,272,44698,1,0
272,280,44959,2,0,B|224:280|168:248,3,75
199,263,46003,1,0
48,256,46524,5,0
48,104,47046,1,0
120,104,47307,1,0
192,104,47568,1,0
256,192,48090,12,4,50176
256,72,50698,6,0,B|104:72,1,150,8|0
106,72,51481,1,0
106,72,51742,1,8
16,192,52263,6,0,B|96:192,1,75,4|0
168,192,52785,2,0,B|248:192,1,75,8|0
320,192,53307,2,0,B|416:192|416:288,2,150,4|8|4
432,88,54872,6,0,B|392:64|344:64,2,75,8|0|0
288,56,55916,1,8
216,64,56176,1,0
152,104,56437,6,0,B|128:144|128:192,3,75,4|0|8|0
136,248,57481,2,0,B|160:336|248:360,2,150,4|8|4
288,256,59046,5,8
440,256,59568,1,0
440,104,60090,1,8
288,104,60611,6,0,B|248:104|184:136,1,75,4|0
264,184,61133,2,0,B|235:212|167:234,1,75,8|0
144,168,61655,2,0,B|72:208|16:296,2,150,4|8|4
184,312,63220,6,0,B|256:352|328:312,1,150,8|0
400,296,64003,1,0
472,312,64263,1,8
256,192,64785,12,4,66872
256,192,73133,12,4,75220
256,192,75742,5,8
392,128,76263,2,0,B|464:136|512:200,4,75,0|0|8|0|4
256,192,77829,5,8
120,256,78350,2,0,B|48:248|0:184,4,75,0|0|8|0|4
256,320,79916,5,8
328,320,80176,1,0
400,320,80437,1,0
328,184,80959,1,8
328,184,81220,1,0
328,184,81481,1,4
256,56,82003,5,8
184,56,82263,1,0
112,56,82524,2,0,B|112:136,3,75,4|0|8|0
112,131,83568,1,4
112,280,84090,5,8
184,280,84350,1,0
256,280,84611,2,0,B|384:280,2,112.5
256,208,85655,6,0,B|336:208,1,75,4|0
360,136,86176,2,0,B|280:136,1,75,8|0
208,136,86698,2,0,B|56:136,1,150,4|8
160,248,87742,5,4
312,288,88263,1,8
352,136,88785,1,0
200,96,89307,1,8
256,192,89829,12,4,91916
104,40,92959,6,0,B|184:40,1,75
256,40,93481,2,0,B|336:40,1,75,8|0
408,40,94003,2,0,B|408:192,3,150,4|8|4|8
408,344,96090,5,4
256,344,96611,1,8
256,40,97655,1,8
256,192,98176,6,0,B|176:192,1,75,4|0
104,192,98698,2,0,B|24:192,1,75,8|0
56,264,99220,2,0,B|216:264,2,150,4|8|4
56,112,100785,5,8
208,112,101307,2,0,B|368:112,1,150,0|8
488,192,102350,6,0,B|408:192,1,75,4|0
336,192,102872,2,0,B|256:192,1,75,8|0
184,192,103394,2,0,B|184:352,2,150,4|8|4
104,64,104959,5,0
408,64,106003,1,0
256,192,106524,12,4,108611
256,312,109133,6,0,B|408:312,1,150,8|0
406,312,109916,1,0
406,312,110176,1,8
496,192,110698,6,0,B|416:192,1,75,4|0
344,192,111220,2,0,B|264:192,1,75,8|0
192,192,111742,2,0,B|96:192|96:96,2,150,4|8|4
80,296,113307,6,0,B|120:320|168:320,2,75,8|0|0
224,328,114350,1,8
296,320,114611,1,0
360,280,114872,6,0,B|384:240|384:192,3,75,4|0|8|0
376,136,115916,2,0,B|352:48|264:24,2,150,4|8|4
224,128,117481,5,8
72,128,118003,1,0
72,280,118524,1,8
224,280,119046,6,0,B|264:280|328:248,1,75,4|0
248,200,119568,2,0,B|277:172|345:150,1,75,8|0
368,216,120090,2,0,B|440:176|496:88,2,150,4|8|4
328,72,121655,6,0,B|256:32|184:72,1,150,8|0
112,88,122437,1,0
40,72,122698,1,8
256,192,123220,12,4,125307
104,88,133655,6,0,B|256:88,1,150,4|8
328,88,134437,1,0
400,88,134698,2,0,B|400:168,2,75,0|0|8
400,240,135742,6,0,B|248:240,1,150,0|8
176,240,136524,1,0
104,240,136785,2,0,B|104:320,2,75,0|0|8
104,88,137829,5,4
256,88,138350,1,8
256,240,138872,2,0,B|376:240,1,112.5
480,240,139655,5,0
480,240,139916,2,0,B|480:56|288:56,1,300
144,56,141481,1,8
72,192,142003,5,4
144,328,142524,1,8
256,232,143046,2,0,B|256:312,4,75,0|0|8|0|4
368,328,144611,5,8
440,192,145133,1,0
368,56,145655,1,8
256,152,146176,6,0,B|256:384,2,225,4|0|8
256,192,148263,12,4,150350
256,48,151394,5,0
256,120,151655,1,0
256,192,151916,1,8
104,192,152437,5,0
104,344,152959,1,8
256,344,153481,2,0,B|408:344,1,150,0|8
406,344,154524,5,4
256,88,155568,5,4
106,344,156611,6,0,B|24:344,6,75,4|0|8|0|0|0|8
104,232,158568,1,0
104,120,158959,6,0,B|184:120,1,75,0|8
328,120,159742,2,0,B|408:120,2,75,0|0|8
408,248,160785,6,0,B|328:248,1,75,4|0
256,248,161307,2,0,B|176:248,1,75,8|0
104,248,161829,2,0,B|104:328,2,75,0|0|8
144,104,162872,6,0,B|216:128|296:80|376:104,1,225
256,192,164959,12,4,167046
256,64,167568,6,0,B|160:64|160:160,1,150,8|0
160,232,168350,1,0
160,304,168611,1,8
312,304,169133,6,0,B|408:304,1,75,4|0
416,232,169655,2,0,B|336:232,1,75,8|0
264,232,170176,2,0,B|264:136|360:136,2,150,4|8|4
256,80,171742,5,8
184,80,172003,2,0,B|144:80,1,37.5
72,80,172394,1,0
72,152,172655,2,0,B|72:208,1,37.5,0|8
72,264,173046,5,0
72,336,173307,2,4,B|264:336|264:152,2,300
160,216,175916,5,8
256,104,176437,1,0
352,216,176959,1,8
424,80,177481,6,0,B|424:160,1,75,4|0
424,232,178003,2,0,B|424:312,1,75,8|0
424,384,178524,2,0,B|272:384,2,150,4|8|4
328,264,180089,6,0,B|256:224|184:264,1,150,8|0
220,328,180872,1,0
292,328,181133,1,8
256,192,181655,12,4,183742
