osu file format v7

[General]
AudioFilename: Shawty Get Loose.mp3
AudioLeadIn: 0
PreviewTime: 49655
Countdown: 1
SampleSet: Normal
StackLeniency: 0.7
Mode: 0
LetterboxInBreaks: 1

[Editor]
Bookmarks: 90,8437,33481,50176,66872,75220,91916,108611,125307,133655,150350,167046,183742,192090
DistanceSpacing: 0.800000011920929
BeatDivisor: 4
GridSize: 8

[Metadata]
Title:Shawty Get Loose
Artist:Lil Mama ft. Chris Brown & T-Pain
Creator:YGOkid8
Version:Insane
Source:
Tags:lepidopodus

[Difficulty]
HPDrainRate:7
CircleSize:4
OverallDifficulty:9
SliderMultiplier:2
SliderTickRate:1

[Events]
//Background and Video events
Video,-8600,"sgl.avi"
0,0,"lilmamashawty.jpg"
//Break Periods
2,67072,72534
2,125507,132794
//Storyboard Layer 0 (Background)
//Storyboard Layer 1 (Fail)
//Storyboard Layer 2 (Pass)
//Storyboard Layer 3 (Foreground)
//Storyboard Sound Samples
//Background Colour Transformations
3,100,163,162,255

[TimingPoints]
90,521.739130434783,4,1,1,100,1,0
90,-50,4,1,1,100,0,0
50176,-50,4,1,1,100,0,1
66872,-50,4,1,1,100,0,0
108611,-50,4,1,1,100,0,1
125307,-50,4,1,1,100,0,0
162872,-100,4,1,1,100,0,0
164437,-50,4,1,1,100,0,0
167046,-50,4,1,1,100,0,1
183742,-50,4,1,1,100,0,0

[Colours]
Combo1 : 255,255,255
Combo2 : 108,108,108

[HitObjects]
136,144,8307,1,0
216,120,8438,1,4
296,120,8568,1,0
376,144,8699,1,0
352,304,8960,2,0,B|256:360|160:304,1,200
304,232,9481,2,0,B|96:232,1,200
240,144,10003,2,0,B|424:144|424:336,1,300
424,88,10786,6,0,B|216:88,1,200
144,88,11177,1,0
40,304,11568,2,0,B|248:304,1,200
320,304,11960,1,0
400,304,12090,1,0
400,304,12351,1,0
472,160,12612,5,4
392,136,12742,1,0
328,88,12873,1,0
248,72,13003,1,0
168,88,13134,1,0
48,192,13394,2,0,B|144:144|144:240|240:192,3,200
40,160,14699,5,4
120,136,14829,1,0
184,88,14960,1,0
264,72,15090,1,0
344,88,15221,1,0
464,192,15481,2,0,B|368:144|368:240|272:192,3,200,0|0|0|8
112,192,16525,1,0
112,192,16655,1,0
112,192,16786,5,4
112,192,16916,1,0
112,192,17047,1,0
112,192,17177,1,0
112,192,17307,1,8
256,256,17568,1,0
328,280,17699,1,0
408,256,17829,1,0
280,160,18090,2,0,B|160:160|160:296,2,200,0|8|0
440,160,18873,6,0,B|424:112|368:88,1,99.9999999999999
296,64,19134,1,0
216,64,19264,1,0
144,88,19394,1,8
96,240,19655,1,0
256,216,19916,1,0
256,56,20177,1,0
256,136,20307,1,0
256,216,20438,1,8
256,216,20699,1,0
72,136,20960,6,0,B|88:88|144:64,1,99.9999999999999,4|0
216,40,21221,1,0
296,40,21351,1,0
376,64,21481,2,0,B|424:80|448:136,1,99.9999999999999,8|0
480,200,21742,1,0
480,280,21873,1,0
408,240,22003,1,0
328,240,22134,1,0
256,96,22394,2,0,B|136:96|136:232,1,200
136,304,22786,1,0
216,288,22916,1,0
256,216,23047,5,0
136,8,23307,1,0
376,8,23568,1,8
480,128,23829,5,0
400,128,23960,1,0
320,128,24090,1,0
160,128,24351,1,0
160,128,24481,1,0
152,288,24742,1,0
152,288,24873,1,0
424,120,25394,6,0,B|328:184|328:72|232:128,2,200,0|8|0
424,120,26047,1,0
424,120,26177,1,0
424,280,26438,2,0,B|216:280,1,200,0|8
64,280,26960,1,0
64,120,27221,5,0
64,120,27351,1,0
64,120,27481,1,0
208,184,27742,1,8
200,344,28003,1,0
120,208,28264,2,0,B|216:240|296:312,1,200
352,360,28655,1,0
352,360,29047,1,0
480,64,29568,5,0
408,88,29699,1,0
328,64,29829,1,8
256,32,29960,1,0
184,64,30090,1,0
48,264,30351,5,0
104,320,30481,1,0
184,344,30612,1,0
464,264,30873,5,8
408,320,31003,1,0
328,344,31134,1,0
256,312,31264,1,0
256,232,31394,5,4
152,16,31786,1,8
208,72,31916,1,8
152,224,32177,5,8
208,168,32307,1,8
360,224,32568,1,8
304,168,32699,1,8
360,16,32960,5,8
256,136,33221,1,8
304,72,33351,1,8
64,88,33742,6,0,B|64:296,1,200,0|8
224,272,34264,1,0
224,112,34525,1,0
360,192,34786,2,0,B|152:192,1,200,0|8
336,24,35438,5,0
408,56,35568,1,0
464,112,35699,1,0
488,192,35829,1,0
456,264,35960,1,0
400,320,36090,1,8
304,192,36351,2,0,B|240:192|240:256,1,99.9999999999999
240,336,36612,1,0
368,240,36873,1,0
368,240,37003,1,0
216,192,37264,1,0
216,192,37394,1,0
496,32,37916,6,0,B|328:48|224:128,1,200,0|8
232,120,38307,1,0
168,168,38437,1,0
64,288,38699,2,0,B|232:272|336:192,1,200
328,200,39090,1,0
328,200,39481,1,0
440,312,39742,6,0,B|376:352|304:336,3,99.9999999999999,4|0|0|0
264,336,40264,1,8
120,272,40525,1,0
64,216,40655,1,0
64,136,40786,2,0,B|152:72|264:64,1,200
328,72,41177,2,0,B|311:179|237:264,1,200
192,312,41568,1,0
488,192,42090,6,0,B|472:136|400:104,2,99.9999999999999,0|0|8
352,112,42612,2,0,B|256:160|256:64|160:112,1,200
16,176,43134,2,0,B|112:128|112:224|208:176,2,200,0|8|0
160,112,43916,6,0,B|240:80|312:144|264:232,2,200,0|0|8
88,136,44568,1,0
16,176,44699,1,0
160,248,44960,2,0,B|256:296|360:248,1,200
296,192,45351,1,0
216,192,45481,1,8
256,344,45742,1,0
384,248,46003,6,0,B|416:80|256:16|96:80|136:248,1,400
296,192,46786,1,0
216,192,46916,1,0
136,168,47047,2,0,B|104:336|264:400|424:336|384:168,1,400
136,56,48090,5,4
56,192,48351,1,0
216,192,48612,1,0
136,328,48873,1,0
256,192,49134,12,4,50177
360,88,50699,6,0,B|416:96|464:144,2,100,8|0|0
200,80,51221,2,0,B|88:96|40:200,2,200,0|0|8
120,216,52003,1,0
184,168,52134,1,0
192,248,52264,5,4
256,104,52525,1,0
320,248,52786,1,8
256,104,53047,1,0
256,264,53307,2,0,B|160:304|56:264,2,200,4|0|8
328,232,53960,1,0
392,184,54090,1,0
392,184,54351,1,4
96,64,54873,6,0,B|48:152|72:264,1,200,8|0
104,328,55264,1,0
256,272,55525,1,0
256,112,55786,1,0
256,112,55916,1,8
400,184,56177,1,0
448,248,56307,1,0
480,176,56438,5,4
320,144,56699,1,0
256,192,56829,1,0
328,224,56960,1,8
256,368,57221,1,0
256,192,57481,12,4,58525
32,32,59047,5,8
480,32,59568,1,0
184,144,60090,2,0,B|136:168|80:144,2,100,8|0|0
336,88,60612,6,0,B|448:128|464:232,1,200,4|0
472,312,61003,1,0
400,272,61134,2,0,B|288:232|272:128,1,200,8|0
432,128,61655,2,0,B|280:256|184:192|48:280,1,400,4|8
8,328,62307,1,0
88,344,62438,1,0
248,328,62699,1,4
432,88,63221,6,0,B|376:168|256:200|136:168|80:88,1,400,8|0
240,88,64003,2,0,B|216:232|64:304,2,200,0|8|0
400,88,64786,6,0,B|400:192,1,100,4|0
400,272,65047,1,0
320,272,65177,1,0
320,192,65307,2,0,B|216:192,1,100,8|0
136,192,65568,1,0
136,272,65699,1,0
136,352,65829,2,0,B|240:352,1,100
320,352,66090,2,0,B|424:352,1,100
496,352,66351,2,0,B|496:224|368:224,2,200,8|0|4
256,192,73134,12,4,75220
80,112,75481,5,0
80,192,75612,1,0
80,272,75742,1,8
80,272,76003,1,0
192,160,76264,5,0
256,112,76394,1,0
320,160,76525,1,0
296,240,76655,1,0
216,240,76786,1,8
152,288,76916,2,0,B|192:328|256:312,2,100
104,224,77307,5,4
88,144,77438,1,0
120,72,77568,1,0
168,136,77699,1,0
184,216,77829,1,8
184,216,78090,1,0
288,96,78351,6,0,B|344:96|456:136,1,100
464,144,78612,1,0
488,224,78742,2,0,B|432:224|320:184,1,100,0|8
312,192,79003,2,0,B|312:248|352:360,2,100
312,112,79394,5,4
312,112,79525,1,0
312,112,79655,1,0
96,56,79916,5,8
64,128,80047,1,0
96,200,80177,1,0
64,272,80307,1,0
96,344,80438,1,0
96,344,80568,1,0
280,192,80960,2,0,B|313:248|376:288,3,100,8|0|0|0
416,304,81481,6,0,B|376:344|304:344,1,100,4|0
248,344,81742,1,0
176,304,81873,1,0
248,264,82003,2,0,B|216:208|96:160,1,100,8|0
104,168,82264,1,0
24,152,82394,1,0
80,96,82525,2,0,B|144:96|232:144,1,100,4|0
120,176,82786,2,0,B|120:240|168:328,1,100
208,224,83047,2,0,B|232:272|208:328,1,100,8|0
210,320,83438,5,0
210,320,83568,1,4
208,160,83829,1,0
208,80,83960,1,0
288,80,84090,2,0,B|392:80,1,100,8|0
464,80,84351,1,0
464,160,84481,1,0
464,240,84612,2,0,B|360:240,1,100
360,160,84873,1,0
280,160,85003,2,0,B|240:256|320:256|280:360,2,200
200,160,85655,6,0,B|192:200|188:220|200:264|224:304,2,100,4|0|0
224,80,86047,1,0
144,104,86177,2,0,B|110:126|93:138|70:177|59:222,2,100,8|0|0
224,80,86568,1,0
280,136,86699,2,0,B|313:158|330:170|353:209|364:254,2,100,0|0|0
304,56,87090,1,0
384,32,87220,2,0,B|384:176,1,100,8|0
392,328,87742,5,0
312,328,87873,1,4
152,328,88134,1,8
40,216,88394,2,0,B|88:160|219:144,1,150
256,144,88720,1,0
336,144,88916,1,0
408,240,89111,1,0
408,240,89307,1,8
352,352,89503,5,0
288,304,89634,1,0
256,232,89764,1,0
256,152,89895,1,4
360,368,90220,5,8
304,312,90351,1,8
360,160,90612,5,8
304,216,90742,1,8
152,160,91003,1,8
208,216,91134,1,8
152,368,91394,5,8
256,248,91655,1,8
208,312,91786,1,8
128,312,91916,5,4
384,72,92438,1,12
144,72,92829,5,0
96,136,92960,2,0,B|112:200|192:248,2,100,4|0|0
64,64,93351,2,0,B|16:88|16:152,1,100,0|8
48,216,93612,1,0
104,280,93742,1,0
184,288,93873,1,0
256,248,94003,6,0,B|320:216|400:224,1,100,4|0
432,224,94264,1,0
512,240,94394,1,0
488,168,94525,2,0,B|424:136|344:144,1,100,8|0
312,144,94786,1,0
232,160,94916,1,0
256,80,95047,2,0,B|192:48|112:56,1,100,4|0
80,56,95307,1,0
0,72,95438,1,0
56,128,95568,2,0,B|88:192|80:272,2,100,8|0|0
56,128,96090,5,4
456,128,96612,1,8
256,264,97003,5,0
320,312,97134,2,0,B|344:288|344:240|320:216,2,100,4|0|0
256,264,97525,1,0
192,216,97655,2,0,B|168:240|168:288|192:312,2,100,8|0|0
256,168,98047,1,0
256,88,98177,6,0,B|192:72|88:96,1,100,4|0
80,96,98438,1,0
8,128,98568,1,0
72,176,98699,2,0,B|136:160|240:184,1,100,8|0
248,192,98960,1,0
320,224,99090,1,0
384,264,99220,2,0,B|448:280|552:256,1,100,4|0
432,192,99481,5,0
256,32,99742,1,8
80,192,100003,1,0
256,352,100264,1,4
256,352,100786,1,8
256,272,100916,6,0,B|256:160,1,100
136,72,101307,2,0,B|184:144|184:272,1,200
256,224,101699,1,0
328,264,101829,2,0,B|328:136|376:64,1,200,8|0
440,32,102220,6,0,B|440:240,1,200
440,312,102612,1,0
368,272,102742,2,0,B|368:56,1,200
288,72,103134,1,0
208,72,103264,1,0
48,72,103525,1,0
48,232,103786,1,0
48,232,103916,1,8
48,232,104047,1,0
48,232,104177,1,0
96,80,104438,5,4
416,80,104960,1,0
256,264,105351,1,0
176,264,105481,2,0,B|184:192|256:160|328:192|336:264,1,200
328,304,105873,1,0
256,344,106003,1,0
96,344,106264,1,0
376,56,106525,5,4
456,192,106786,1,0
296,192,107047,1,0
376,328,107307,1,0
256,192,107568,12,4,108612
152,88,109134,6,0,B|96:96|48:144,2,100,8|0|0
312,80,109655,2,0,B|424:96|472:200,2,200,0|0|8
392,216,110438,1,0
328,168,110568,1,0
320,248,110699,5,4
256,104,110960,1,0
192,248,111220,1,8
256,104,111481,1,0
256,264,111742,2,0,B|352:304|456:264,2,200,4|0|8
184,232,112394,1,0
120,184,112525,1,0
120,184,112786,1,4
416,64,113307,6,0,B|464:152|440:264,1,200,8|0
408,328,113699,1,0
256,272,113960,1,0
256,112,114220,1,0
256,112,114351,1,8
112,184,114612,1,0
64,248,114742,1,0
32,176,114873,5,4
192,144,115134,1,0
256,192,115264,1,0
184,224,115394,1,8
256,368,115655,1,0
256,192,115916,12,4,116960
480,32,117481,5,8
32,32,118003,1,0
328,144,118525,2,0,B|376:168|432:144,2,100,8|0|0
176,88,119047,6,0,B|64:128|48:232,1,200,4|0
40,312,119438,1,0
112,272,119568,2,0,B|224:232|240:128,1,200,8|0
80,128,120090,2,0,B|232:256|328:192|464:280,1,400,4|8
504,328,120742,1,0
424,344,120873,1,0
264,328,121134,1,4
80,88,121655,6,0,B|136:168|256:200|376:168|432:88,1,400,8|0
272,88,122438,2,0,B|296:232|448:304,2,200,0|8|0
112,88,123220,6,0,B|112:192,1,100,4|0
112,272,123481,1,0
192,272,123612,1,0
192,192,123742,2,0,B|296:192,1,100,8|0
376,192,124003,1,0
376,272,124134,1,0
376,352,124264,2,0,B|272:352,1,100
192,352,124525,2,0,B|88:352,1,100
16,352,124786,2,0,B|16:224|144:224,2,200,8|0|4
344,256,133394,5,0
416,288,133525,1,0
352,336,133655,2,0,B|256:384|152:336,1,200,4|0
168,256,134047,1,0
96,288,134177,2,0,B|48:192|96:88,1,200,8|0
168,128,134568,1,0
256,264,134829,1,0
256,264,134960,1,0
344,128,135220,1,8
344,128,135351,1,0
432,264,135612,5,0
432,104,135873,1,0
368,48,136003,1,0
256,160,136264,1,8
200,104,136394,1,0
48,48,136655,1,0
72,208,136916,5,0
88,288,137047,1,0
144,344,137177,1,0
224,360,137307,1,8
304,344,137438,1,0
256,192,137699,5,0
336,48,137960,1,0
176,48,138220,1,0
312,128,138481,1,0
392,112,138612,1,0
416,32,138742,1,0
472,88,138873,1,8
448,168,139003,1,0
336,48,139264,2,0,B|176:48|72:184,1,300
32,248,139786,1,0
112,248,139916,6,0,B|160:176|232:128|272:128,1,200,4|0
344,120,140307,1,0
424,136,140438,2,0,B|376:208|304:256|264:256,1,200,8|0
192,264,140829,1,0
112,248,140960,1,0
136,328,141090,1,0
216,344,141220,1,0
272,288,141351,1,0
256,48,141612,5,0
256,48,141742,1,0
96,48,142003,2,0,B|96:176|224:176,1,200,4|0
256,248,142394,1,0
296,176,142525,2,0,B|424:176|424:304,1,200,8|0
48,112,143047,5,0
48,272,143307,1,0
464,112,143568,5,8
464,272,143829,1,0
96,336,144090,6,0,B|96:208|224:208,1,200,4|0
256,136,144481,1,0
296,208,144612,2,0,B|424:208|424:80,1,200,8|0
48,272,145134,5,0
48,112,145394,1,0
464,272,145655,5,8
464,112,145916,1,0
384,112,146047,5,0
384,32,146177,2,0,B|280:32,1,100,4|0
200,32,146438,1,0
200,112,146568,1,0
280,112,146699,2,0,B|280:224,1,100,8|0
280,296,146960,1,0
200,296,147090,1,0
200,216,147220,2,0,B|96:216,1,100
16,216,147481,1,0
16,136,147612,1,0
16,56,147742,2,0,B|120:56,1,100,8|0
256,232,148134,5,0
256,232,148264,1,4
152,16,148655,1,8
208,72,148786,1,8
152,224,149047,5,8
208,168,149177,1,8
360,224,149438,1,8
304,168,149568,1,8
360,16,149829,5,8
256,136,150090,1,8
304,72,150220,1,8
432,168,150481,5,0
464,240,150612,1,0
448,320,150742,1,0
376,360,150873,1,8
216,360,151134,1,0
136,360,151264,1,0
56,360,151394,2,0,B|56:232|184:232,2,200,0|0|8
32,200,152177,5,0
96,152,152307,1,0
176,152,152438,1,4
480,184,152699,5,0
416,232,152829,1,0
336,232,152960,2,0,B|280:208|216:128,1,100,8|0
200,120,153220,1,0
136,80,153351,1,0
56,64,153481,2,0,B|56:280,2,200,0|0|8
56,64,154264,1,0
464,48,154525,6,0,B|336:48|336:176,1,200,4|0
336,248,154916,1,0
336,328,155047,1,8
336,328,155307,1,0
48,336,155568,6,0,B|176:336|176:208,1,200,4|0
176,136,155960,1,0
176,56,156090,1,8
176,56,156351,1,0
336,56,156612,6,0,B|336:160,1,100,4|0
336,240,156873,1,0
336,320,157003,1,0
256,320,157134,2,0,B|152:320,1,100,8|0
72,320,157394,1,0
72,240,157525,1,0
152,240,157655,2,0,B|152:136,1,100
152,56,157916,1,0
232,56,158047,1,0
232,136,158177,1,8
472,136,158568,1,0
256,240,158960,5,0
256,240,159090,1,0
256,240,159220,1,8
88,32,159742,6,0,B|160:104|272:104,1,200
352,104,160134,1,0
432,104,160264,2,0,B|360:176|248:176,1,200,8|0
168,176,160655,1,0
88,176,160786,6,0,B|88:280,1,100,4|0
88,360,161047,1,0
168,360,161177,1,0
248,360,161307,2,0,B|352:360,1,100,8|0
432,360,161568,1,0
432,280,161699,1,0
352,280,161829,2,0,B|248:280,1,100
168,280,162090,1,0
168,280,162351,1,8
168,280,162612,1,0
40,192,162873,6,0,B|136:160,1,100
216,152,163394,1,0
296,152,163655,1,0
336,152,163786,1,0
376,152,163916,2,0,L|384:160|368:160|384:168|368:168|384:176|368:176|384:184|368:184|384:192|368:192|384:200|368:200|376:208,1,200
296,240,164568,5,0
216,240,164699,1,0
160,88,164960,2,0,B|256:32|352:88,2,200,4|0|0
256,216,165742,1,0
256,296,165873,1,0
256,192,166003,12,4,167047
408,112,167568,5,8
408,192,167699,1,0
408,272,167829,1,0
272,192,168090,2,0,B|144:192|144:320,2,200,0|0|8
264,32,168873,5,0
184,48,169003,1,0
120,96,169134,2,0,B|56:176|56:288,1,200,4|0
136,264,169525,1,0
184,328,169655,2,0,B|248:248|248:136,1,200,8|0
408,144,170177,6,0,B|408:352,2,200,4|0|8
328,144,170829,1,0
328,224,170960,1,0
328,224,171220,1,4
56,56,171742,5,8
216,56,172003,1,0
216,136,172134,1,0
56,136,172394,1,0
136,280,172655,1,0
136,360,172786,1,8
248,32,173047,5,0
328,48,173177,1,0
392,96,173307,2,0,B|456:176|456:288,1,200,4|0
376,264,173699,1,0
328,328,173829,2,0,B|264:248|264:136,1,200,8|0
104,144,174351,6,0,B|104:352,2,200,4|0|8
184,144,175003,1,0
184,224,175134,1,0
184,224,175394,1,4
456,56,175916,5,8
56,328,176438,1,0
256,80,176960,1,8
256,80,177090,1,0
256,80,177220,1,0
416,80,177481,6,0,B|416:288,1,200,4|0
416,360,177873,1,0
344,320,178003,2,0,B|136:320,1,200,8|0
0,248,178525,2,0,B|208:248,2,200,4|0|8
0,168,179177,1,0
80,168,179307,1,0
0,32,179568,1,4
432,88,180090,6,0,B|376:168|256:200|136:168|80:88,1,400,8|0
240,88,180873,2,0,B|216:232|64:304,2,200,0|8|0
400,88,181655,6,0,B|400:192,1,100,4|0
400,272,181916,1,0
320,272,182047,1,0
320,192,182177,2,0,B|216:192,1,100,8|0
136,192,182438,1,0
136,272,182568,1,0
136,352,182699,2,0,B|240:352,1,100
320,352,182960,2,0,B|424:352,1,100
496,352,183220,2,0,B|496:224|368:224,2,200,8|0|4
