osu file format v7

[General]
AudioFilename: Shawty Get Loose.mp3
AudioLeadIn: 0
PreviewTime: 49655
Countdown: 1
SampleSet: Normal
StackLeniency: 0.7
Mode: 0
LetterboxInBreaks: 1

[Editor]
Bookmarks: 90,8437,33481,50176,66872,75220,91916,108611,125307,133655,150350,167046,183742,192090
DistanceSpacing: 0.899999976158142
BeatDivisor: 4
GridSize: 8

[Metadata]
Title:Shawty Get Loose
Artist:Lil Mama ft. Chris Brown & T-Pain
Creator:YGOkid8
Version:Hard
Source:
Tags:lepidopodus

[Difficulty]
HPDrainRate:5
CircleSize:4
OverallDifficulty:7
SliderMultiplier:2
SliderTickRate:1

[Events]
//Background and Video events
Video,-8600,"sgl.avi"
0,0,"lilmamashawty.jpg"
//Break Periods
2,67072,72233
2,125507,132494
//Storyboard Layer 0 (Background)
//Storyboard Layer 1 (Fail)
//Storyboard Layer 2 (Pass)
//Storyboard Layer 3 (Foreground)
//Storyboard Sound Samples
//Background Colour Transformations
3,100,163,162,255

[TimingPoints]
90,521.739130434783,4,1,1,100,1,0
50176,-100,4,1,1,100,0,1
66872,-100,4,1,1,100,0,0
108611,-100,4,1,1,100,0,1
125307,-100,4,1,1,100,0,0
162872,-200,4,1,1,100,0,0
164437,-100,4,1,1,100,0,0
167046,-100,4,1,1,100,0,1
183742,-100,4,1,1,100,0,0

[Colours]
Combo1 : 255,255,255
Combo2 : 108,108,108

[HitObjects]
256,72,8307,1,0
256,72,8437,2,0,B|216:80|184:128,2,50,4|0|0
344,64,8959,1,0
432,72,9220,1,0
392,152,9481,2,0,B|344:160|288:152,1,100
200,144,10003,2,0,B|112:144|112:248,1,150
248,224,10785,2,0,B|352:224|352:312,1,150
464,224,11568,2,0,B|360:224|360:80,1,200
184,40,12611,5,4
144,48,12742,1,0
104,72,12872,1,0
40,136,13133,2,0,B|-16:232|24:336,2,200
328,40,14698,5,4
368,48,14829,1,0
408,72,14959,1,0
472,136,15220,2,0,B|528:232|488:336,2,200,0|0|8
288,136,16785,5,4
360,192,17046,1,0
272,224,17307,1,8
208,168,17568,1,0
120,168,17829,2,0,B|56:168|56:232,1,100
56,320,18350,1,8
56,320,18611,1,0
144,288,18872,5,0
184,272,19003,1,0
216,240,19133,2,0,B|240:208|216:184,2,50,0|0|8
304,240,19655,2,0,B|280:208|304:184,2,50
392,272,20176,1,0
392,184,20437,2,0,B|392:120|328:120,1,100,8|0
248,152,20959,6,0,B|288:112,3,50,4|0|0|0
283,116,21481,2,0,B|248:80,3,50,8|0|0|0
200,80,22003,2,0,B|112:80|112:184,1,150
40,288,22785,1,0
80,312,22916,1,0
120,288,23046,5,4
120,200,23307,1,0
208,200,23568,1,8
208,288,23829,1,0
296,288,24090,2,0,L|352:288|352:240,1,100
352,200,24481,1,0
440,168,24742,1,0
440,168,24872,1,0
32,48,25394,5,0
32,136,25655,1,8
112,88,25916,1,0
112,136,26046,1,0
112,176,26176,1,0
32,224,26437,1,0
112,272,26698,1,8
192,224,26959,1,0
256,288,27220,5,0
296,312,27350,1,0
336,288,27481,1,0
400,224,27742,2,0,B|432:176|400:128,1,100,8|0
312,104,28263,2,0,B|208:104,1,100
168,104,28655,1,0
32,104,29046,1,0
32,288,29568,5,0
56,328,29698,1,0
88,360,29829,2,0,B|112:376|136:360,1,50,8|0
168,328,30090,1,0
256,304,30350,2,0,B|280:320|304:304,2,50
256,216,30872,2,0,B|232:232|208:216,2,50,8|0|0
256,192,31394,12,4,33481
168,192,33742,5,0
256,192,34003,1,8
344,192,34263,1,0
344,280,34524,1,0
256,280,34785,1,0
256,368,35046,1,8
72,136,35568,6,0,B|72:8|200:8,1,200,0|8
192,96,36350,1,0
192,144,36481,1,0
192,192,36611,2,0,B|192:320|320:320,1,200,0|8
400,320,37394,1,0
480,48,37916,5,0
392,48,38176,1,8
368,88,38307,1,0
392,128,38437,1,0
480,128,38698,2,0,B|504:176|480:232,1,100
464,264,39089,1,0
344,328,39481,1,0
256,328,39742,5,4
160,176,40263,1,8
344,176,40785,1,0
256,144,41046,2,0,B|256:248,1,100,0|8
256,208,41829,5,4
256,208,42089,1,0
256,120,42350,1,8
256,208,42611,1,0
336,160,42872,1,0
256,208,43133,1,0
336,256,43394,1,8
256,208,43655,1,0
256,296,43916,5,4
256,208,44176,1,0
176,256,44437,1,8
256,208,44698,1,0
176,160,44959,1,0
256,208,45220,1,0
256,120,45481,1,8
256,120,45742,1,0
344,120,46003,5,0
432,120,46263,1,0
432,208,46524,1,0
472,288,46785,1,0
432,304,46916,1,0
392,288,47046,1,0
304,288,47307,2,0,B|256:304|200:288,1,100
160,272,47698,1,0
160,136,48089,5,4
80,176,48350,1,0
32,256,48611,1,0
32,344,48872,1,0
256,192,49133,12,4,50176
256,192,50698,5,8
256,192,50829,1,0
256,192,50959,1,0
208,112,51220,2,0,B|256:80|304:112,2,100,0|0|8
136,168,52003,1,0
112,208,52133,1,0
136,248,52263,5,4
216,216,52524,1,0
296,248,52785,1,8
384,216,53046,1,0
376,128,53307,2,0,B|488:128|488:272,1,200,4|8
487,263,53959,1,0
487,263,54089,1,0
488,352,54350,5,4
328,264,54872,1,8
256,208,55133,1,0
256,208,55263,1,0
184,264,55524,1,0
184,352,55785,1,0
184,304,55916,1,8
104,264,56176,1,0
88,224,56307,1,0
104,184,56437,6,0,B|104:120|168:120,1,100,4|0
164,120,56829,1,0
164,120,56959,2,0,B|272:120,1,100,8|0
352,120,57481,1,4
256,272,58003,2,0,B|256:328,2,50,8|0|0
256,184,58524,5,4
120,40,59046,1,8
392,40,59568,1,0
392,224,60089,2,0,L|392:240|416:208|416:256,1,100,8|0
464,328,60611,5,4
376,328,60872,1,0
336,352,61003,1,0
296,328,61133,1,8
232,264,61394,1,0
176,192,61655,2,0,L|160:168|152:192|112:160,1,100,4|0
64,88,62176,2,0,L|40:88|40:120,2,50,8|0|0
152,88,62698,5,4
336,88,63220,2,0,B|392:184|336:280,1,200,8|0
272,344,64003,1,0
184,344,64263,1,8
40,232,64785,6,0,B|80:192,1,50,4|0
88,240,65046,2,0,B|136:216,1,50
128,264,65307,2,0,B|184:256,1,50,8|0
160,296,65568,2,0,B|216:304,1,50
256,192,65829,12,4,66872
256,192,73133,12,4,75220
256,96,75481,5,0
296,120,75611,1,0
320,160,75742,1,8
336,248,76003,1,0
256,216,76263,2,0,B|256:248|224:248,1,50
184,264,76524,1,0
152,296,76655,1,0
136,336,76785,2,0,B|136:392,1,50,8|0
40,288,77307,6,0,B|40:232,1,50,4|0
56,200,77568,1,0
96,176,77698,1,0
144,168,77829,2,0,B|248:168,2,100,8|0|0
144,120,78481,2,0,B|144:88|176:88,1,50
216,88,78742,1,0
264,88,78872,2,0,B|320:88,1,50,8|0
456,328,79394,5,4
416,344,79524,1,0
376,328,79655,1,0
384,240,79916,2,0,B|328:240,3,50,8|0|0|0
288,240,80437,2,0,B|288:296,1,50
200,184,80959,2,0,B|200:152|232:152,3,50,8|0|0|0
272,152,81481,6,0,B|368:152|368:56,1,150,4|0
320,56,82003,2,0,B|168:56,1,150,8|0
128,56,82524,2,0,B|96:56|96:88,1,50,4|0
88,128,82785,1,0
88,176,82916,1,0
88,224,83046,2,0,B|88:280,1,50,8|0
88,368,83437,1,0
88,368,83568,6,0,B|152:360|208:288,1,100,4|0
216,304,83959,1,0
256,288,84089,2,0,B|288:288|328:328,1,50,8|0
344,320,84350,2,0,B|394:359|485:348,1,100
480,272,84872,1,0
480,272,85003,1,0
480,184,85263,2,0,B|480:120|416:120,1,100
376,120,85655,6,0,B|320:120,3,50,4|0|0|0
280,120,86176,2,0,B|280:224,1,100,8|0
280,264,86568,1,0
280,312,86698,2,0,B|216:312|216:248,1,100
216,208,87089,1,0
216,160,87220,2,0,B|272:160,1,50,8|0
376,160,87676,5,0
424,160,87807,2,0,B|464:224|424:280,1,125,4|0
480,352,88394,2,0,B|480:272,1,75
480,277,88720,1,0
480,277,88850,2,0,B|480:160,1,100
480,177,89307,1,8
456,112,89503,2,0,B|488:104|512:112,2,50
256,192,89829,12,4,91916
256,192,92437,5,8
256,56,92829,1,0
304,56,92959,2,0,B|336:56|336:88,2,50
304,104,93350,2,0,B|304:160,2,50,0|8|0
352,104,93742,2,0,B|408:104,1,50
448,104,94003,6,0,B|504:176|448:248,1,150,4|0
416,272,94524,2,0,B|384:280|368:256,3,50,8|0|0|0
370,259,95046,2,0,B|344:248|320:264,3,50,4|0|0|0
322,262,95568,2,0,B|320:328|256:328,1,100,8|0
176,328,96090,5,4
40,216,96611,1,8
40,80,97003,1,0
80,64,97133,2,0,B|128:40|184:64,1,100
216,80,97524,1,0
256,96,97655,2,0,B|304:120|360:96,1,100,8|0
440,72,98176,6,0,B|480:112,3,50,4|0|0|0
432,120,98698,2,0,B|456:168,3,50,8|0|0|0
472,208,99220,2,0,B|424:248|368:200,3,100,4|0|8|0
376,296,100263,5,4
136,296,100785,1,8
40,144,101307,2,0,B|88:120|144:144,1,100
208,192,101829,2,0,B|256:216|312:192,1,100,8|0
376,144,102350,6,0,B|424:120|480:144,1,100,4|0
424,216,102872,2,0,B|424:280|360:280,1,100,8|0
272,280,103394,1,4
184,280,103655,1,0
96,280,103916,2,0,B|40:280,2,50,8|0|0
96,192,104437,5,4
416,192,104959,1,0
416,56,105350,5,0
368,56,105481,2,0,B|304:56|304:120,1,100
296,160,105872,2,0,B|296:216,1,50,0|0
296,304,106263,1,0
240,232,106524,5,4
152,232,106785,2,0,B|32:232|32:368,1,200
256,192,107568,12,4,108611
256,192,109133,5,8
256,192,109263,1,0
256,192,109394,1,0
304,112,109655,2,0,B|256:80|208:112,2,100,0|0|8
376,168,110437,1,0
400,208,110568,1,0
376,248,110698,5,4
296,216,110959,1,0
216,248,111220,1,8
128,216,111481,1,0
136,128,111742,2,0,B|24:128|24:272,1,200,4|8
25,263,112394,1,0
25,263,112524,1,0
24,352,112785,5,4
184,264,113307,1,8
256,208,113568,1,0
256,208,113698,1,0
328,264,113959,1,0
328,352,114220,1,0
328,304,114350,1,8
408,264,114611,1,0
424,224,114742,1,0
408,184,114872,6,0,B|408:120|344:120,1,100,4|0
348,120,115263,1,0
348,120,115394,2,0,B|240:120,1,100,8|0
160,120,115916,1,4
256,272,116437,2,0,B|256:328,2,50,8|0|0
256,184,116959,5,4
392,40,117481,1,8
120,40,118003,1,0
120,224,118524,2,0,L|120:240|96:208|96:256,1,100,8|0
48,328,119046,5,4
136,328,119307,1,0
176,352,119437,1,0
216,328,119568,1,8
280,264,119829,1,0
336,192,120090,2,0,L|352:168|360:192|400:160,1,100,4|0
448,88,120611,2,0,L|472:88|472:120,2,50,8|0|0
360,88,121133,5,4
176,88,121655,2,0,B|120:184|176:280,1,200,8|0
240,344,122437,1,0
328,344,122698,1,8
472,232,123220,6,0,B|432:192,1,50,4|0
424,240,123481,2,0,B|376:216,1,50
384,264,123742,2,0,B|328:256,1,50,8|0
352,296,124003,2,0,B|296:304,1,50
256,192,124263,12,4,125307
256,96,133394,6,0,B|216:96|184:128,2,50,0|0|4
256,184,133916,2,0,B|296:184|328:216,2,50,0|0|8
256,272,134437,2,0,B|216:272|184:304,1,50
208,192,134829,1,0
208,192,134959,1,0
304,192,135220,1,8
304,192,135350,1,0
352,120,135611,5,0
272,88,135872,2,0,B|240:80|216:88,1,50
136,112,136263,2,0,B|107:128|96:151,1,50,8|0
56,224,136655,1,0
120,288,136916,2,0,B|152:304|192:296,4,50,0|0|0|8|0
208,88,137698,5,0
256,160,137959,1,0
304,88,138220,1,0
304,176,138481,1,0
344,160,138611,2,0,B|376:160|376:128,3,50
408,216,139263,1,0
304,304,139655,1,0
256,312,139785,1,0
208,304,139916,6,0,B|144:312|136:248,1,100,4|0
136,252,140307,1,0
136,252,140437,2,0,B|128:188|192:180,1,100,8|0
187,180,140829,1,0
187,180,140959,2,0,B|251:188|259:124,1,100
258,128,141350,1,0
392,128,141742,1,0
256,192,142003,5,4
256,104,142263,1,0
256,192,142524,1,8
256,280,142785,1,0
168,192,143046,5,0
168,192,143307,1,0
344,192,143568,5,8
344,192,143829,1,0
256,192,144090,5,4
318,129,144350,1,0
256,192,144611,1,8
193,254,144872,1,0
193,129,145133,5,0
193,129,145394,1,0
318,254,145655,5,8
318,254,145916,1,0
312,168,146176,6,0,B|352:128,1,50,4|0
304,128,146437,2,0,B|328:80,1,50
280,96,146698,2,0,B|296:40,1,50,8|0
256,64,146959,2,0,B|256:8,1,50
232,96,147220,2,0,B|216:40,1,50,0|0
208,128,147481,2,0,B|184:80,1,50
200,168,147742,2,0,B|160:128,1,50,8|0
256,192,148263,12,8,149829
384,192,150350,1,4
432,192,150481,2,0,B|464:192|480:216,3,50,0|0|0|8
480,120,151133,1,0
440,104,151263,1,0
408,72,151394,1,0
320,64,151655,2,0,B|256:64|256:128,2,100,0|8|0
320,152,152437,5,4
232,152,152698,2,0,B|176:152,1,50
182,152,152959,2,0,B|142:192,1,50,8|0
146,187,153220,2,0,B|146:243,1,50
146,237,153481,2,0,B|144:344,2,100,0|0|8
56,240,154263,1,0
56,152,154524,5,4
136,192,154785,1,0
136,192,154916,1,0
136,192,155046,1,8
216,152,155307,1,0
456,152,155568,5,4
376,192,155829,1,0
376,192,155959,1,0
376,192,156090,1,8
296,152,156350,1,0
256,232,156611,6,0,B|232:240|216:264,3,50,4|0|0|0
264,280,157133,2,0,B|256:304|232:320,3,50,8|0|0|0
192,304,157655,1,4
104,304,157916,2,0,B|0:304,1,100,0|8
104,216,158568,1,0
256,80,158959,5,0
256,80,159090,1,0
256,80,159220,1,8
440,80,159742,2,0,B|432:144|376:176,1,100
352,192,160133,1,0
312,208,160263,2,0,B|248:216|216:272,1,100,8|0
160,192,160785,6,0,B|120:232,1,50,4|0
168,232,161046,2,0,B|152:288,1,50
192,264,161307,2,0,B|208:320,1,50,8|0
232,280,161568,2,0,B|272:320,1,50
272,272,161829,2,0,B|320:288,1,50
360,304,162090,2,0,B|456:336,2,100,0|8|0
368,216,162872,6,0,B|304:200|344:168|296:152,1,100
208,152,163655,1,0
184,152,163785,1,0
160,152,163916,2,0,B|96:168|136:200|88:216,1,100
136,296,164698,5,0
376,296,164959,1,4
376,208,165220,2,0,B|272:208,2,100
256,192,166003,12,4,167046
160,72,167568,5,8
120,88,167698,1,0
96,128,167829,1,0
64,216,168090,2,0,B|64:320,2,100,0|0|8
152,216,168872,2,0,B|208:216,1,50
248,216,169133,5,4
336,216,169394,2,0,B|336:272,1,50
336,312,169655,1,8
424,312,169916,1,0
424,224,170176,2,0,B|424:96|296:96,2,200,4|8|4
256,152,171742,5,8
168,152,172003,2,0,B|168:208,1,50
168,296,172394,1,0
80,296,172655,2,0,B|80:240,1,50,0|8
80,152,173046,1,0
80,104,173176,1,0
80,56,173307,6,0,B|288:56,1,200,4|8
432,56,174350,2,0,B|224:56,1,200,4|8
256,232,175394,5,4
168,80,175916,1,8
344,80,176437,1,0
256,232,176959,2,0,B|256:288,2,50,8|0|0
256,144,177481,5,4
168,144,177742,1,0
168,192,177872,1,0
168,240,178003,2,0,B|168:344,1,100,8|0
256,336,178524,2,0,B|360:336,2,100,4|0|8
256,336,179176,1,0
256,336,179307,1,0
256,248,179568,5,4
160,96,180090,2,0,B|368:96,2,200,8|0|8
152,280,181655,6,0,B|96:280,1,50,4|0
152,280,181916,2,0,B|152:336,1,50
152,280,182176,2,0,B|208:280,1,50,8|0
152,280,182437,2,0,B|152:224,1,50
256,192,182698,12,4,183742
