osu file format v7

[General]
AudioFilename: Shawty Get Loose.mp3
AudioLeadIn: 0
PreviewTime: 49655
Countdown: 1
SampleSet: Normal
StackLeniency: 0.7
Mode: 0
LetterboxInBreaks: 1

[Editor]
Bookmarks: 90,8437,33481,50176,66872,75220,91916,108611,125307,133655,150350,167046,183742,192090
DistanceSpacing: 0.600000023841858
BeatDivisor: 2
GridSize: 8

[Metadata]
Title:Shawty Get Loose
Artist:Lil Mama ft. Chris Brown & T-Pain
Creator:YGOkid8
Version:Easy
Source:
Tags:lepidopodus

[Difficulty]
HPDrainRate:1
CircleSize:3
OverallDifficulty:2
SliderMultiplier:1.4
SliderTickRate:2

[Events]
//Background and Video events
Video,-8600,"sgl.avi"
0,0,"lilmamashawty.jpg"
//Break Periods
2,48289,48616
2,67072,71573
2,106724,107051
2,125507,132095
2,165159,165486
//Storyboard Layer 0 (Background)
//Storyboard Layer 1 (Fail)
//Storyboard Layer 2 (Pass)
//Storyboard Layer 3 (Foreground)
//Storyboard Sound Samples
//Background Colour Transformations
3,100,163,162,255

[TimingPoints]
90,521.739130434783,4,1,1,100,1,0
50176,-100,4,1,1,100,0,1
66872,-100,4,1,1,100,0,0
108611,-100,4,1,1,100,0,1
125307,-100,4,1,1,100,0,0
162872,-200,4,1,1,100,0,0
164437,-100,4,1,1,100,0,0
167046,-100,4,1,1,100,0,1
183742,-100,4,1,1,100,0,0

[Colours]
Combo1 : 255,255,255
Combo2 : 108,108,108

[HitObjects]
144,224,8437,2,0,B|104:168|96:88|152:16|256:-40|360:16|416:88|408:168|368:224,1,560,4|0
256,352,11568,1,0
120,256,12611,6,0,B|256:184|392:256,2,280,4|0|4
400,72,16785,6,0,B|400:216,1,140,4|8
400,296,17829,2,0,B|256:296,1,140,0|8
176,296,18872,2,0,B|176:120|352:120,2,280,0|0|4
40,192,22003,5,8
152,64,23046,2,0,B|368:64,2,210,4|8|8
64,64,25133,5,4
176,192,26176,1,8
64,320,27220,1,0
232,320,28263,2,0,B|376:320,2,140,8|0|4
256,152,30350,5,8
256,192,31394,12,4,33481
80,80,34524,5,0
248,80,35568,2,0,B|392:80,1,140,0|8
424,160,36611,2,0,B|136:160,1,280,0|4
256,280,38698,5,8
152,144,39742,2,0,B|256:96|360:144,2,210,4|8|8
80,192,41829,5,4
137,349,42872,1,8
295,292,43916,1,0
456,352,44959,1,8
512,192,46003,6,0,B|408:88|256:64|104:88|0:192,1,560,0|4
256,192,50176,5,4
168,48,51220,1,0
80,192,52263,2,4,B|80:368|256:368,1,280
416,368,54350,1,4
416,200,55394,5,0
280,104,56437,2,4,B|-8:104,2,280
264,272,59568,5,0
96,272,60611,2,4,B|96:104|280:104,2,280
0,128,63742,1,0
256,192,64785,12,4,66872
256,192,73133,12,4,75220
232,112,76263,6,0,B|88:112,2,140,4|0|4
280,272,78350,2,0,B|424:272,2,140,4|0|4
112,272,80437,5,0
112,104,81481,2,0,B|328:104,2,210,4|8|8
24,104,83568,5,4
24,184,84090,2,8,B|312:184,1,280
392,184,85655,5,4
392,264,86176,2,8,B|104:264,1,280
24,264,87742,5,4
24,96,88785,1,0
256,192,89829,12,4,91916
256,112,92959,6,0,B|400:112,1,140,0|8
480,112,94003,2,4,B|480:288|304:288,2,280
336,192,97133,5,0
168,192,98176,2,4,B|0:192|0:376,2,280
256,48,101307,5,0
392,144,102350,2,4,B|256:216|120:144,2,280
344,304,105481,1,0
168,304,106524,1,4
256,192,108611,5,4
344,336,109655,1,0
432,192,110698,2,4,B|432:16|256:16,1,280
96,16,112785,1,4
96,184,113829,5,0
232,280,114872,2,4,B|520:280,2,280
248,112,118003,5,0
416,112,119046,2,4,B|416:280|232:280,2,280
512,256,122176,1,0
256,192,123220,12,4,125307
240,72,133655,6,0,B|456:72,2,210,4|0|8
272,152,135742,2,0,B|56:152,2,210,4|0|8
360,152,137829,5,4
448,296,138872,1,0
280,296,139916,2,0,B|64:296,2,210,4|8|8
256,216,142003,5,4
328,64,143046,2,0,B|184:64,2,140,0|8|4
216,192,145133,5,0
296,192,145655,1,8
256,264,146176,1,4
256,96,147220,1,0
256,192,148263,12,4,150349
432,304,151394,5,0
264,304,152437,2,0,B|120:304,1,140,0|8
88,224,153481,2,0,B|376:224,1,280,0|4
256,104,155568,5,4
360,240,156611,2,0,B|256:288|152:240,2,210,4|0|8
432,192,158698,5,4
375,35,159742,1,8
217,92,160785,1,0
56,32,161829,1,8
152,168,162872,6,0,B|256:128|256:208|360:168,1,210
440,160,164959,1,4
168,352,167046,5,4
336,352,168090,1,0
392,192,169133,2,4,B|256:152|112:192,2,280
256,88,172263,5,0
88,88,173307,2,4,B|88:376,2,280
256,88,176437,5,0
424,88,177481,2,4,B|424:376,2,280
344,120,180090,6,0,L|344:192|272:192,2,140,8|0|8
256,192,181655,12,4,183742
