osu file format v13

[General]
AudioFilename: Mine Turtle!.mp3
AudioLeadIn: 0
PreviewTime: 52840
Countdown: 0
SampleSet: None
StackLeniency: 0.7
Mode: 0
LetterboxInBreaks: 1
WidescreenStoryboard: 1

[Editor]
DistanceSpacing: 1
BeatDivisor: 2
GridSize: 4
TimelineZoom: 1.1

[Metadata]
Title:Mine Turtle
TitleUnicode:Mine Turtle
Artist:Lil Deuce Deuce
ArtistUnicode:Lil Deuce Deuce
Creator:Gexigamma
Version:Easy
Source:asdfmovie
Tags:tomska hello
BeatmapID:535584
BeatmapSetID:230219

[Difficulty]
HPDrainRate:4
CircleSize:3
OverallDifficulty:4
ApproachRate:3
SliderMultiplier:0.8
SliderTickRate:2

[Events]
//Background and Video events
0,0,"BG.png",0,0
//Break Periods
2,65340,73900
2,88040,90150
//Storyboard Layer 0 (Background)
//Storyboard Layer 1 (Fail)
//Storyboard Layer 2 (Pass)
//Storyboard Layer 3 (Foreground)
//Storyboard Sound Samples
//Background Colour Transformations
3,100,163,162,255

[TimingPoints]
340,312.5,4,1,0,60,1,0
2840,-100,4,1,0,60,0,1
8152,-100,4,1,0,60,0,0
8933,-100,4,1,0,60,0,1
12840,-100,4,1,0,60,0,0
22840,-100,4,1,0,60,0,1
28152,-100,4,1,0,60,0,0
28933,-100,4,1,0,60,0,1
32840,-100,4,1,0,60,0,0
52840,-100,4,1,0,60,0,1
58152,-100,4,1,0,60,0,0
58933,-100,4,1,0,60,0,1
62840,-100,4,1,0,60,0,0
91590,-100,4,1,0,60,0,1
91668,-100,4,1,0,60,0,0
101590,-100,4,1,0,60,0,1
111590,-100,4,1,0,60,0,0

[Colours]
Combo1 : 0,0,155
Combo2 : 0,64,128
Combo3 : 128,0,255
Combo4 : 128,128,255
Combo5 : 255,255,255

[HitObjects]
184,192,2840,6,0,P|256:160|328:192,1,160
384,296,3933,2,0,B|340:324|296:316|256:280|256:280|216:316|168:324|128:296,1,280
80,232,5340,6,0,P|76:164|140:104,1,160
240,168,6433,2,0,B|308:200|379:174|404:129|404:129|448:124|472:92|476:64,1,280
396,48,7840,6,0,L|300:52,1,80
116,68,8933,6,0,B|88:260|88:260|176:320,1,280
224,260,10340,6,0,P|248:192|324:200,1,160
384,304,11433,2,0,P|440:324|496:296,1,120,0|0,0:0|0:0,0:0:0:0:
436,240,12215,2,0,L|404:84,1,160
248,120,13465,5,0,0:0:0:0:
96,72,14090,1,0,0:0:0:0:
200,196,14715,1,0,0:0:0:0:
276,336,15340,6,0,P|332:284|356:184,1,160
288,64,16590,1,0,0:0:0:0:
200,196,17215,1,0,0:0:0:0:
336,280,17840,6,0,L|407:315,2,80,0|0|0,0:0|0:0|0:0,0:0:0:0:
176,295,19090,1,0,0:0:0:0:
91,160,19715,2,0,P|92:84|164:60,1,160
308,124,20965,6,0,L|280:208,1,80
344,252,21590,2,0,L|316:336,1,80
240,324,22215,1,0,0:0:0:0:
108,232,22840,6,0,B|108:164|108:164|108:140|112:112|148:84,1,160
264,64,23933,2,0,P|348:148|264:256,1,280
192,296,25340,6,0,B|212:332|248:344|288:336|288:336|348:324,1,160
452,292,26433,2,0,B|448:100|448:100|388:36,1,280
316,72,27840,6,0,L|240:112,1,80
72,208,28933,6,0,B|84:264|152:288|152:288|192:280|192:280|216:324|268:328|300:312,1,280
264,240,30340,2,0,B|300:168|300:168|376:148,1,160
284,68,31433,2,0,P|228:96|200:144,1,120
168,220,32215,2,0,B|172:280|172:280|248:344,1,160
400,296,33465,5,0,0:0:0:0:
432,139,34090,2,0,P|410:70|342:94,1,160
238,217,35340,1,0,0:0:0:0:
108,264,35965,1,0,0:0:0:0:
264,300,36590,2,0,L|328:352,2,80,0|0|0,0:0|0:0|0:0,0:0:0:0:
152,188,37840,6,0,B|144:104|144:104|140:68|144:40|164:24,1,160
296,108,39090,2,0,P|344:140|392:108,2,120,0|0|0,0:0|0:0|0:0,0:0:0:0:
256,192,40340,12,0,42840,0:0:0:0:
208,184,44090,6,0,B|208:102|208:102|208:70|224:38|288:38|304:70|304:102|304:102|304:184,1,320
256,352,46590,6,0,P|200:332|176:276,2,120,0|0|0,0:0|0:0|0:0,0:0:0:0:
256,272,47840,1,0,0:0:0:0:
256,56,49090,5,0,0:0:0:0:
168,136,49558,2,0,P|256:176|344:136,1,200
372,240,51590,6,0,P|256:272|140:240,1,240
192,176,52840,6,0,B|256:128|256:128|320:176,1,160
436,152,53933,2,0,B|307:54|307:54|272:32|236:32|208:48|172:80,1,280
160,132,55340,6,0,P|96:172|64:252,1,160
184,252,56433,2,0,B|280:204|360:300|456:252,1,280
480,176,57840,6,0,L|460:88,1,80
264,68,58933,6,0,B|208:124|208:124|264:320,1,280
344,328,60340,6,0,P|416:328|416:256,1,160
323,179,61433,2,0,P|338:123|387:92,1,120
452,44,62215,2,0,P|468:112|408:172,1,160
444,68,75340,6,0,P|468:148|452:224,1,160
308,152,76590,1,0,0:0:0:0:
208,276,77215,1,0,0:0:0:0:
71,192,77840,6,0,P|47:267|61:345,1,160
208,276,79090,2,0,P|222:198|198:122,1,160
356,104,80340,6,0,L|416:164,2,80,0|0|0,0:0|0:0|0:0,0:0:0:0:
208,40,81590,1,0,0:0:0:0:
68,120,82215,1,0,0:0:0:0:
88,280,82840,6,0,P|164:316|240:312,1,160
272,156,84090,2,0,P|351:153|422:188,1,160
320,312,85340,6,0,L|420:360,2,80,0|0|0,0:0|0:0|0:0,0:0:0:0:
168,256,86590,2,0,B|128:181|128:181|117:160|120:124|146:104,2,160,0|0|0,0:0|0:0|0:0,0:0:0:0:
72,52,91590,6,0,B|109:104|109:104|95:130|80:169|97:210,1,160
209,173,92683,2,0,B|246:116|223:38|223:38|275:101|343:101,1,280
424,116,94090,6,0,B|424:152|396:180|360:188|360:188|288:204,1,160
200,260,95183,2,0,B|160:256|136:236|128:212|124:192|124:192|120:172|104:152|80:140|36:156|16:184|36:224|52:252,1,280
64,316,96590,6,0,L|136:352,1,80
332,324,97683,6,0,P|408:280|408:104,1,280
348,52,99090,6,0,B|316:88|324:132|344:156|344:156|364:176|352:216,1,160
280,224,100027,6,0,L|208:264,1,80
164,196,100652,2,0,L|233:157,1,80
312,152,101277,1,0,0:0:0:0:
388,180,101590,6,0,P|432:248|392:320,2,160,0|0|0,0:0|0:0|0:0,0:0:0:0:
392,100,103152,2,0,L|460:48,2,80,0|0|0,0:0|0:0|0:0,0:0:0:0:
312,104,104090,6,0,B|260:112|260:112|160:72,2,160,0|0|0,0:0|0:0|0:0,0:0:0:0:
328,184,105652,2,0,L|248:196,1,80
172,168,106277,1,0,0:0:0:0:
92,180,106590,6,0,P|112:224|144:244,1,80
324,316,107683,6,0,B|336:236|336:236|368:212,1,120
448,204,108465,2,0,L|428:120,1,80
356,96,109090,6,0,P|280:160|208:132,1,160
148,56,110183,2,0,B|112:72|112:72|72:144,1,120
136,192,110965,2,0,P|204:248|288:256,1,160
