osu file format v9

[General]
AudioFilename: I Like Trains.mp3
AudioLeadIn: 1985
PreviewTime: 21324
Countdown: 0
SampleSet: Normal
StackLeniency: 0.7
Mode: 1
LetterboxInBreaks: 0

[Editor]
DistanceSpacing: 1.5
BeatDivisor: 4
GridSize: 8

[Metadata]
Title:I Like Trains
Artist:Lil Deuce Deuce
Creator:Sushi
Version:Trainko Oni
Source:Asdf Movies
Tags:Real Taiko

[Difficulty]
HPDrainRate:7
CircleSize:5
OverallDifficulty:6
ApproachRate:5
SliderMultiplier:1.4
SliderTickRate:1

[Events]
//Background and Video events
Video,-192,"I LIKE TRAINS.avi"
0,0,"I like Trains Taiko.png"
//Break Periods
//Storyboard Layer 0 (Background)
//Storyboard Layer 1 (Fail)
//Storyboard Layer 2 (Pass)
//Storyboard Layer 3 (Foreground)
//Storyboard Sound Samples
//Background Colour Transformations
3,100,163,162,255

[TimingPoints]
1054,324.324324324324,4,1,0,100,1,0
76945,324.324324324324,4,1,0,100,1,0
95107,-100,4,1,0,100,0,1
115863,-100,4,1,0,100,0,0

[HitObjects]
256,192,567,1,8
256,192,729,1,8
256,192,1054,1,4
256,136,1216,1,0
256,136,1297,1,0
256,136,1378,1,8
256,136,1540,1,8
256,136,1702,1,0
256,136,1864,1,8
256,136,2026,1,0
256,136,2189,1,8
256,136,2351,1,0
256,136,2513,1,0
256,136,2594,1,0
256,136,2675,1,8
256,136,2837,1,8
256,136,2918,1,8
256,136,2999,1,0
256,136,3162,1,8
256,136,3324,1,0
256,136,3486,1,8
256,136,3648,1,0
256,136,3729,1,0
256,136,3810,1,0
256,136,3891,1,0
256,136,3972,1,8
256,136,4135,1,0
256,136,4297,1,0
256,136,4459,1,8
256,136,4621,1,0
256,136,4783,1,8
256,136,4945,1,0
256,136,5108,1,8
256,136,5189,1,8
256,136,5270,1,8
256,136,5432,1,0
256,136,5594,1,0
256,136,5756,1,8
256,136,5837,1,8
256,136,5918,1,8
256,136,6081,1,8
256,136,6243,1,4
256,136,6405,1,0
256,136,6486,1,0
256,136,6567,1,8
256,136,6729,1,8
256,136,6891,1,0
256,136,7053,1,8
256,136,7215,1,0
256,136,7378,1,8
256,136,7540,1,0
256,136,7702,1,0
256,136,7864,1,8
256,136,8026,1,8
256,136,8188,1,0
256,136,8351,1,8
256,136,8513,1,0
256,136,8675,1,8
256,136,8837,1,0
256,136,8918,1,0
256,136,8999,1,0
256,136,9080,1,0
256,136,9161,1,0
256,136,9324,1,8
256,136,9486,1,0
256,136,9648,1,8
256,136,9810,1,0
256,136,9972,1,0
256,136,10134,1,4
256,192,10297,12,0,10945
256,136,11108,5,8
256,192,11432,1,0
256,192,11594,1,0
256,192,11756,1,8
256,192,11918,1,0
256,192,12081,1,0
256,136,12324,1,0
256,192,12405,1,8
256,192,12567,1,0
256,192,12648,1,0
256,192,12729,1,8
256,192,12891,1,0
256,192,13053,1,8
256,192,13216,1,0
256,192,13378,1,0
256,192,13540,1,8
256,192,13702,1,8
256,192,13864,1,0
256,192,13945,1,8
256,192,14026,1,0
256,192,14189,1,0
256,192,14351,1,8
256,192,14594,1,8
256,192,14675,1,0
256,192,14837,1,0
256,192,14999,1,8
256,192,15162,1,0
256,192,15243,1,0
256,192,15324,1,8
256,192,15486,1,0
256,192,15648,1,8
256,192,15810,1,8
256,192,15972,1,0
256,192,16216,1,0
256,192,16297,1,8
256,192,16459,1,8
256,192,16540,1,8
256,192,16621,1,0
256,192,16783,1,8
256,192,16945,1,8
256,192,17108,1,0
256,192,17270,1,8
256,192,17513,1,0
256,192,17594,1,8
256,192,17756,1,0
256,192,17837,1,8
256,192,17918,1,0
256,192,18081,1,0
256,192,18243,1,8
256,192,18405,1,0
256,192,18567,1,12
256,192,18891,1,0
256,192,19053,1,0
256,192,19216,1,8
256,192,19378,1,8
256,192,19540,1,0
256,192,19702,1,0
256,192,19864,1,8
256,192,20026,1,0
256,192,20108,1,0
256,192,20189,1,8
256,192,20351,1,0
256,192,20513,1,4
256,192,21324,1,8
256,192,21486,1,8
256,192,21810,1,4
256,192,21972,1,8
256,192,22135,1,0
256,192,22297,1,8
256,192,22378,1,8
256,192,22459,1,0
256,192,22540,1,0
256,192,22621,1,8
256,192,22783,1,0
256,192,22945,1,8
256,192,23108,1,0
256,192,23270,1,0
256,192,23351,1,0
256,192,23432,1,8
256,192,23594,1,8
256,192,23756,1,0
256,192,23918,1,0
256,192,24081,1,8
256,192,24243,1,8
256,192,24405,1,0
256,192,24567,1,0
256,192,24648,1,0
256,192,24729,1,8
256,192,24891,1,0
256,192,25053,1,0
256,192,25135,1,0
256,192,25216,1,8
256,192,25297,1,8
256,192,25378,1,0
256,192,25540,1,0
256,192,25702,1,0
256,192,25783,1,0
256,192,25864,1,8
256,192,25945,1,0
256,192,26026,1,8
256,192,26189,1,0
256,192,26351,1,8
256,192,26513,1,0
256,192,26675,1,8
256,192,26999,1,4
256,192,27162,1,8
256,192,27325,1,0
256,192,27487,1,8
256,192,27568,1,8
256,192,27649,1,0
256,192,27730,1,0
256,192,27811,1,8
256,192,27973,1,0
256,192,28135,1,8
256,192,28298,1,0
256,192,28460,1,0
256,192,28622,1,8
256,192,28784,1,8
256,192,28946,1,0
256,192,29026,1,0
256,192,29108,1,0
256,192,29189,1,0
256,192,29271,1,8
256,192,29433,1,8
256,192,29595,1,0
256,192,29757,1,8
256,192,29838,1,8
256,192,29919,1,0
256,192,30081,1,8
256,192,30162,1,8
256,192,30243,1,0
256,192,30406,1,8
256,192,30568,1,0
256,192,30730,1,0
256,192,30892,1,4
256,192,31053,12,0,31702
256,192,31864,5,8
256,192,32189,1,0
256,192,32351,1,0
256,192,32513,1,8
256,192,32675,1,0
256,192,32756,1,0
256,192,32837,1,0
256,192,32999,1,0
256,192,33162,1,8
256,192,33324,1,0
256,192,33486,1,8
256,192,33648,1,0
256,192,33729,1,0
256,192,33810,1,8
256,192,33972,1,0
256,192,34135,1,8
256,192,34297,1,0
256,192,34459,1,0
256,192,34621,1,8
256,192,34783,1,8
256,192,34945,1,0
256,192,35026,1,0
256,192,35108,1,8
256,192,35270,1,0
256,192,35432,1,8
256,192,35594,1,0
256,192,35675,1,0
256,192,35756,1,8
256,192,35918,1,0
256,192,36081,1,8
256,192,36243,1,0
256,192,36405,1,8
256,192,36567,1,8
256,192,36729,1,0
256,192,36891,1,0
256,192,36972,1,0
256,192,37053,1,8
256,192,37216,1,0
256,192,37378,1,8
256,192,37702,1,8
256,192,37864,1,8
256,192,38026,1,12
256,192,38351,1,8
256,192,38513,1,0
256,192,38675,1,8
256,192,38837,1,0
256,192,38918,1,0
256,192,38999,1,8
256,192,39162,1,0
256,192,39324,1,8
256,192,39486,1,8
256,192,39648,1,0
256,192,39972,1,0
256,192,40135,1,0
256,192,40297,1,8
256,192,40459,1,0
256,192,40540,1,0
256,192,40621,1,8
256,192,40783,1,0
256,192,40864,1,0
256,192,40945,1,8
256,192,41108,1,8
256,192,41270,1,4
256,192,42081,1,8
256,192,42243,1,8
256,192,42567,1,4
256,192,42729,1,8
256,192,42891,1,0
256,192,43053,1,8
256,192,43216,1,0
256,192,43297,1,8
256,192,43459,1,8
256,192,43540,1,0
256,192,43702,1,8
256,192,43864,1,0
256,192,43945,1,0
256,192,44026,1,8
256,192,44108,1,8
256,192,44189,1,0
256,192,44351,1,8
256,192,44432,1,8
256,192,44513,1,0
256,192,44594,1,8
256,192,44756,1,8
256,192,44837,1,0
256,192,44999,1,8
256,192,45162,1,0
256,192,45324,1,8
256,192,45405,1,8
256,192,45486,1,0
256,192,45648,1,8
256,192,45729,1,8
256,192,45810,1,0
256,192,45972,1,0
256,192,46135,1,8
256,192,46297,1,8
256,192,46459,1,0
256,192,46540,1,0
256,192,46621,1,8
256,192,46702,1,8
256,192,46784,1,0
256,192,46946,1,8
256,192,47108,1,0
256,192,47189,1,0
256,192,47270,1,8
256,192,47351,1,0
256,192,47432,1,8
256,192,47594,1,8
256,192,47756,1,4
256,192,47918,1,8
256,192,48080,1,0
256,192,48242,1,8
256,192,48405,1,0
256,192,48486,1,8
256,192,48648,1,8
256,192,48729,1,0
256,192,48891,1,8
256,192,49053,1,0
256,192,49134,1,0
256,192,49215,1,8
256,192,49297,1,8
256,192,49378,1,0
256,192,49540,1,8
256,192,49621,1,8
256,192,49702,1,0
256,192,49783,1,8
256,192,49945,1,8
256,192,50026,1,0
256,192,50188,1,8
264,200,50351,1,0
264,200,50432,1,0
264,200,50513,1,8
264,200,50594,1,0
264,200,50675,1,8
264,200,50756,1,8
264,200,50837,1,0
264,200,50918,1,0
264,200,50999,1,8
264,200,51162,1,8
264,200,51324,1,8
264,200,51405,1,8
264,200,51486,1,8
264,200,51648,1,4
256,192,51810,12,0,52459
272,168,52621,5,8
264,200,52945,1,0
264,200,53108,1,0
272,168,53270,1,8
272,168,53432,1,0
272,168,53594,1,0
272,168,53756,1,8
272,168,53918,1,8
272,168,54081,1,0
272,168,54162,1,0
264,200,54243,1,8
264,200,54405,1,0
264,200,54567,1,8
264,200,54729,1,0
264,200,54891,1,8
264,200,55053,1,8
264,200,55135,1,8
264,200,55216,1,8
264,200,55378,1,0
264,200,55540,1,0
264,200,55702,1,0
264,200,55864,1,8
264,200,56026,1,0
264,200,56108,1,0
264,200,56189,1,0
264,200,56351,1,0
264,200,56513,1,8
264,200,56675,1,0
264,200,56756,1,0
264,200,56837,1,8
264,200,56999,1,0
264,200,57162,1,8
264,200,57324,1,8
264,200,57486,1,0
264,200,57810,1,12
264,200,57972,1,0
264,200,58053,1,0
264,200,58135,1,8
264,200,58297,1,0
264,200,58459,1,8
264,200,58621,1,8
264,200,58783,1,0
264,200,58864,1,0
264,200,58945,1,0
264,200,59108,1,8
264,200,59270,1,0
264,200,59432,1,8
264,200,59594,1,0
264,200,59756,1,8
264,200,59918,1,0
264,200,60081,1,12
264,200,60405,1,0
264,200,60567,1,0
264,200,60729,1,8
264,200,60891,1,0
264,200,60972,1,0
264,200,61053,1,8
264,200,61215,1,0
264,200,61378,1,8
264,200,61540,1,0
264,200,61702,1,0
256,192,62026,5,4
256,192,62270,1,4
264,200,62513,1,4
56,200,62999,1,8
256,96,63324,1,0
256,96,63486,1,0
256,96,63648,1,8
256,96,63810,1,0
256,96,63891,1,0
256,96,63972,1,0
256,96,64135,1,0
256,96,64297,1,8
256,96,64459,1,0
256,96,64621,1,8
256,96,64783,1,0
256,96,64945,1,8
256,96,65108,1,8
256,96,65270,1,8
256,96,65432,1,0
256,96,65513,1,8
256,96,65594,1,8
256,96,65756,1,8
256,96,65918,1,0
256,96,66081,1,0
256,96,66243,1,8
256,96,66405,1,0
256,96,66567,1,8
256,96,66729,1,0
256,96,66810,1,0
256,96,66891,1,8
256,96,67053,1,0
256,184,67216,1,8
256,184,67378,1,0
256,184,67540,1,4
256,184,67702,1,12
256,184,68189,1,12
256,96,68513,1,4
256,96,68837,1,8
256,96,68999,1,0
256,96,69162,1,0
256,96,69324,1,8
256,96,69405,1,8
256,96,69486,1,8
256,96,69648,1,0
256,96,69810,1,8
256,96,69972,1,0
256,96,70053,1,0
256,96,70135,1,8
256,96,70297,1,0
256,96,70459,1,8
256,96,70621,1,0
256,96,70783,1,0
256,96,70945,1,0
256,96,71108,1,8
256,96,71270,1,0
256,96,71351,1,0
256,96,71432,1,0
256,96,71594,1,0
256,96,71756,1,8
256,96,71918,1,0
256,96,71999,1,0
256,200,72081,1,8
256,200,72243,1,8
256,200,72405,1,4
256,200,72729,1,8
256,200,72891,1,8
256,200,73053,1,4
256,200,73216,1,0
256,200,73297,1,0
256,200,73378,1,8
256,200,73540,1,8
256,200,73702,1,4
256,192,73864,12,0,75648
280,200,76459,5,8
280,200,76621,1,8
280,200,76945,1,4
280,200,77107,1,8
280,200,77269,1,0
280,200,77431,1,8
280,200,77512,1,8
280,200,77593,1,0
280,200,77674,1,0
280,200,77755,1,8
280,200,77917,1,0
280,200,78080,1,8
232,200,78242,1,0
232,200,78323,1,0
232,200,78404,1,0
232,200,78485,1,0
232,200,78566,1,0
232,200,78728,1,8
232,200,78890,1,0
280,200,79053,1,8
280,200,79215,1,0
280,200,79377,1,8
280,200,79539,1,0
280,200,79701,1,0
280,200,79782,1,0
280,200,79863,1,0
280,200,80026,1,8
280,200,80188,1,0
280,200,80350,1,0
280,200,80431,1,0
280,200,80512,1,0
280,200,80674,1,8
280,200,80836,1,0
280,200,80917,1,0
280,200,80999,1,8
280,200,81080,1,0
280,200,81161,1,8
280,200,81323,1,0
280,200,81404,1,0
280,200,81485,1,8
256,224,81647,1,8
256,224,81809,1,8
280,200,81972,1,0
280,200,82134,1,4
280,200,82296,1,8
280,200,82458,1,0
280,200,82620,1,8
280,200,82701,1,8
280,200,82782,1,0
280,200,82944,1,8
280,200,83107,1,0
232,200,83188,1,0
280,200,83269,1,8
232,200,83431,1,0
232,200,83512,1,0
232,200,83593,1,0
232,200,83674,1,0
232,200,83755,1,0
232,200,83917,1,8
232,200,84080,1,0
280,200,84242,1,0
280,200,84404,1,8
280,200,84566,1,8
280,200,84728,1,0
280,200,84890,1,0
280,200,84972,1,0
280,200,85053,1,0
280,200,85215,1,8
280,200,85377,1,0
280,200,85539,1,8
280,200,85701,1,8
280,200,85863,1,0
280,200,86026,1,4
256,192,86188,12,0,86999
256,192,87323,5,0
256,192,87647,1,0
256,192,87972,1,0
256,192,88296,1,0
256,192,88620,1,0
256,192,88782,1,8
256,192,88863,1,8
256,192,88944,1,0
256,192,89107,1,0
256,192,89269,1,0
256,192,89431,1,8
256,192,89512,1,8
256,192,89593,1,8
256,192,89755,1,8
256,192,89917,5,0
256,192,90242,1,0
256,192,90566,1,0
256,192,90890,1,0
256,192,91215,1,0
256,192,91377,1,8
256,192,91458,1,8
256,192,91539,1,0
256,192,91701,1,0
256,192,91863,1,0
256,192,92026,1,8
256,192,92107,1,8
256,192,92188,1,8
256,192,92350,1,8
256,192,92512,1,0
256,192,92674,1,8
256,192,92755,1,8
256,192,92836,1,0
256,192,92999,1,0
256,192,93161,1,0
256,192,93323,1,8
256,192,93404,1,8
256,192,93485,1,0
256,192,93647,1,0
256,192,93809,2,0,B|552:192,1,280
256,192,94620,1,8
256,192,94782,1,8
256,192,95107,1,4
256,136,95269,1,0
256,136,95350,1,0
256,136,95431,1,8
256,136,95593,1,8
256,136,95755,1,0
256,136,95917,1,8
256,136,96080,1,0
256,136,96242,1,8
256,136,96404,1,0
256,136,96566,1,0
256,136,96647,1,0
256,136,96728,1,8
256,136,96890,1,8
256,136,96972,1,8
256,136,97053,1,0
256,136,97215,1,8
256,136,97377,1,0
256,136,97539,1,8
256,136,97701,1,0
256,136,97782,1,0
256,136,97863,1,0
256,136,97944,1,0
256,136,98026,1,8
256,136,98188,1,0
256,136,98350,1,0
256,136,98512,1,8
256,136,98674,1,0
256,136,98836,1,8
256,136,98999,1,0
256,136,99161,1,8
256,136,99242,1,8
256,136,99323,1,8
256,136,99485,1,0
256,136,99647,1,0
256,136,99809,1,8
256,136,99890,1,8
256,136,99972,1,8
256,136,100134,1,8
256,192,100296,1,4
256,192,100458,1,8
256,192,100620,1,0
256,192,100782,1,8
256,192,100863,1,8
256,192,100944,1,0
256,192,101026,1,0
256,192,101107,1,8
256,192,101269,1,0
256,192,101431,1,8
256,192,101593,1,0
256,192,101755,1,0
256,192,101917,1,8
256,192,102080,1,8
256,192,102242,1,0
256,192,102323,1,0
256,192,102404,1,0
256,192,102485,1,0
256,192,102566,1,8
256,192,102728,1,8
256,192,102890,1,0
256,192,103053,1,8
256,192,103134,1,8
256,192,103215,1,0
256,192,103377,1,8
256,192,103458,1,8
256,192,103539,1,0
256,192,103701,1,0
256,192,103782,1,0
256,192,103863,1,8
256,192,104026,1,8
256,192,104188,1,0
256,192,104269,1,0
256,192,104350,1,8
256,192,104431,1,0
256,192,104512,1,8
256,192,104593,1,8
256,192,104674,1,0
256,192,104755,1,0
256,192,104836,1,8
256,192,104917,1,0
256,192,104999,1,0
256,192,105080,1,0
256,192,105161,1,8
256,192,105323,1,8
256,192,105485,1,0
256,192,105647,1,8
256,192,105809,1,0
256,192,105972,1,8
256,192,106134,1,0
256,192,106215,1,8
256,192,106377,1,8
256,192,106458,1,0
256,192,106620,1,8
256,192,106782,1,0
256,192,106863,1,0
256,192,106944,1,8
256,192,107026,1,8
256,192,107107,1,0
256,192,107269,1,8
256,192,107350,1,8
256,192,107431,1,0
256,192,107512,1,8
256,192,107674,1,8
256,192,107755,1,0
256,192,107917,1,8
256,192,108080,1,0
256,192,108242,1,8
256,192,108323,1,8
256,192,108404,1,0
256,192,108566,1,8
256,192,108647,1,8
256,192,108728,1,0
256,192,108890,1,0
256,192,109053,1,8
256,192,109215,1,8
256,192,109377,1,0
256,192,109539,1,12
256,192,109701,1,0
256,192,109863,1,12
256,192,110026,1,0
256,192,110188,1,12
256,192,110350,1,0
256,192,110512,1,12
280,200,110674,1,4
280,200,110836,1,8
280,200,110999,1,0
280,200,111161,1,8
280,200,111242,1,8
280,200,111323,1,0
280,200,111485,1,8
280,200,111647,1,0
232,200,111728,1,0
280,200,111809,1,8
232,200,111972,1,0
232,200,112053,1,0
232,200,112134,1,0
232,200,112215,1,0
232,200,112296,1,0
232,200,112458,1,8
232,200,112620,1,0
280,200,112782,1,0
280,200,112944,1,8
280,200,113107,1,8
280,200,113269,1,0
280,200,113431,1,0
280,200,113512,1,0
280,200,113593,1,0
280,200,113755,1,8
280,200,113917,1,0
280,200,114080,1,8
280,200,114242,1,8
280,200,114404,1,0
280,200,114566,1,4
280,200,114728,1,12
280,200,114890,1,0
280,200,115053,1,12
280,200,115215,1,0
280,200,115377,1,12
280,200,115539,1,0
280,200,115701,1,12
280,200,115863,1,12
