osu file format v9

[General]
AudioFilename: I Like Trains.mp3
AudioLeadIn: 1985
PreviewTime: 21324
Countdown: 0
SampleSet: Soft
StackLeniency: 0.7
Mode: 0
LetterboxInBreaks: 1

[Editor]
DistanceSpacing: 1
BeatDivisor: 2
GridSize: 4

[Metadata]
Title:I Like Trains
Artist:Lil Deuce Deuce
Creator:Sushi
Version:Normal
Source:Asdf Movies
Tags:Real Taiko

[Difficulty]
HPDrainRate:4
CircleSize:3
OverallDifficulty:4
ApproachRate:5
SliderMultiplier:1
SliderTickRate:2

[Events]
//Background and Video events
0,0,"I like Trains.png"
Video,-192,"I LIKE TRAINS.avi"
//Break Periods
2,73902,75745
//Storyboard Layer 0 (Background)
//Storyboard Layer 1 (Fail)
//Storyboard Layer 2 (Pass)
//Storyboard Layer 3 (Foreground)
//Storyboard Sound Samples
//Background Colour Transformations
3,100,163,162,255

[TimingPoints]
1054,324.324324324324,4,2,2,100,1,0
5716,-100,4,1,1,100,0,0
5878,-100,4,2,2,100,0,0
9729,-100,4,1,1,85,0,0
10053,-100,4,2,1,100,0,0
11270,-100,4,2,1,100,0,0
20918,-100,4,2,2,100,0,0
26432,-100,4,1,1,80,0,0
26635,-100,4,2,2,100,0,0
29999,-100,4,1,1,100,0,0
30810,-100,4,2,1,100,0,0
36851,-100,4,1,1,65,0,0
37013,-100,4,2,1,100,0,0
42405,-100,4,2,2,100,0,0
50270,-100,4,1,1,65,0,0
50756,-100,4,2,1,75,0,0
50878,-100,4,1,1,80,0,0
51081,-100,4,2,1,75,0,0
51243,-100,4,1,1,80,0,0
51405,-100,4,2,1,75,0,0
51608,-100,4,2,1,100,0,0
62026,-100,4,2,1,100,0,1
62999,-100,4,2,1,100,0,0
67378,-100,4,1,1,80,0,0
67621,-100,4,2,1,100,0,0
76945,324.324324324324,4,2,2,100,1,0
80917,-100,4,1,1,80,0,0
81161,-100,4,2,1,100,0,0
81323,-100,4,1,1,80,0,0
81485,-100,4,2,1,100,0,0
81972,-100,4,2,2,100,0,0
84647,-100,4,1,1,100,0,0
85053,-100,4,2,1,80,0,0
85377,-100,4,1,1,80,0,0
85458,-100,4,2,1,80,0,0
85701,-100,4,1,1,80,0,0
85782,-100,4,2,1,80,0,0
85944,-100,4,2,1,100,0,0
87242,-100,4,1,1,75,0,0
88701,-100,4,2,1,100,0,0
89755,-100,4,1,1,75,0,0
91296,-100,4,2,1,100,0,0
92350,-100,4,1,1,75,0,0
93728,-100,4,2,1,80,0,0
95107,-100,4,2,2,100,0,1
99080,-100,4,1,1,80,0,1
99323,-100,4,2,1,80,0,1
100134,-100,4,2,2,100,0,1
103701,-100,4,1,1,70,0,1
103782,-100,4,2,1,80,0,1
104188,-100,4,1,1,75,0,1
104350,-100,4,2,1,80,0,1
104431,-100,4,1,1,100,0,1
104512,-100,4,2,1,80,0,1
104836,-100,4,2,1,100,0,0
105485,-100,4,2,2,100,0,1
109296,-100,4,2,1,100,0,1
110674,-100,4,2,2,100,0,1
114566,-100,4,2,1,100,0,1
115863,-100,4,2,1,100,0,0

[Colours]
Combo1 : 255,0,0
Combo2 : 0,255,0
Combo3 : 0,0,255
Combo4 : 255,255,0

[HitObjects]
248,352,1054,2,0,B|296:376|344:376|392:352,2,150,4|2|8
160,304,2351,1,0
104,224,2675,1,8
104,128,2999,1,2
168,56,3324,1,8
264,48,3648,6,0,B|352:48|408:96,2,150,0|2|8
256,144,4945,2,0,B|256:248,2,100,0|8|10
56,176,6243,6,0,B|18:214|3:259|11:312,2,150,4|2|8
104,264,7540,1,0
184,328,7864,1,8
232,344,8026,2,0,B|304:368|392:336|410:273|400:216,1,250,2|2
376,128,9162,5,8
296,72,9486,2,0,B|224:24,2,50,0|8|8
256,192,10135,12,2,11432
88,80,12081,5,0
32,160,12405,1,8
32,256,12729,2,0,B|0:312,2,50,2|0|8
120,296,13378,1,2
296,320,14026,6,0,B|416:364|508:260|444:140,1,300,2|8
400,64,15324,1,2
304,24,15648,1,8
208,16,15972,1,0
112,32,16297,6,0,B|64:40|40:88|56:128,1,100,2|0
144,144,16945,1,8
248,152,17270,1,0
296,160,17432,1,0
344,152,17594,1,8
420,216,17918,2,0,B|464:288|396:360|324:320,1,200,2|2
228,292,18891,1,8
132,262,19216,6,0,B|-16:264|-15:60|128:16|219:103|204:164,1,400,0|4
336,64,21810,6,0,B|384:40|443:54|464:104,2,150,4|2|8
264,136,23108,1,0
344,192,23432,1,8
440,184,23756,1,2
432,288,24081,1,8
336,320,24405,6,0,B|272:320|232:320|176:292,2,150,0|2|8
288,232,25702,2,0,B|232:232|189:202,2,100,0|8|2
384,56,26999,6,0,B|432:32|496:72|496:128,2,150,4|2|8
400,152,28297,1,0
392,248,28621,1,8
360,288,28783,2,0,B|280:352|160:352|88:280,1,250,2|0
132,208,29918,5,8
64,132,30243,2,0,B|24:92,2,50,8|2|4
256,192,30891,12,2,32189
296,80,32837,5,0
396,96,33162,1,8
464,176,33486,2,0,B|520:240|488:328|400:320|376:296,1,200,2|2
352,208,34459,1,8
248,184,34783,6,0,B|104:184,1,100,2|8
88,264,35432,2,0,B|216:264,1,100,0|8
288,264,36081,2,8,B|344:264,2,50,2|0|8
240,352,36729,1,0
144,352,37053,1,8
56,304,37378,6,0,B|0:256|0:176|56:128,2,200,2|2|0
112,216,38999,1,8
176,132,39324,1,2
367,80,39972,6,0,B|508:32|570:226|447:312|334:258|329:195,1,400,0|4
80,144,42567,6,0,B|88:88|152:64|196:69|216:88,2,150,4|2|8
176,184,43864,1,4
104,256,44189,1,8
168,328,44513,2,0,B|280:328,1,100,2|8
368,328,45162,6,0,B|420:344|476:336|516:304,2,150,0|2|8
416,240,46459,2,0,B|360:216|304:248,2,100,0|8|8
352,48,47756,6,0,B|320:88|256:96|216:64,2,150,4|2|8
376,144,49053,1,0
288,184,49378,1,8
256,224,49540,2,0,B|160:336|128:200|24:320,1,250,2|8
120,360,50675,5,8
168,360,50837,1,8
216,360,50999,2,4,B|344:360,1,100,2|0
256,192,51648,12,2,52945
256,56,53594,5,0
160,88,53918,1,8
88,160,54243,2,0,B|32:216|32:280|88:336,1,200,2|2
224,192,55540,5,0
312,136,55864,1,8
384,208,56189,1,2
408,248,56351,1,0
384,296,56513,1,8
296,344,56837,2,0,B|80:344,1,200,2|0
40,152,58135,6,0,B|64:96|112:80,1,100,2|8
208,80,58783,1,0
304,80,59108,1,8
336,176,59432,2,0,B|304:240|256:224|208:240|176:176,1,200,2|2
96,240,60405,5,8
40,320,60729,2,0,B|0:360,2,50,2|0|10
136,336,61378,1,2
236,320,61702,1,0
340,336,62026,6,0,B|440:352|480:252|436:161|339:172,1,300,4|2
264,96,63324,5,0
176,48,63648,1,8
128,40,63810,1,0
80,48,63972,1,0
24,128,64297,1,8
24,224,64621,2,0,B|24:288|88:352|160:352,1,200,2|2
352,344,65918,5,0
440,296,66243,1,8
440,200,66567,2,0,B|440:176|432:128|408:104,1,100,2|0
312,88,67216,6,0,B|280:40,2,50,8|8|4
328,136,67702,2,0,B|352:184|336:240|280:256,1,150,12|2
232,168,68513,6,0,B|184:136|120:152,2,100,4|8|0
168,248,69486,1,8
72,232,69810,1,2
40,200,69972,1,0
32,152,70135,1,8
56,56,70459,2,0,B|112:24|152:32,1,100,2|8
256,192,71108,12,4,73702
368,48,76945,6,0,B|424:56|464:80|488:144,2,150,4|2|8
288,112,78242,1,4
192,72,78566,1,8
144,160,78890,1,0
48,128,79215,1,8
32,224,79539,6,0,B|10:298|75:358|128:330,2,150,0|2|8
128,248,80836,1,0
128,248,81161,1,8
128,248,81485,1,8
320,192,82134,6,0,B|408:192|384:216|472:216,2,150,4|2|8
224,152,83431,1,0
144,96,83755,1,8
96,96,83917,2,0,B|56:96|48:160|5:176|5:176|48:192|56:256|96:256,1,250,2|8
160,176,85053,1,8
256,176,85377,2,0,B|328:176,2,50,8|8|8
256,80,86026,1,4
392,48,87323,5,4
432,136,87647,1,4
472,224,87972,2,0,B|520:352|336:400|312:256,1,300,4|2
280,168,89269,1,2
120,48,89917,5,4
80,136,90241,1,4
40,224,90566,2,0,B|-8:352|176:400|200:256,1,300,4|2
232,168,91863,1,2
256,192,92512,12,2,93809
344,80,95107,6,0,B|392:64|446:79|480:120,2,150,4|2|8
392,168,96404,1,4
448,248,96728,1,8
348,256,97053,1,2
292,176,97377,1,8
224,104,97701,6,0,B|192:64|130:60|90:92,2,150,0|2|8
152,175,98999,1,0
152,175,99323,1,8
152,175,99647,1,8
256,352,100296,6,0,B|368:352|408:336,2,150,4|2|8
152,352,101593,1,4
80,288,101917,1,8
56,240,102080,2,0,B|-4:168|40:48|136:48,1,250,2|0
224,32,103215,5,8
320,56,103539,1,0
416,32,103863,1,8
416,136,104188,1,0
416,184,104350,1,2
416,232,104512,2,0,B|416:296,2,50,8|0|8
256,112,105485,6,0,B|230:71|165:57|120:88,2,150,4|2|8
176,168,106782,1,0
80,192,107107,1,8
152,256,107431,1,2
216,336,107755,1,8
320,344,108080,6,0,B|376:288|464:304,2,150,0|2|8
288,248,109377,1,0
272,200,109539,2,0,B|248:136,2,50,8|0|8
168,200,110188,2,0,B|192:136,2,50,8|0|8
144,248,110674,6,0,B|136:296|83:335|32:320,2,150,4|2|8
48,216,111972,1,0
24,120,112296,1,8
56,80,112458,2,0,B|104:32|168:16|232:32|280:80,1,250,2|0
200,144,113593,5,8
112,192,113917,1,0
120,288,114242,1,8
220,280,114566,5,0
248,240,114728,2,0,B|276:198,2,50,8|0|8
340,284,115377,2,0,B|313:326,2,50,8|0|8
368,244,115863,5,4
