osu file format v9

[General]
AudioFilename: I Like Trains.mp3
AudioLeadIn: 1985
PreviewTime: 21324
Countdown: 0
SampleSet: Soft
StackLeniency: 0.7
Mode: 0
LetterboxInBreaks: 1

[Editor]
Bookmarks: 30486
DistanceSpacing: 1.7
BeatDivisor: 4
GridSize: 8

[Metadata]
Title:I Like Trains
Artist:Lil Deuce Deuce
Creator:Sushi
Version:Intrain
Source:Asdf Movies
Tags:Real Taiko

[Difficulty]
HPDrainRate:7
CircleSize:4
OverallDifficulty:8
ApproachRate:9
SliderMultiplier:1.5
SliderTickRate:2

[Events]
//Background and Video events
0,0,"I like Trains.png"
Video,-192,"I LIKE TRAINS.avi"
//Break Periods
2,73902,75859
//Storyboard Layer 0 (Background)
//Storyboard Layer 1 (Fail)
//Storyboard Layer 2 (Pass)
//Storyboard Layer 3 (Foreground)
//Storyboard Sound Samples
//Background Colour Transformations
3,100,163,162,255

[TimingPoints]
1054,324.324324324324,4,2,2,100,1,0
5716,-100,4,1,1,100,0,0
5878,-100,4,2,2,100,0,0
9729,-100,4,1,1,85,0,0
10053,-100,4,2,1,100,0,0
11270,-100,4,2,1,100,0,0
20918,-100,4,2,2,100,0,0
26432,-100,4,1,1,80,0,0
26635,-100,4,2,2,100,0,0
29999,-100,4,1,1,100,0,0
30810,-100,4,2,1,100,0,0
36851,-100,4,1,1,65,0,0
37013,-100,4,2,1,100,0,0
42405,-100,4,2,2,100,0,0
46540,-100,4,1,1,100,0,0
46783,-100,4,2,1,100,0,0
47189,-100,4,2,2,100,0,0
50270,-100,4,1,1,65,0,0
50756,-100,4,2,1,75,0,0
50878,-100,4,1,1,80,0,0
51081,-100,4,2,1,75,0,0
51243,-100,4,1,1,80,0,0
51405,-100,4,2,1,75,0,0
51608,-100,4,2,1,100,0,0
62026,-100,4,2,1,100,0,1
62999,-100,4,2,1,100,0,0
67378,-100,4,1,1,80,0,0
67621,-100,4,2,1,100,0,0
76945,324.324324324324,4,2,2,100,1,0
80917,-100,4,1,1,80,0,0
81161,-100,4,2,1,100,0,0
81323,-100,4,1,1,80,0,0
81485,-100,4,2,1,100,0,0
81972,-100,4,2,2,100,0,0
84647,-100,4,1,1,100,0,0
85053,-100,4,2,1,80,0,0
85377,-100,4,1,1,80,0,0
85458,-100,4,2,1,80,0,0
85701,-100,4,1,1,80,0,0
85782,-100,4,2,1,80,0,0
85944,-100,4,2,1,100,0,0
87242,-100,4,1,1,75,0,0
88701,-100,4,2,1,100,0,0
89755,-100,4,1,1,75,0,0
91296,-100,4,2,1,100,0,0
92350,-100,4,1,1,75,0,0
93728,-100,4,2,1,80,0,0
95107,-100,4,2,2,100,0,1
99080,-100,4,1,1,80,0,1
99323,-100,4,2,1,80,0,1
100134,-100,4,2,2,100,0,1
103701,-100,4,1,1,70,0,1
103782,-100,4,2,1,80,0,1
104188,-100,4,1,1,75,0,1
104350,-100,4,2,1,80,0,1
104431,-100,4,1,1,100,0,1
104512,-100,4,2,1,80,0,1
104836,-100,4,2,1,100,0,0
105485,-100,4,2,2,100,0,1
109296,-100,4,2,1,100,0,1
110674,-100,4,2,2,100,0,1
114566,-100,4,2,1,100,0,1
115863,-100,4,2,1,100,0,0

[Colours]
Combo1 : 255,0,0
Combo2 : 0,255,0
Combo3 : 0,0,255
Combo4 : 255,255,0

[HitObjects]
336,296,1054,2,0,B|392:320|448:304,1,112.5,4|0
480,160,1540,2,0,B|408:136|328:160,1,150,2|0
244,196,2026,1,8
168,260,2189,1,0
138,120,2351,6,0,B|130:77|91:45,1,75,0|2
141,217,2675,2,0,B|109:244|103:279,1,75,8|8
224,165,2999,2,0,B|264:180|297:166,1,75,2|0
416,96,3324,1,8
472,216,3486,1,2
368,304,3648,6,0,B|208:304,1,150,0|8
288,232,4135,2,0,B|112:232,1,150,2|0
40,232,4621,1,8
40,232,4783,1,0
88,88,4945,6,0,B|160:64,1,75,0|2
136,160,5270,2,0,B|232:152,2,75,8|0|2
192,240,5756,1,8
208,240,5837,1,10
224,240,5918,1,8
224,240,6243,6,0,B|336:240,1,112.5,4|2
464,168,6729,2,0,B|304:168,1,150,2|0
280,80,7216,1,8
184,96,7378,1,0
120,224,7540,6,0,B|149:245|191:239,1,75
283,378,7864,2,0,B|285:341|259:308,1,75,8|10
334,159,8188,2,0,B|302:173|284:214,2,75,0|0|10
408,272,8675,1,0
472,152,8837,6,0,B|464:96|416:64|360:80,1,150,0|8
272,112,9324,1,2
192,168,9486,1,0
184,72,9648,1,8
272,112,9810,1,8
192,168,9972,1,4
256,192,10135,12,2,11108
72,312,11432,6,0,B|152:360|232:344,1,150,0|8
296,268,11918,1,0
440,312,12081,2,0,B|360:360|280:344,1,150,0|8
216,268,12567,1,0
112,104,12729,5,2
24,160,12891,1,2
120,200,13053,2,0,B|160:224|232:216|272:192,1,150,10|2
344,56,13540,1,0
448,176,13702,1,10
352,304,13864,5,0
256,344,14026,1,0
160,304,14189,1,0
256,263,14351,2,0,B|336:232|343:151,1,150,8|2
256,88,14837,5,0
120,104,14999,2,0,B|72:112|48:144,1,75,8|0
56,272,15324,2,0,B|104:264|128:232,1,75,0|2
112,72,15648,2,0,B|64:80|40:112,1,75,8|2
64,304,15972,1,0
432,272,16297,5,10
344,336,16459,1,2
328,228,16621,2,0,B|320:188|288:164,1,75
396,188,16945,2,0,B|364:108|293:82,1,150,8|2
188,104,17432,1,0
76,72,17594,1,8
96,176,17756,1,0
168,248,17918,5,2
279,351,18081,1,2
250,202,18243,1,8
185,340,18405,1,0
319,266,18567,1,2
80,216,18891,5,8
120,112,19053,1,0
200,40,19216,1,0
312,40,19378,1,2
392,112,19540,1,8
432,216,19702,1,0
376,312,19864,2,0,B|352:352|304:368,1,75,2|8
136,312,20189,2,0,B|160:352|208:368,1,75,8|0
256,256,20513,5,4
192,128,21324,5,2
320,128,21486,1,2
48,88,21810,5,4
8,240,22053,1,0
136,336,22297,2,0,B|208:370|280:336,1,150,2|0
208,256,22783,1,8
304,224,22945,1,2
432,136,23108,5,0
461,44,23270,1,0
388,200,23432,1,8
452,272,23594,1,8
353,131,23756,1,2
259,151,23918,2,0,B|168:168,2,75,0|8|0
80,80,24405,6,0,B|44:112|40:180|88:216,1,150,0|8
152,144,24891,2,0,B|196:176|192:244|156:276,1,150,2|0
208,352,25378,1,8
304,352,25540,1,2
320,168,25702,6,0,B|352:96,1,75
161,99,26026,2,0,B|191:167,2,75,8|2|0
256,112,26513,1,12
256,128,26594,1,8
256,144,26675,1,10
256,144,26999,6,0,B|256:264,1,112.5,4|2
160,112,27486,2,0,B|88:144|32:216,1,150,2|0
72,296,27972,1,8
160,336,28135,1,0
272,304,28297,5,0
316,216,28460,1,2
505,213,28622,1,8
412,244,28784,1,8
312,91,28945,2,0,B|384:152,2,75,2|0|10
216,80,29432,1,0
48,112,29594,6,0,B|11:160|22:212|63:247,1,150,0|8
160,304,30081,1,2
168,296,30162,1,2
176,288,30243,1,2
256,208,30405,1,2
336,288,30567,1,8
344,296,30648,1,8
352,304,30729,1,4
256,360,30891,1,4
256,192,30972,12,2,31864
384,128,32189,5,0
288,168,32351,1,0
296,64,32513,2,0,B|200:64,1,75,8|0
120,88,32837,1,0
384,336,33162,5,2
48,160,33486,6,0,B|0:224,1,75
88,352,33810,2,0,B|80:264,1,75,8|2
200,328,34135,1,0
256,212,34297,1,2
312,328,34459,1,8
456,168,34621,5,2
432,64,34783,2,0,B|376:56|344:104,1,75,2|0
384,240,35108,2,0,B|392:200|368:168,1,75,8|0
216,112,35432,2,0,B|248:136|296:128,1,75,2|0
296,232,35756,5,8
232,320,35918,1,0
128,296,36081,1,2
120,192,36243,1,2
216,152,36405,2,0,B|264:136|272:88,2,75,8|2|0
120,112,36891,5,10
120,112,36972,1,2
120,112,37053,1,8
24,152,37216,1,0
24,328,37378,6,0,B|104:368|184:352,1,150,2|8
256,296,37864,1,0
488,328,38026,2,0,B|408:368|328:352,1,150,2|8
412,133,38513,5,0
426,257,38675,1,2
311,208,38837,1,0
455,191,38999,1,8
355,266,39162,1,0
340,142,39324,2,0,B|336:88|280:56|224:72,1,150,2|8
336,344,39972,5,2
176,344,40135,1,0
304,264,40297,1,8
208,264,40459,1,0
324,164,40621,2,0,B|294:130|216:132|188:164,1,150,2|8
208,264,41108,1,2
304,264,41270,1,4
320,128,42081,5,2
192,128,42243,1,2
440,192,42567,5,4
400,344,42810,1,0
256,280,43053,2,0,B|207:247|160:248|96:256,1,150,2|0
168,344,43540,1,8
256,280,43702,1,2
384,248,43864,5,4
399,22,44026,1,0
465,219,44189,1,8
318,50,44351,1,8
504,143,44513,1,2
279,127,44675,1,0
464,72,44837,2,0,B|392:136,1,75,8|2
288,224,45162,6,0,B|256:256|200:272|144:256,1,150,0|8
224,160,45648,2,0,B|256:128|312:112|368:128,1,150,2|0
448,192,46135,1,8
480,296,46297,1,0
376,312,46459,6,0,B|344:328|304:328,1,75,0|2
288,328,46702,1,2
272,328,46783,1,8
176,272,46945,1,0
256,168,47108,1,8
336,48,47270,5,2
176,48,47432,1,2
176,48,47756,6,0,B|136:96|136:160,1,112.5,4|2
280,80,48243,2,0,B|264:136|272:176|320:216,1,150,2|0
376,128,48729,1,8
280,80,48891,1,0
152,128,49053,5,0
137,354,49215,1,0
71,157,49378,1,8
218,326,49540,1,10
32,233,49702,1,0
257,249,49864,1,0
72,304,50026,2,0,B|144:240,1,75,8|2
232,160,50351,5,4
248,152,50432,1,8
264,144,50513,1,4
280,136,50594,1,8
296,128,50675,1,4
408,160,50837,1,8
392,264,50999,2,0,B|344:328,2,75,4|8|4
488,224,51486,1,8
256,192,51648,12,2,52621
352,80,52783,5,0
408,168,52945,2,0,B|440:240,1,75,0|2
376,320,53270,2,0,B|345:251,1,75,8|0
208,224,53594,2,0,B|177:292,1,75,2|0
112,208,53919,2,0,B|142:139,1,75,8|0
288,48,54243,5,2
416,80,54405,1,0
320,176,54567,1,10
288,48,54729,1,0
416,80,54891,2,0,B|464:88|496:64,2,75,0|2|8
240,128,55378,5,0
136,104,55540,2,0,B|56:144,1,75,2|2
40,240,55864,1,8
96,328,56026,1,0
192,288,56189,2,0,B|240:272|272:272,2,75,2|0|8
264,360,56675,1,0
416,288,56837,5,2
416,288,56999,1,0
360,120,57162,1,8
360,120,57324,1,2
240,248,57486,2,0,B|192:280|144:280|96:248,1,150,0|2
184,48,57972,5,0
86,60,58135,2,0,B|84:84|104:140|164:152|196:148,1,150,2|8
184,48,58621,1,0
16,128,58783,2,0,B|32:208,1,75,2|2
72,296,59108,5,8
184,368,59270,1,0
320,352,59432,1,2
416,256,59594,1,0
432,120,59756,1,10
344,16,59918,1,0
432,120,60081,2,0,B|384:144|328:104|280:128,1,150,2|8
184,168,60567,5,0
80,168,60729,1,2
104,272,60891,1,2
192,328,61053,2,0,B|216:360|256:376|296:360|320:328,2,150,8|2|8
336,256,62026,5,6
200,120,62270,1,0
384,88,62513,2,2,B|256:112|256:248,1,225
144,304,63162,5,0
27,197,63324,1,0
176,149,63486,1,2
55,284,63648,1,8
88,130,63810,1,0
204,235,63972,2,0,B|248:280|312:280|357:233,1,150,2|8
280,168,64459,1,0
136,56,64621,6,0,B|182:97|238:96|289:54,1,150,2|10
376,40,65108,1,0
472,72,65270,2,0,B|496:112|488:152,2,75,0|2|8
384,176,65756,5,0
304,248,65918,1,2
408,272,66081,1,0
480,344,66243,1,8
32,344,66567,2,0,B|0:296|8:240|48:208,1,150,2|8
144,160,67053,1,2
296,80,67216,6,0,B|344:84|376:40,2,75,8|8|4
467,86,67702,2,0,B|424:146|344:181|270:173,1,225,12|8
192,104,68351,1,0
32,192,68513,6,0,B|0:240|16:296|56:328,1,150,4|8
120,248,68999,1,2
208,160,69162,2,0,B|251:146|298:157,1,75
425,54,69486,2,0,B|414:98|381:134,1,75,8|2
407,295,69810,2,0,B|373:264|359:217,1,75,0|2
312,96,70135,1,8
192,48,70297,1,0
92,128,70459,2,0,B|48:160|36:216|60:264,1,150,2|8
168,352,70945,5,0
272,368,71108,2,0,B|360:352,1,75,2|2
448,352,71432,2,0,B|480:312|480:248|456:184,1,150,10|2
392,104,71918,1,0
280,48,72081,1,10
224,160,72243,1,8
112,104,72405,1,4
56,216,72567,1,2
128,320,72729,1,2
256,192,72810,12,4,73702
192,304,76459,5,2
320,304,76621,1,2
184,88,76945,5,4
408,64,77188,1,0
448,280,77431,2,0,B|448:336|400:376|344:368,1,150,2|0
224,368,77917,2,0,B|180:363|144:336,1,75,8|2
267,252,78242,5,4
184,89,78404,1,0
155,269,78566,1,8
285,140,78728,1,8
105,169,78890,2,0,B|48:184|0:136|8:88,1,150,0|8
96,24,79377,1,0
280,24,79539,6,0,B|432:24,1,150,0|8
344,96,80026,2,0,B|428:104|456:192,1,150
456,288,80512,1,8
368,360,80674,1,0
352,248,80836,1,0
456,288,80999,1,2
456,288,81080,1,2
456,288,81161,2,0,B|528:320,2,75,8|8|8
440,144,81647,5,2
440,144,81809,1,2
88,64,82134,6,0,B|126:76|148:111|136:152,1,112.5,4|2
149,11,82620,2,0,B|197:29|225:93|216:136,1,150,2|0
176,240,83107,1,8
96,320,83269,1,2
208,336,83431,5,0
176,240,83593,1,0
304,336,83755,1,8
336,240,83917,2,0,B|336:184|256:150|176:184|176:240,1,225,10|8
256,320,84566,1,2
368,320,84728,5,4
384,312,84809,1,8
400,304,84890,1,4
416,296,84972,1,8
432,288,85053,1,8
416,152,85215,2,0,B|360:72,1,75,8|4
96,152,85539,2,0,B|152:72,1,75,8|4
168,224,85863,1,8
344,224,86026,1,4
256,192,86107,12,2,86999
166,24,87323,5,4
446,198,87647,1,4
155,353,87972,2,0,B|200:280,1,75,4|8
88,240,88296,2,0,B|168:200,1,75,4|8
88,112,88620,1,4
256,80,88782,5,2
256,80,88944,1,2
184,304,89269,2,2,B|256:340|328:304,1,150,2|0
345,24,89917,5,4
65,198,90241,1,4
356,353,90566,2,0,B|312:280,1,75,4|8
424,240,90890,2,0,B|344:200,1,75,4|8
424,112,91214,1,4
256,80,91377,5,2
256,80,91539,1,2
328,304,91864,2,0,B|256:340|184:304,1,150,2|0
304,72,92512,6,0,B|304:147,1,75,4|8
136,144,92836,2,0,B|211:144,1,75,4|4
208,312,93161,2,0,B|208:237,1,75,4|8
376,240,93485,2,0,B|301:240,1,75,4|4
256,192,93809,12,2,94782
104,192,95107,5,4
256,24,95350,1,0
408,192,95593,2,0,B|408:248|408:296|352:328,1,150,2|0
280,240,96080,1,8
224,336,96242,1,2
72,240,96404,6,0,B|40:216|32:176,1,75,4|0
120,72,96728,2,0,B|152:96|160:136,1,75,8|8
192,272,97053,2,0,B|199:309|231:333,1,75,2|0
319,227,97377,2,0,B|311:189|279:165,1,75,8|2
464,112,97701,6,0,B|400:248,1,150,0|8
328,336,98188,2,0,B|304:368|256:376,2,75,10|0|2
256,248,98674,1,8
184,336,98836,1,0
256,248,98999,1,0
256,136,99161,1,2
256,120,99242,1,2
256,104,99323,2,0,B|256:16,2,75,8|0|8
168,264,99809,5,2
344,264,99972,1,2
88,72,100296,6,0,B|112:104|112:144|72:168,1,112.5,4|2
160,16,100782,2,0,B|160:72|232:96|280:56,1,150,2|0
376,24,101269,1,8
424,128,101431,1,2
304,232,101593,6,0,B|264:248|256:288,1,75,4|0
112,272,101917,2,0,B|152:256|160:216,1,75,8|10
128,80,102242,2,0,B|88:96|80:136,2,75,0|2|8
272,56,102728,1,0
448,144,102891,6,0,B|475:183|464:250|409:274,1,150,0|8
363,190,103377,2,0,B|312:211|301:278|329:317,1,150,10|0
340,332,103782,1,8
350,347,103863,1,8
460,368,104026,1,2
464,256,104188,5,8
464,240,104269,1,2
464,224,104350,1,8
464,208,104431,1,2
464,192,104512,2,8,B|464:128|496:96,2,75,8|2|8
344,192,104999,5,2
168,192,105161,1,2
464,256,105485,5,4
256,376,105728,1,0
48,256,105972,2,0,B|24:180|64:104,1,150,2|0
152,40,106458,1,8
152,40,106620,1,2
352,40,106782,6,0,B|440:40,1,75,0|0
280,120,107107,2,0,B|368:120,1,75,8|8
208,200,107431,2,0,B|296:200,2,75,2|0|8
288,280,107917,1,2
464,216,108080,6,0,B|462:133|389:96,1,150,0|8
392,260,108566,2,0,B|318:222|316:139,1,150,8|0
312,32,109053,1,10
200,32,109215,1,0
144,144,109377,5,0
40,192,109539,1,8
216,184,109701,5,0
176,288,109863,1,8
296,184,110026,5,0
336,288,110188,1,10
368,144,110350,5,2
472,192,110512,1,8
440,40,110674,6,0,B|312:40,1,112.5,4|2
160,128,111161,2,0,B|216:184|304:184,1,150,2|0
384,248,111647,1,8
368,360,111809,1,2
112,336,111972,6,0,B|40:312,1,75
128,232,112296,2,0,B|80:168,1,75,8|10
200,144,112620,2,0,B|216:56,1,75
312,136,112944,2,0,B|392:88,1,75,10|0
440,200,113269,6,0,B|444:288|368:320,1,150,0|8
264,336,113755,1,10
144,320,113917,2,0,B|96:312|72:272,2,75,0|2|8
224,224,114404,1,0
312,80,114566,6,0,B|384:48,1,75,0|8
200,80,114890,2,0,B|128:48,1,75,2|8
360,184,115215,6,0,B|428:153,1,75,0|10
152,184,115539,2,0,B|83:153,1,75,0|10
256,328,115863,5,4
