osu file format v14

[General]
AudioFilename: LIGHTS The Listening Lyrics.mp3
AudioLeadIn: 0
PreviewTime: 87456
Countdown: 0
SampleSet: None
StackLeniency: 0.7
Mode: 1
LetterboxInBreaks: 0
WidescreenStoryboard: 0

[Editor]
DistanceSpacing: 2
BeatDivisor: 2
GridSize: 16
TimelineZoom: 1

[Metadata]
Title:The Listening
TitleUnicode:The Listening
Artist:Lights
ArtistUnicode:Lights
Creator:Armneidin
Version:Kantan
Source:
Tags:
BeatmapID:840401
BeatmapSetID:384616

[Difficulty]
HPDrainRate:3
CircleSize:4
OverallDifficulty:3
ApproachRate:3
SliderMultiplier:1.2
SliderTickRate:1

[Events]
//Background and Video events
0,0,"thelisteningtaiko.png",0,0
//Break Periods
//Storyboard Layer 0 (Background)
//Storyboard Layer 1 (Fail)
//Storyboard Layer 2 (Pass)
//Storyboard Layer 3 (Foreground)
//Storyboard Sound Samples

[TimingPoints]
10249,625.160525218841,4,1,0,80,1,0
20249,-105.263157894737,4,2,0,80,0,0
37755,-105.263157894737,4,1,0,80,0,0
40255,-100,4,1,0,80,0,0
50883,-100,4,2,0,80,0,0
51196,-100,4,1,0,80,0,0
70267,-105.263157894737,4,2,0,80,0,0
89018,-105.263157894737,4,1,0,80,0,0
90269,-100,4,1,0,80,0,1
109649,-100,4,1,0,80,0,0
110274,-100,4,1,0,80,0,1
130279,-105.263157894737,4,1,0,80,0,0
150284,-100,4,2,0,80,0,0
160287,-95.2380952380952,4,1,0,100,0,1
177792,-95.2380952380952,4,1,0,80,0,0
180292,-95.2380952380952,4,1,0,100,0,1
200297,-100,4,1,0,100,0,0

[HitObjects]
256,192,10249,5,4,0:0:0:0:
256,192,10874,1,8,0:0:0:0:
256,192,11811,1,0,0:0:0:0:
256,192,12124,1,8,0:0:0:0:
256,192,12749,1,0,0:0:0:0:
256,192,13374,1,8,0:0:0:0:
256,192,14312,1,0,0:0:0:0:
256,192,14625,1,8,0:0:0:0:
256,192,15250,1,0,0:0:0:0:
256,192,15875,1,8,0:0:0:0:
256,192,16813,1,0,0:0:0:0:
256,192,17125,1,8,0:0:0:0:
256,192,17750,1,0,0:0:0:0:
256,192,18063,1,0,0:0:0:0:
256,192,18376,1,8,0:0:0:0:
256,192,19313,1,0,0:0:0:0:
256,192,19626,1,8,0:0:0:0:
256,192,19938,1,8,0:0:0:0:
256,192,20251,1,8,0:0:0:0:
256,192,20876,1,8,0:0:0:0:
256,192,21814,1,0,0:0:0:0:
256,192,22127,1,8,0:0:0:0:
256,192,22752,1,8,0:0:0:0:
256,192,23377,1,8,0:0:0:0:
256,192,24315,1,0,0:0:0:0:
256,192,24627,1,8,0:0:0:0:
256,192,25252,1,8,0:0:0:0:
256,192,25878,1,8,0:0:0:0:
256,192,26815,1,0,0:0:0:0:
256,192,27128,1,8,0:0:0:0:
256,192,27753,1,0,0:0:0:0:
256,192,28066,1,0,0:0:0:0:
256,192,28378,1,8,0:0:0:0:
256,192,29316,1,0,0:0:0:0:
256,192,29628,1,8,0:0:0:0:
256,192,30254,1,0,0:0:0:0:
256,192,30879,1,8,0:0:0:0:
256,192,31817,1,0,0:0:0:0:
256,192,32129,1,8,0:0:0:0:
256,192,32754,1,0,0:0:0:0:
256,192,33379,1,8,0:0:0:0:
256,192,34317,1,0,0:0:0:0:
256,192,34630,1,8,0:0:0:0:
256,192,35255,1,0,0:0:0:0:
256,192,35880,1,8,0:0:0:0:
256,192,36818,1,0,0:0:0:0:
256,192,37130,1,8,0:0:0:0:
256,192,37756,1,0,0:0:0:0:
256,192,38381,1,8,0:0:0:0:
256,192,39006,1,8,0:0:0:0:
256,192,39631,1,8,0:0:0:0:
256,192,40256,1,12,0:0:0:0:
256,192,40881,1,8,0:0:0:0:
256,192,42132,1,8,0:0:0:0:
256,192,42757,1,0,0:0:0:0:
256,192,43382,1,8,0:0:0:0:
256,192,44633,1,8,0:0:0:0:
256,192,45257,1,0,0:0:0:0:
256,192,45883,1,8,0:0:0:0:
256,192,47133,1,8,0:0:0:0:
256,192,47758,1,0,0:0:0:0:
256,192,48071,1,0,0:0:0:0:
256,192,48383,1,8,0:0:0:0:
256,192,49321,1,0,0:0:0:0:
256,192,49634,1,8,0:0:0:0:
256,192,49946,1,8,0:0:0:0:
256,192,50259,1,0,0:0:0:0:
256,192,50884,1,12,0:0:0:0:
256,192,52134,1,8,0:0:0:0:
256,192,52759,1,0,0:0:0:0:
256,192,53385,1,8,0:0:0:0:
256,192,54322,1,0,0:0:0:0:
256,192,54635,1,8,0:0:0:0:
256,192,55260,1,0,0:0:0:0:
256,192,55885,1,8,0:0:0:0:
256,192,56823,1,0,0:0:0:0:
256,192,57136,1,8,0:0:0:0:
256,192,57761,1,0,0:0:0:0:
256,192,58073,1,0,0:0:0:0:
256,192,58386,1,12,0:0:0:0:
256,192,59011,1,4,0:0:0:0:
256,192,59636,1,12,0:0:0:0:
256,192,60261,1,12,0:0:0:0:
256,192,60887,1,12,0:0:0:0:
256,192,61512,1,12,0:0:0:0:
256,192,62137,1,12,0:0:0:0:
256,192,62762,1,12,0:0:0:0:
256,192,63388,1,12,0:0:0:0:
256,192,64012,1,12,0:0:0:0:
256,192,64637,1,12,0:0:0:0:
256,192,65263,1,0,0:0:0:0:
256,192,65889,1,8,0:0:0:0:
256,192,66826,1,0,0:0:0:0:
256,192,67139,1,8,0:0:0:0:
256,192,67763,1,0,0:0:0:0:
256,192,68388,1,12,0:0:0:0:
256,192,69014,1,12,0:0:0:0:
256,192,69639,1,12,0:0:0:0:
256,192,70264,1,12,0:0:0:0:
256,192,70889,1,8,0:0:0:0:
256,192,71827,1,0,0:0:0:0:
256,192,72139,1,8,0:0:0:0:
256,192,72765,1,0,0:0:0:0:
256,192,73390,1,8,0:0:0:0:
256,192,74327,1,0,0:0:0:0:
256,192,74640,1,8,0:0:0:0:
256,192,75265,1,0,0:0:0:0:
256,192,75890,1,8,0:0:0:0:
256,192,76828,1,0,0:0:0:0:
256,192,77141,1,8,0:0:0:0:
256,192,77766,1,0,0:0:0:0:
256,192,78391,1,8,0:0:0:0:
256,192,79329,1,0,0:0:0:0:
256,192,79641,1,8,0:0:0:0:
256,192,80266,1,4,0:0:0:0:
256,192,80892,1,8,0:0:0:0:
256,192,81829,1,0,0:0:0:0:
256,192,82142,1,8,0:0:0:0:
256,192,82767,1,0,0:0:0:0:
256,192,83392,1,8,0:0:0:0:
256,192,84330,1,0,0:0:0:0:
256,192,84643,1,8,0:0:0:0:
256,192,85268,1,0,0:0:0:0:
256,192,85893,1,8,0:0:0:0:
256,192,86831,1,0,0:0:0:0:
256,192,87143,1,8,0:0:0:0:
256,192,87768,1,0,0:0:0:0:
256,192,88394,1,8,0:0:0:0:
256,192,89019,1,8,0:0:0:0:
256,192,89644,1,8,0:0:0:0:
256,192,90269,1,12,0:0:0:0:
256,192,90894,1,8,0:0:0:0:
256,192,92145,1,8,0:0:0:0:
256,192,92770,1,0,0:0:0:0:
256,192,93395,1,8,0:0:0:0:
256,192,94645,1,8,0:0:0:0:
256,192,95270,1,0,0:0:0:0:
256,192,95895,1,8,0:0:0:0:
256,192,97146,1,8,0:0:0:0:
256,192,97771,1,0,0:0:0:0:
256,192,98084,1,0,0:0:0:0:
256,192,98396,1,8,0:0:0:0:
256,192,99334,1,0,0:0:0:0:
256,192,99646,1,8,0:0:0:0:
256,192,100272,1,12,0:0:0:0:
256,192,100897,1,8,0:0:0:0:
256,192,102147,1,8,0:0:0:0:
256,192,102772,1,0,0:0:0:0:
256,192,103397,1,8,0:0:0:0:
256,192,104648,1,8,0:0:0:0:
256,192,105273,1,0,0:0:0:0:
256,192,105898,1,8,0:0:0:0:
256,192,107148,1,8,0:0:0:0:
256,192,107774,1,0,0:0:0:0:
256,192,108086,1,0,0:0:0:0:
256,192,108399,1,8,0:0:0:0:
256,192,109024,1,0,0:0:0:0:
256,192,109649,1,4,0:0:0:0:
256,192,110274,1,12,0:0:0:0:
256,192,110899,1,12,0:0:0:0:
256,192,111525,1,12,0:0:0:0:
256,192,112150,1,12,0:0:0:0:
256,192,112775,1,12,0:0:0:0:
256,192,113400,1,12,0:0:0:0:
256,192,114025,1,12,0:0:0:0:
256,192,114650,1,12,0:0:0:0:
256,192,115275,1,0,0:0:0:0:
256,192,115901,1,8,0:0:0:0:
256,192,116838,1,0,0:0:0:0:
256,192,117151,1,8,0:0:0:0:
256,192,117776,1,0,0:0:0:0:
256,192,118401,1,8,0:0:0:0:
256,192,119026,1,4,0:0:0:0:
256,192,119652,1,4,0:0:0:0:
256,192,120277,1,12,0:0:0:0:
256,192,120902,1,12,0:0:0:0:
256,192,121527,1,12,0:0:0:0:
256,192,122152,1,12,0:0:0:0:
256,192,122777,1,12,0:0:0:0:
256,192,123403,1,12,0:0:0:0:
256,192,124028,1,12,0:0:0:0:
256,192,124653,1,12,0:0:0:0:
256,192,125278,1,0,0:0:0:0:
256,192,125591,1,0,0:0:0:0:
256,192,125903,1,8,0:0:0:0:
256,192,126841,1,0,0:0:0:0:
256,192,127154,1,8,0:0:0:0:
256,192,127779,1,0,0:0:0:0:
256,192,128091,1,0,0:0:0:0:
256,192,128404,1,12,0:0:0:0:
256,192,129654,1,0,0:0:0:0:
256,192,130279,1,4,0:0:0:0:
256,192,130904,1,0,0:0:0:0:
256,192,131530,1,12,0:0:0:0:
256,192,132155,1,0,0:0:0:0:
256,192,132780,1,0,0:0:0:0:
256,192,133405,1,0,0:0:0:0:
256,192,134030,1,12,0:0:0:0:
256,192,135281,1,4,0:0:0:0:
256,192,135906,1,0,0:0:0:0:
256,192,136531,1,12,0:0:0:0:
256,192,137156,1,0,0:0:0:0:
256,192,137781,1,0,0:0:0:0:
256,192,138406,1,0,0:0:0:0:
256,192,139032,1,12,0:0:0:0:
256,192,139657,1,12,0:0:0:0:
256,192,140282,1,4,0:0:0:0:
256,192,140907,1,0,0:0:0:0:
256,192,141532,1,12,0:0:0:0:
256,192,142783,1,0,0:0:0:0:
256,192,143408,1,0,0:0:0:0:
256,192,144033,1,12,0:0:0:0:
256,192,145283,1,0,0:0:0:0:
256,192,145908,1,0,0:0:0:0:
256,192,146533,1,12,0:0:0:0:
256,192,147159,1,0,0:0:0:0:
256,192,147784,1,0,0:0:0:0:
256,192,148409,1,8,0:0:0:0:
256,192,149034,1,0,0:0:0:0:
256,192,149659,1,8,0:0:0:0:
256,192,150284,1,4,0:2:0:0:
256,192,150909,1,8,0:0:0:0:
256,192,151846,1,0,0:0:0:0:
256,192,152159,1,8,0:0:0:0:
256,192,152784,1,0,0:0:0:0:
256,192,153409,1,8,0:0:0:0:
256,192,154347,1,0,0:0:0:0:
256,192,154660,1,8,0:0:0:0:
256,192,155285,1,0,0:0:0:0:
256,192,155910,1,8,0:0:0:0:
256,192,156848,1,0,0:0:0:0:
256,192,157160,1,8,0:0:0:0:
256,192,157786,1,0,0:0:0:0:
256,192,158412,1,8,0:0:0:0:
256,192,159037,1,8,0:0:0:0:
256,192,159349,1,8,0:0:0:0:
256,192,159662,1,8,0:0:0:0:
256,192,160287,1,12,0:0:0:0:
256,192,160912,1,8,0:0:0:0:
256,192,162163,1,8,0:0:0:0:
256,192,162788,1,0,0:0:0:0:
256,192,163413,1,8,0:0:0:0:
256,192,164663,1,8,0:0:0:0:
256,192,165288,1,0,0:0:0:0:
256,192,165913,1,8,0:0:0:0:
256,192,167164,1,8,0:0:0:0:
256,192,167789,1,0,0:0:0:0:
256,192,168102,1,0,0:0:0:0:
256,192,168414,1,8,0:0:0:0:
256,192,169352,1,0,0:0:0:0:
256,192,169664,1,0,0:0:0:0:
256,192,169977,1,0,0:0:0:0:
256,192,170290,1,0,0:0:0:0:
256,192,170915,1,8,0:0:0:0:
256,192,172165,1,8,0:0:0:0:
256,192,172790,1,0,0:0:0:0:
256,192,173415,1,8,0:0:0:0:
256,192,174666,1,8,0:0:0:0:
256,192,175291,1,0,0:0:0:0:
256,192,175916,1,8,0:0:0:0:
256,192,177166,1,8,0:0:0:0:
256,192,177792,12,0,179667,0:0:0:0:
256,192,180292,5,4,0:0:0:0:
256,192,180917,1,12,0:0:0:0:
256,192,181542,1,12,0:0:0:0:
256,192,182168,1,12,0:0:0:0:
256,192,182793,1,4,0:0:0:0:
256,192,183418,1,12,0:0:0:0:
256,192,184043,1,12,0:0:0:0:
256,192,184668,1,12,0:0:0:0:
256,192,185293,1,0,0:0:0:0:
256,192,185919,1,8,0:0:0:0:
256,192,186856,1,0,0:0:0:0:
256,192,187169,1,8,0:0:0:0:
256,192,187794,1,0,0:0:0:0:
256,192,188419,1,12,0:0:0:0:
256,192,189357,1,0,0:0:0:0:
256,192,189670,1,8,0:0:0:0:
256,192,190295,1,4,0:0:0:0:
256,192,190920,1,12,0:0:0:0:
256,192,191545,1,12,0:0:0:0:
256,192,192170,1,12,0:0:0:0:
256,192,192795,1,4,0:0:0:0:
256,192,193421,1,12,0:0:0:0:
256,192,194046,1,12,0:0:0:0:
256,192,194671,1,12,0:0:0:0:
256,192,195296,1,0,0:0:0:0:
256,192,195921,1,8,0:0:0:0:
256,192,196859,1,0,0:0:0:0:
256,192,197171,1,8,0:0:0:0:
256,192,197797,1,4,0:0:0:0:
256,192,198422,1,12,0:0:0:0:
256,192,199047,1,0,0:0:0:0:
256,192,199360,1,0,0:0:0:0:
256,192,199672,1,8,0:0:0:0:
256,192,199985,1,8,0:0:0:0:
