osu file format v12

[General]
AudioFilename: Lifetheory - Fairy2.mp3
AudioLeadIn: 0
PreviewTime: 53666
Countdown: 0
SampleSet: None
StackLeniency: 0.7
Mode: 0
LetterboxInBreaks: 1
WidescreenStoryboard: 0

[Editor]
Bookmarks: 21957,32928,43899,54871,65842,76814,79557,87785,98757
DistanceSpacing: 0.6
BeatDivisor: 4
GridSize: 4
TimelineZoom: 1.4

[Metadata]
Title:Fairy
TitleUnicode:Fairy
Artist:Lifetheory
ArtistUnicode:Lifetheory
Creator:Zare
Version:Impact
Source:
Tags:dnb drum and bass cut short
BeatmapID:388371
BeatmapSetID:158820

[Difficulty]
HPDrainRate:7
CircleSize:4
OverallDifficulty:9
ApproachRate:9
SliderMultiplier:1.9
SliderTickRate:2

[Events]
//Background and Video events
0,0,"Fairy.jpg",0,0
//Break Periods
//Storyboard Layer 0 (Background)
//Storyboard Layer 1 (Fail)
//Storyboard Layer 2 (Pass)
//Storyboard Layer 3 (Foreground)
//Storyboard Sound Samples
//Background Colour Transformations
3,100,0,0,0

[TimingPoints]
21952,342.857142857143,4,1,0,40,1,0
21952,-166.666666666667,4,2,0,30,0,0
35580,-166.666666666667,4,2,0,5,0,0
35666,-166.666666666667,4,2,0,40,0,0
38323,-166.666666666667,4,2,0,5,0,0
38409,-166.666666666667,4,2,0,40,0,0
41066,-166.666666666667,4,2,0,5,0,0
41152,-166.666666666667,4,2,0,40,0,0
54866,-100,4,3,0,70,0,1
76809,-166.666666666667,4,1,0,40,0,0
79552,-100,4,3,0,60,0,1
98752,-100,4,3,0,40,0,0
98837,-100,4,2,0,5,0,0
101494,-100,4,2,0,5,0,0

[Colours]
Combo1 : 120,150,254
Combo2 : 163,208,147
Combo3 : 238,224,125

[HitObjects]
229,106,32923,5,6,0:0:0:0:
385,74,33266,1,0,1:0:0:0:
147,103,33780,1,0,0:0:0:0:
186,172,33952,1,0,1:0:0:0:
342,142,34294,6,0,L|364:257,2,113.999996520996
261,140,35152,1,0,0:0:0:0:
187,170,35323,2,0,P|147:185|104:184,1,85.4999973907472,0|0,1:0|0:0,0:0:0:0:
91,194,35666,6,0,P|97:137|88:80,1,113.999996520996,6|0,0:0|1:0,0:0:0:0:
328,80,36523,1,0,0:0:0:0:
400,48,36694,1,0,1:0:0:0:
354,201,37037,2,0,P|354:259|374:318,1,113.999996520996,0|0,0:0|1:0,0:0:0:0:
216,354,37723,1,0,0:0:0:0:
138,371,37894,1,0,0:0:0:0:
162,294,38066,2,0,L|156:209,1,85.4999973907472,0|0,1:0|0:0,0:0:0:0:
172,214,38409,6,0,L|178:81,1,113.999996520996,6|0,0:0|1:0,0:0:0:0:
177,100,39266,1,0,0:0:0:0:
250,70,39437,1,0,1:2:0:0:
250,70,39780,2,0,P|308:60|379:64,2,113.999996520996,0|0|0,0:0|1:0|0:0,0:0:0:0:
273,146,40637,1,0,0:0:0:0:
240,219,40809,2,0,P|237:268|254:307,1,85.4999973907472,0|0,1:0|0:0,0:0:0:0:
244,317,41152,6,0,L|358:324,1,113.999996520996,6|0,0:0|1:0,0:0:0:0:
432,96,42009,1,0,0:0:0:0:
439,175,42180,1,0,1:0:0:0:
299,253,42523,5,0,0:0:0:0:
139,242,42866,1,0,1:0:0:0:
194,185,43037,1,0,0:0:0:0:
196,168,43123,1,0,0:0:0:0:
197,150,43209,1,0,0:0:0:0:
150,85,43380,1,0,0:0:0:0:
229,76,43552,1,0,1:0:0:0:
287,21,43723,1,0,1:0:0:0:
304,98,43894,6,0,B|312:126|310:146|310:146|323:156|323:156|324:182|331:206,1,113.999996520996,2|0,0:0|1:0,0:0:0:0:
273,261,44409,2,0,L|286:324,1,56.9999982604981,2|0,0:0|0:0,0:0:0:0:
215,357,44752,1,0,0:0:0:0:
151,308,44923,2,0,L|85:313,1,56.9999982604981,0|0,1:0|0:0,0:0:0:0:
78,319,45180,1,0,0:0:0:0:
63,328,45266,5,0,0:0:0:0:
32,254,45437,1,0,0:0:0:0:
49,175,45609,1,0,1:0:0:0:
118,134,45780,1,0,0:0:0:0:
135,132,45866,1,0,0:0:0:0:
152,131,45952,1,0,0:0:0:0:
168,130,46037,1,0,0:0:0:0:
185,129,46123,1,0,0:0:0:0:
251,173,46294,2,0,L|320:180,1,56.9999982604981,0|0,1:0|0:0,0:0:0:0:
324,176,46552,1,0,0:0:0:0:
340,173,46637,6,0,L|353:117,1,56.9999982604981,2|0,0:0|0:0,0:0:0:0:
414,65,46980,1,0,1:0:0:0:
338,37,47152,2,0,P|309:29|282:25,1,56.9999982604981,2|0,0:0|0:0,0:0:0:0:
204,44,47494,1,0,0:0:0:0:
125,27,47666,1,0,1:0:0:0:
148,103,47837,1,0,0:0:0:0:
146,120,47923,1,0,0:0:0:0:
145,137,48009,5,0,0:0:0:0:
179,208,48180,1,0,0:0:0:0:
141,278,48352,1,0,1:0:0:0:
220,274,48523,2,0,L|250:282,1,28.4999991302491
264,277,48694,2,0,L|294:275,1,28.4999991302491
308,282,48866,1,2,0:0:0:0:
377,320,49037,2,0,L|450:312,1,56.9999982604981,0|0,1:0|0:0,0:0:0:0:
443,300,49294,1,0,0:0:0:0:
448,283,49380,6,0,P|446:251|442:216,1,56.9999982604981,2|0,0:0|0:0,0:0:0:0:
379,178,49723,1,0,1:0:0:0:
357,101,49894,2,0,P|328:97|297:97,1,56.9999982604981,2|0,0:0|0:0,0:0:0:0:
223,75,50237,1,0,0:0:0:0:
153,115,50409,1,0,1:0:0:0:
73,109,50580,1,0,0:0:0:0:
62,122,50666,1,0,0:0:0:0:
50,135,50752,6,0,P|48:163|48:191,1,56.9999982604981,2|0,0:0|0:0,0:0:0:0:
115,235,51094,1,0,1:0:0:0:
195,232,51266,1,0,0:0:0:0:
199,248,51352,1,0,0:0:0:0:
203,264,51437,1,0,0:0:0:0:
208,280,51523,1,0,0:0:0:0:
213,296,51609,1,0,0:0:0:0:
275,345,51780,2,0,P|303:343|332:338,1,56.9999982604981,0|0,1:0|0:0,0:0:0:0:
348,336,52037,1,0,0:0:0:0:
365,336,52123,5,2,0:0:0:0:
444,342,52294,1,0,0:0:0:0:
409,269,52466,1,0,1:0:0:0:
404,189,52637,2,0,P|409:160|408:130,2,56.9999982604981,2|0|0,0:0|0:0|0:0,0:0:0:0:
324,202,53152,2,0,L|324:263,1,56.9999982604981,0|0,1:0|0:0,0:0:0:0:
250,288,53494,5,2,0:0:0:0:
170,298,53666,1,0,0:0:0:0:
203,225,53837,2,0,L|207:96,1,113.999996520996
182,34,54352,2,0,L|178:163,1,113.999996520996
203,225,54866,5,6,0:0:0:0:
72,203,55037,1,0,0:0:0:0:
258,161,55209,1,8,0:0:0:0:
201,343,55380,2,0,P|248:360|296:368,1,95,2|0,0:0|0:0,0:0:0:0:
320,362,55637,1,0,0:0:0:0:
344,347,55723,1,6,0:0:0:0:
313,107,55894,2,0,L|326:13,1,95,10|0,0:0|0:0,0:0:0:0:
459,17,56237,5,4,0:0:0:0:
239,79,56409,1,0,0:0:0:0:
427,93,56580,1,10,0:0:0:0:
314,108,56752,1,0,0:0:0:0:
329,132,56837,1,0,0:0:0:0:
335,159,56923,1,0,0:0:0:0:
335,187,57009,1,0,0:0:0:0:
328,214,57094,1,6,0:0:0:0:
154,316,57266,2,0,L|55:335,1,95,10|8,0:0|0:0,0:0:0:0:
23,147,57609,5,6,0:0:0:0:
144,207,57780,1,0,0:0:0:0:
83,25,57952,1,10,0:0:0:0:
205,86,58123,2,0,P|250:94|308:92,1,95,2|0,0:0|0:0,0:0:0:0:
325,105,58380,1,0,0:0:0:0:
347,122,58466,1,6,0:0:0:0:
300,352,58637,2,0,L|204:355,1,95,10|0,0:0|0:0,0:0:0:0:
30,309,58980,5,0,0:0:0:0:
143,238,59152,1,0,0:0:0:0:
363,297,59323,1,10,0:0:0:0:
349,145,59494,1,0,0:0:0:0:
336,117,59580,1,0,0:0:0:0:
332,88,59666,1,0,0:0:0:0:
332,59,59752,1,0,0:0:0:0:
336,31,59837,1,6,0:0:0:0:
165,37,60009,1,10,0:0:0:0:
412,58,60180,1,8,0:0:0:0:
224,89,60352,6,0,P|225:135|216:185,1,95,2|0,0:0|0:0,0:0:0:0:
42,107,60694,1,8,0:0:0:0:
142,195,60866,2,0,L|157:304,1,95,2|0,0:0|0:0,0:0:0:0:
150,317,61123,1,0,0:0:0:0:
144,344,61209,1,6,0:0:0:0:
283,372,61380,1,10,0:0:0:0:
410,307,61552,1,0,0:0:0:0:
270,285,61723,5,0,0:0:0:0:
357,185,61894,1,0,0:0:0:0:
226,159,62066,1,10,0:0:0:0:
124,73,62237,1,0,0:0:0:0:
105,94,62323,1,0,0:0:0:0:
93,120,62409,1,0,0:0:0:0:
91,148,62494,1,0,0:0:0:0:
94,176,62580,1,6,0:0:0:0:
314,175,62752,2,0,L|413:190,1,95,10|8,0:0|0:0,0:0:0:0:
478,301,63094,5,2,0:0:0:0:
368,377,63266,1,0,0:0:0:0:
290,270,63437,1,10,0:0:0:0:
401,194,63609,2,0,L|395:94,1,95,2|0,0:0|0:0,0:0:0:0:
383,73,63866,1,0,0:0:0:0:
365,50,63952,1,6,0:0:0:0:
214,244,64123,2,0,L|116:251,1,95,10|0,0:0|0:0,0:0:0:0:
82,55,64466,5,8,0:0:0:0:
256,56,64637,1,0,0:0:0:0:
160,212,64809,1,6,0:0:0:0:
428,55,64980,1,8,0:0:0:0:
352,212,65152,1,0,0:0:0:0:
256,56,65323,1,6,0:0:0:0:
256,355,65494,1,8,0:0:0:0:
429,367,65666,1,10,0:0:0:0:
83,367,65837,6,0,L|41:275,1,95,6|0,0:0|0:0,0:0:0:0:
144,192,66180,1,8,0:0:0:0:
43,103,66352,2,0,L|83:17,1,95,2|0,0:0|0:0,0:0:0:0:
111,20,66609,1,0,0:0:0:0:
139,22,66694,1,6,0:0:0:0:
315,166,66866,1,10,0:0:0:0:
376,48,67037,1,0,0:0:0:0:
333,244,67209,6,0,P|333:297|340:347,1,95,4|0,0:0|0:0,0:0:0:0:
469,364,67552,1,10,0:0:0:0:
406,205,67723,1,0,0:0:0:0:
412,177,67809,1,0,0:0:0:0:
414,148,67894,1,0,0:0:0:0:
412,119,67980,1,0,0:0:0:0:
404,91,68066,1,6,0:0:0:0:
259,214,68237,2,0,P|211:220|164:215,1,95,10|8,0:0|0:0,0:0:0:0:
34,246,68580,5,6,0:0:0:0:
74,118,68752,1,0,0:0:0:0:
57,326,68923,1,2,0:0:0:0:
150,77,69094,2,0,L|249:69,1,95,2|0,0:0|0:0,0:0:0:0:
273,72,69352,1,0,0:0:0:0:
299,62,69437,1,6,0:0:0:0:
485,103,69609,1,10,0:0:0:0:
272,73,69780,1,0,0:0:0:0:
438,166,69952,6,0,L|463:262,1,95,4|0,0:0|0:0,0:0:0:0:
295,349,70294,1,10,0:0:0:0:
167,150,70466,1,0,0:0:0:0:
138,154,70552,1,0,0:0:0:0:
110,159,70637,1,0,0:0:0:0:
82,165,70723,1,0,0:0:0:0:
55,170,70809,1,6,0:0:0:0:
272,137,70980,1,10,0:0:0:0:
175,229,71152,1,8,0:0:0:0:
301,62,71323,6,0,L|401:68,1,95,6|0,0:0|0:0,0:0:0:0:
500,227,71666,1,8,0:0:0:0:
311,203,71837,2,0,P|315:265|314:312,1,95,2|0,0:0|0:0,0:0:0:0:
309,325,72094,1,0,0:0:0:0:
298,351,72180,1,6,0:0:0:0:
114,325,72352,2,0,L|8:348,1,95,10|0,0:0|0:0,0:0:0:0:
22,174,72694,5,4,0:0:0:0:
55,44,72866,1,0,0:0:0:0:
185,77,73037,1,10,0:0:0:0:
152,207,73209,1,0,0:0:0:0:
176,221,73294,1,0,0:0:0:0:
202,230,73380,1,0,0:0:0:0:
230,235,73466,1,0,0:0:0:0:
258,238,73552,1,6,0:0:0:0:
464,268,73723,1,10,0:0:0:0:
299,312,73894,1,8,0:0:0:0:
425,196,74066,6,0,P|428:149|427:102,1,95,6|0,0:0|0:0,0:0:0:0:
310,35,74409,1,10,0:0:0:0:
387,270,74580,2,0,L|385:367,1,95,2|0,0:0|0:0,0:0:0:0:
357,374,74837,1,0,0:0:0:0:
328,376,74923,1,6,0:0:0:0:
159,349,75094,2,0,L|174:252,1,95,10|0,0:0|0:0,0:0:0:0:
338,128,75437,5,6,0:0:0:0:
192,109,75609,1,0,0:0:0:0:
173,255,75780,1,2,0:0:0:0:
319,274,75952,1,6,0:0:0:0:
337,86,76123,5,12,0:0:0:0:
150,110,76295,1,0,0:0:0:0:
174,297,76466,1,10,0:0:0:0:
361,273,76638,1,6,0:0:0:0:
256,192,76809,5,0,0:0:0:0:
256,192,77152,1,0,0:0:0:0:
178,211,77323,2,0,L|62:190,1,113.999996520996
25,121,77837,1,0,0:0:0:0:
256,192,78352,1,0,0:0:0:0:
334,173,78523,2,0,L|450:194,1,113.999996520996,0|0,0:0|0:0,0:0:0:0:
499,253,79037,1,0,0:0:0:0:
454,319,79209,1,0,0:0:0:0:
376,299,79380,1,0,0:0:0:0:
370,219,79552,6,0,L|363:123,1,95,6|0,0:0|0:0,0:0:0:0:
467,42,79894,1,8,0:0:0:0:
286,103,80066,2,0,P|238:103|191:96,1,95,2|0,0:0|0:0,0:0:0:0:
163,94,80323,1,0,0:0:0:0:
135,100,80409,1,6,0:0:0:0:
273,284,80580,2,0,L|264:381,1,95,10|0,0:0|0:0,0:0:0:0:
45,366,80923,5,4,0:0:0:0:
195,250,81094,1,0,0:0:0:0:
18,178,81266,1,10,0:0:0:0:
259,202,81437,1,0,0:0:0:0:
286,195,81523,1,0,0:0:0:0:
313,188,81609,1,0,0:0:0:0:
340,181,81694,1,0,0:0:0:0:
367,174,81780,1,6,0:0:0:0:
479,30,81952,1,10,0:0:0:0:
438,215,82123,1,8,0:0:0:0:
298,87,82294,6,0,P|251:78|203:79,1,95,6|0,0:0|0:0,0:0:0:0:
111,247,82637,1,10,0:0:0:0:
144,30,82809,2,0,P|96:30|49:22,1,95,2|0,0:0|0:0,0:0:0:0:
32,45,83066,1,0,0:0:0:0:
14,67,83152,1,6,0:0:0:0:
190,226,83323,2,0,L|196:330,1,95,10|0,0:0|0:0,0:0:0:0:
339,334,83666,5,4,0:0:0:0:
451,348,83837,1,0,0:0:0:0:
305,226,84009,1,10,0:0:0:0:
483,160,84180,1,0,0:0:0:0:
486,131,84266,1,0,0:0:0:0:
490,102,84352,1,0,0:0:0:0:
494,74,84437,1,0,0:0:0:0:
498,45,84523,1,6,0:0:0:0:
290,52,84694,1,10,0:0:0:0:
419,20,84866,1,8,0:0:0:0:
211,22,85037,6,0,P|164:28|118:42,1,95,6|0,0:0|0:0,0:0:0:0:
112,69,85294,1,0,0:0:0:0:
111,96,85380,2,0,P|112:120|112:144,1,47.5,8|8,0:0|0:0,0:0:0:0:
169,223,85552,2,0,P|166:273|173:322,1,95,2|0,0:0|0:0,0:0:0:0:
194,334,85809,1,0,0:0:0:0:
221,340,85894,1,6,0:0:0:0:
249,342,85980,1,8,0:0:0:0:
276,335,86066,2,0,P|323:329|370:335,1,95,10|0,0:0|0:0,0:0:0:0:
398,332,86323,1,0,0:0:0:0:
423,318,86409,5,8,0:0:0:0:
388,189,86580,1,0,0:0:0:0:
352,60,86752,1,6,0:0:0:0:
93,174,86923,1,10,0:0:0:0:
187,79,87094,1,0,0:0:0:0:
281,0,87266,1,4,0:0:0:0:
321,342,87437,1,10,0:0:0:0:
192,308,87608,1,0,0:0:0:0:
77,266,87780,6,0,L|94:173,1,95,6|0,0:0|0:0,0:0:0:0:
37,51,88123,1,10,0:0:0:0:
268,138,88294,2,0,P|315:142|362:136,1,95,2|0,0:0|0:0,0:0:0:0:
387,121,88552,1,0,0:0:0:0:
409,103,88637,1,6,0:0:0:0:
180,124,88809,2,0,P|185:172|213:209,1,95,10|0,0:0|0:0,0:0:0:0:
373,311,89152,5,4,0:0:0:0:
387,121,89323,1,0,0:0:0:0:
483,284,89494,1,10,0:0:0:0:
292,285,89666,1,0,0:0:0:0:
263,280,89752,1,0,0:0:0:0:
234,280,89837,1,0,0:0:0:0:
205,283,89923,1,0,0:0:0:0:
177,289,90009,1,6,0:0:0:0:
34,244,90180,1,10,0:0:0:0:
79,101,90352,1,8,0:0:0:0:
222,146,90523,6,0,L|317:153,1,95,2|0,0:0|0:0,0:0:0:0:
413,11,90866,1,8,0:0:0:0:
470,231,91037,2,0,L|375:224,1,95,2|0,0:0|0:0,0:0:0:0:
348,213,91294,1,0,0:0:0:0:
321,201,91380,1,6,0:0:0:0:
152,79,91552,2,0,P|145:125|145:173,1,95,10|0,0:0|0:0,0:0:0:0:
89,334,91894,5,4,0:0:0:0:
221,224,92066,1,0,0:0:0:0:
61,164,92237,1,10,0:0:0:0:
281,162,92409,1,0,0:0:0:0:
309,159,92494,1,0,0:0:0:0:
336,151,92580,1,0,0:0:0:0:
362,140,92666,1,0,0:0:0:0:
387,127,92752,1,6,0:0:0:0:
336,5,92923,1,10,0:0:0:0:
469,140,93094,1,8,0:0:0:0:
234,98,93266,6,0,L|138:93,1,95,6|0,0:0|0:0,0:0:0:0:
28,18,93609,1,10,0:0:0:0:
162,178,93780,2,0,L|152:272,1,95,2|0,0:0|0:0,0:0:0:0:
131,293,94037,1,0,0:0:0:0:
106,307,94123,1,6,0:0:0:0:
310,346,94294,2,0,L|416:356,1,95,10|0,0:0|0:0,0:0:0:0:
467,175,94637,5,4,0:0:0:0:
480,326,94809,1,0,0:0:0:0:
416,108,94980,1,10,0:0:0:0:
395,259,95152,1,0,0:0:0:0:
366,261,95237,1,0,0:0:0:0:
337,260,95323,1,0,0:0:0:0:
308,254,95409,1,0,0:0:0:0:
281,243,95494,1,6,0:0:0:0:
43,242,95666,1,10,0:0:0:0:
223,182,95837,1,8,0:0:0:0:
80,56,96009,6,0,L|87:153,1,95,6|0,0:0|0:0,0:0:0:0:
107,170,96266,1,0,0:0:0:0:
122,194,96352,1,8,0:0:0:0:
129,221,96437,1,8,0:0:0:0:
131,249,96523,2,0,P|181:251|230:266,1,95,2|0,0:0|0:0,0:0:0:0:
249,277,96780,1,0,0:0:0:0:
276,286,96866,1,6,0:0:0:0:
304,289,96952,1,8,0:0:0:0:
332,286,97037,2,0,L|346:233,1,47.5,10|0,0:0|0:0,0:0:0:0:
430,193,97209,1,0,0:0:0:0:
432,164,97294,1,0,0:0:0:0:
430,135,97380,5,8,0:0:0:0:
365,45,97552,1,0,0:0:0:0:
261,8,97723,1,6,0:0:0:0:
250,375,97895,5,10,0:0:0:0:
146,338,98066,1,0,0:0:0:0:
82,249,98237,1,4,0:0:0:0:
431,245,98409,5,8,0:0:0:0:
80,138,98580,1,2,0:0:0:0:
256,192,98752,1,6,0:0:0:0:
256,192,98837,12,0,101494,0:2:0:0:
