osu file format v12

[General]
AudioFilename: Lifetheory - Fairy2.mp3
AudioLeadIn: 0
PreviewTime: 53666
Countdown: 0
SampleSet: Soft
StackLeniency: 0.7
Mode: 0
LetterboxInBreaks: 1
WidescreenStoryboard: 0

[Editor]
Bookmarks: 21957,32928,43899,54871,65842,76814,79557,87785,98757
DistanceSpacing: 1.2
BeatDivisor: 2
GridSize: 4
TimelineZoom: 1.4

[Metadata]
Title:Fairy
TitleUnicode:Fairy
Artist:Lifetheory
ArtistUnicode:Lifetheory
Creator:Zare
Version:Hard
Source:
Tags:dnb drum and bass cut short
BeatmapID:388425
BeatmapSetID:158820

[Difficulty]
HPDrainRate:5
CircleSize:4
OverallDifficulty:7
ApproachRate:8
SliderMultiplier:1.3
SliderTickRate:2

[Events]
//Background and Video events
0,0,"Fairy.jpg",0,0
//Break Periods
2,77009,78802
//Storyboard Layer 0 (Background)
//Storyboard Layer 1 (Fail)
//Storyboard Layer 2 (Pass)
//Storyboard Layer 3 (Foreground)
//Storyboard Sound Samples
//Background Colour Transformations
3,100,0,0,0

[TimingPoints]
21952,342.857142857143,4,1,0,40,1,0
21952,-100,4,1,0,40,0,0
35580,-100,4,2,0,5,0,0
35666,-100,4,2,0,40,0,0
38323,-100,4,2,0,5,0,0
38409,-100,4,2,0,40,0,0
41066,-100,4,2,0,5,0,0
41152,-100,4,2,0,40,0,0
54866,-100,4,3,0,70,0,1
76809,-100,4,1,0,40,0,0
79552,-100,4,3,0,60,0,1
98752,-100,4,3,0,40,0,0
98837,-100,4,2,0,5,0,0
101494,-100,4,2,0,5,0,0

[Colours]
Combo1 : 120,150,254
Combo2 : 163,208,147
Combo3 : 238,224,125

[HitObjects]
296,124,32923,6,0,L|438:111,2,130,6|0|0,0:0|1:0|0:0,0:0:0:0:
218,117,33780,1,0,0:0:0:0:
251,187,33952,1,0,1:0:0:0:
103,237,34294,1,0,0:0:0:0:
224,334,34637,1,0,1:0:0:0:
325,215,34980,2,0,P|362:218|394:213,1,65,0|0,0:0|0:0,0:0:0:0:
447,161,35323,1,0,1:0:0:0:
291,143,35666,6,0,L|299:13,2,130,6|0|0,0:0|1:0|0:0,0:0:0:0:
226,187,36523,1,0,0:0:0:0:
149,173,36694,1,0,1:0:0:0:
159,328,37037,1,0,0:0:0:0:
226,187,37380,1,0,1:0:0:0:
96,274,37723,1,0,0:0:0:0:
18,281,37894,1,0,0:0:0:0:
51,210,38066,1,0,1:0:0:0:
180,122,38409,6,0,P|166:79|208:7,1,130,6|0,0:0|1:0,0:0:0:0:
260,154,39094,1,0,0:0:0:0:
243,77,39266,1,0,0:0:0:0:
317,99,39437,1,0,1:2:0:0:
197,199,39780,2,0,L|182:334,1,130,0|0,0:0|1:0,0:0:0:0:
338,338,40466,2,0,L|403:346,1,65,0|0,0:0|0:0,0:0:0:0:
469,305,40809,1,0,1:0:0:0:
370,184,41152,6,0,P|377:118|376:52,2,130,6|0|0,0:0|1:0|0:0,0:0:0:0:
315,240,42009,1,0,0:0:0:0:
237,240,42180,1,0,1:0:0:0:
82,258,42523,1,0,0:0:0:0:
143,115,42866,1,0,1:0:0:0:
164,269,43209,2,0,L|154:336,1,65,0|0,0:0|0:0,0:0:0:0:
224,368,43552,1,0,1:0:0:0:
253,215,43894,6,0,P|286:215|319:218,1,65,2|0,0:0|0:0,0:0:0:0:
359,284,44237,1,0,1:0:0:0:
396,215,44409,2,0,L|410:63,1,130,2|0,0:0|0:0,0:0:0:0:
361,22,44923,2,0,P|331:15|296:13,1,65,0|0,1:0|0:0,0:0:0:0:
225,45,45266,1,0,0:0:0:0:
68,42,45609,2,0,P|65:81|65:111,1,65,0|0,1:0|0:0,0:0:0:0:
165,225,46123,1,0,0:0:0:0:
159,302,46294,2,0,P|201:312|241:311,1,65,0|0,1:0|0:0,0:0:0:0:
293,279,46637,6,0,P|354:297|424:284,1,130,2|0,0:0|1:0,0:0:0:0:
460,219,47152,2,0,P|464:154|477:85,1,130,2|0,0:0|0:0,0:0:0:0:
431,25,47666,1,0,1:0:0:0:
279,61,48009,2,0,L|148:53,2,130,0|0|0,0:0|1:0|0:0,0:0:0:0:
338,111,48866,1,2,0:0:0:0:
341,188,49037,1,0,1:0:0:0:
284,242,49209,1,0,0:0:0:0:
205,232,49380,6,0,P|173:233|141:237,1,65,2|0,0:0|0:0,0:0:0:0:
81,186,49723,1,0,1:0:0:0:
66,262,49894,2,0,P|96:303|170:312,1,130,2|0,0:0|0:0,0:0:0:0:
234,265,50409,2,0,L|234:198,1,65,0|0,1:0|0:0,0:0:0:0:
208,126,50752,5,2,0:0:0:0:
359,88,51094,1,0,1:0:0:0:
208,45,51437,1,0,0:0:0:0:
275,85,51609,1,0,0:0:0:0:
208,126,51780,2,0,P|205:162|208:191,1,65,0|0,1:0|0:0,0:0:0:0:
285,185,52123,6,0,P|239:264|149:244,2,195,2|2|0,0:0|0:0|1:0,0:0:0:0:
129,173,53494,2,0,L|86:118,1,65,2|0,0:0|0:0,0:0:0:0:
32,67,53837,6,0,P|67:45|150:73,1,130,0|0,1:0|0:0,0:0:0:0:
222,48,54352,2,0,P|267:86|346:74,1,130,0|0,1:0|0:0,0:0:0:0:
386,22,54866,5,6,0:0:0:0:
412,95,55037,1,0,0:0:0:0:
465,38,55209,1,8,0:0:0:0:
486,112,55380,2,0,L|484:187,1,65,2|0,0:0|0:0,0:0:0:0:
500,253,55723,1,6,0:0:0:0:
425,229,55894,1,10,0:0:0:0:
273,267,56237,6,0,L|210:284,2,65,4|0|10,0:0|0:0|0:0,0:0:0:0:
316,201,56752,1,0,0:0:0:0:
319,181,56837,1,0,0:0:0:0:
322,161,56923,2,0,L|318:82,1,65,0|6,0:0|0:0,0:0:0:0:
253,53,57266,1,10,0:0:0:0:
102,12,57609,6,0,P|76:71|80:136,1,130,6|10,0:0|0:0,0:0:0:0:
47,206,58123,2,0,P|110:207|152:161,1,130,2|6,0:0|0:0,0:0:0:0:
229,174,58637,1,10,0:0:0:0:
339,64,58980,6,0,L|409:55,2,65,0|0|10,0:0|0:0|0:0,0:0:0:0:
297,130,59494,1,0,0:0:0:0:
300,149,59580,1,0,0:0:0:0:
303,168,59666,1,0,0:0:0:0:
367,211,59837,1,6,0:0:0:0:
296,244,60009,2,0,P|293:288|294:309,1,65,10|8,0:0|0:0,0:0:0:0:
224,343,60352,6,0,L|79:360,1,130,2|8,0:0|0:0,0:0:0:0:
46,296,60866,2,0,P|49:261|48:229,1,65,2|0,0:0|0:0,0:0:0:0:
29,155,61209,1,6,0:0:0:0:
72,90,61380,1,10,0:0:0:0:
227,85,61723,5,0,0:0:0:0:
374,34,62066,1,10,0:0:0:0:
386,110,62237,2,0,P|401:109|418:110,2,32.5,0|0|0,0:0|0:0|0:0,0:0:0:0:
350,179,62580,1,6,0:0:0:0:
376,252,62752,2,0,L|376:319,1,65,10|8,0:0|0:0,0:0:0:0:
303,348,63094,6,0,P|272:353|239:352,1,65,2|0,0:0|0:0,0:0:0:0:
162,363,63437,1,10,0:0:0:0:
192,290,63609,2,0,L|194:154,1,130,2|6,0:0|0:0,0:0:0:0:
261,121,64123,2,0,P|241:97|212:83,1,65,10|0,0:0|0:0,0:0:0:0:
160,24,64466,6,0,L|87:16,1,65,8|0,0:0|0:0,0:0:0:0:
33,64,64809,1,6,0:0:0:0:
73,130,64980,2,0,L|72:202,1,65,8|0,0:0|0:0,0:0:0:0:
23,256,65323,1,6,0:0:0:0:
60,323,65494,1,8,0:0:0:0:
215,309,65837,6,0,P|252:322|348:284,1,130,6|8,0:0|0:0,0:0:0:0:
413,291,66352,2,0,P|383:236|322:220,1,130,2|6,0:0|0:0,0:0:0:0:
246,203,66866,1,10,0:0:0:0:
295,143,67037,1,0,0:0:0:0:
217,131,67209,6,0,L|101:66,1,130,4|10,0:0|0:0,0:0:0:0:
39,112,67723,1,0,0:0:0:0:
37,131,67809,1,0,0:0:0:0:
35,150,67894,1,0,0:0:0:0:
169,70,68237,1,2,0:0:0:0:
246,205,68580,6,0,P|236:269|246:338,1,130,6|2,0:0|0:0,0:0:0:0:
309,377,69094,2,0,L|176:368,1,130,2|6,0:0|0:0,0:0:0:0:
100,373,69609,1,10,0:0:0:0:
23,236,69952,5,4,0:0:0:0:
98,255,70123,1,0,0:0:0:0:
78,179,70294,1,10,0:0:0:0:
123,115,70466,2,0,L|118:69,2,32.5,0|0|0,0:0|0:0|0:0,0:0:0:0:
198,134,70809,1,6,0:0:0:0:
274,120,70980,2,0,P|303:108|331:91,1,65,10|8,0:0|0:0,0:0:0:0:
395,46,71323,6,0,P|410:107|372:157,1,130,6|8,0:0|0:0,0:0:0:0:
304,196,71837,1,2,0:0:0:0:
206,74,72180,1,6,0:0:0:0:
151,129,72352,2,0,P|118:132|86:132,1,65,10|0,0:0|0:0,0:0:0:0:
61,207,72694,2,0,P|29:211|-1:219,2,65,4|0|10,0:0|0:0|0:0,0:0:0:0:
120,260,73209,1,0,0:0:0:0:
138,263,73294,1,0,0:0:0:0:
157,265,73380,2,0,L|229:259,1,65,0|6,0:0|0:0,0:0:0:0:
297,280,73723,1,10,0:0:0:0:
441,338,74066,6,0,P|456:244|402:166,1,195,6|2,0:0|0:0,0:0:0:0:
297,280,74923,1,6,0:0:0:0:
228,316,75094,2,0,P|198:318|163:315,1,65,10|0,0:0|0:0,0:0:0:0:
111,256,75437,5,6,0:0:0:0:
42,224,75608,1,0,0:0:0:0:
23,151,75779,1,2,0:0:0:0:
68,91,75951,1,6,0:0:0:0:
144,88,76122,1,12,0:0:0:0:
193,145,76294,1,0,0:0:0:0:
179,219,76465,1,10,0:0:0:0:
252,193,76637,1,2,0:0:0:0:
327,212,76809,5,0,0:0:0:0:
369,71,79552,6,0,L|387:203,1,130,6|8,0:0|0:0,0:0:0:0:
449,244,80066,2,0,P|396:277|332:255,1,130,2|6,0:0|0:0,0:0:0:0:
270,214,80580,1,10,0:0:0:0:
191,217,80752,1,0,0:0:0:0:
124,259,80923,6,0,P|93:268|61:267,2,65,4|0|10,0:0|0:0|0:0,0:0:0:0:
120,180,81437,1,0,0:0:0:0:
123,160,81523,1,0,0:0:0:0:
126,140,81609,2,0,L|127:66,1,65,0|6,0:0|0:0,0:0:0:0:
178,15,81952,1,10,0:0:0:0:
289,123,82294,6,0,L|421:109,1,130,6|10,0:0|0:0,0:0:0:0:
476,55,82809,2,0,P|449:113|460:176,1,130,2|6,0:0|0:0,0:0:0:0:
492,247,83323,1,10,0:0:0:0:
342,292,83666,6,0,P|344:327|342:363,2,65,4|0|10,0:0|0:0|0:0,0:0:0:0:
297,227,84180,1,0,0:0:0:0:
295,207,84266,1,0,0:0:0:0:
295,187,84352,1,0,0:0:0:0:
354,136,84523,1,6,0:0:0:0:
279,112,84694,2,0,P|246:108|214:104,1,65,10|8,0:0|0:0,0:0:0:0:
158,159,85037,6,0,P|103:165|17:137,2,130,6|8|0,0:0|0:0|0:0,0:0:0:0:
234,175,85894,1,6,0:0:0:0:
279,112,86066,1,10,0:0:0:0:
400,210,86409,6,0,L|407:275,1,65,8|0,0:0|0:0,0:0:0:0:
347,325,86752,1,6,0:0:0:0:
275,294,86923,2,0,P|241:291|210:295,1,65,10|0,0:0|0:0,0:0:0:0:
135,316,87266,1,4,0:0:0:0:
67,277,87437,1,10,0:0:0:0:
66,198,87609,1,0,0:0:0:0:
124,146,87780,6,0,L|121:12,1,130,6|10,0:0|0:0,0:0:0:0:
198,2,88294,1,2,0:0:0:0:
202,157,88637,1,6,0:0:0:0:
202,157,88809,1,10,0:0:0:0:
337,80,89152,6,0,L|410:89,1,65,4|0,0:0|0:0,0:0:0:0:
458,140,89494,1,10,0:0:0:0:
447,217,89666,1,0,0:0:0:0:
448,236,89752,1,0,0:0:0:0:
450,255,89837,1,0,0:0:0:0:
491,321,90009,1,6,0:0:0:0:
413,323,90180,2,0,L|332:328,1,65,10|8,0:0|0:0,0:0:0:0:
287,277,90523,6,0,L|205:269,2,65,2|0|8,0:0|0:0|0:0,0:0:0:0:
344,223,91037,2,0,P|354:158|344:91,1,130,2|6,0:0|0:0,0:0:0:0:
278,53,91552,1,10,0:0:0:0:
204,79,91723,1,0,0:0:0:0:
138,37,91894,6,0,P|74:26|5:30,1,130,4|10,0:0|0:0,0:0:0:0:
19,107,92409,1,0,0:0:0:0:
19,126,92494,1,0,0:0:0:0:
16,145,92580,1,0,0:0:0:0:
27,222,92752,1,6,0:0:0:0:
85,272,92923,2,0,P|84:304|81:336,1,65,10|8,0:0|0:0,0:0:0:0:
156,357,93266,5,6,0:0:0:0:
280,263,93609,1,10,0:0:0:0:
280,263,93780,2,0,L|413:277,1,130,2|6,0:0|0:0,0:0:0:0:
485,291,94294,1,10,0:0:0:0:
424,147,94637,6,0,L|427:71,2,65,4|0|10,0:0|0:0|0:0,0:0:0:0:
353,181,95152,1,0,0:0:0:0:
334,185,95237,1,0,0:0:0:0:
314,186,95323,1,0,0:0:0:0:
243,153,95494,1,6,0:0:0:0:
167,132,95666,2,0,P|134:131|102:133,1,65,10|8,0:0|0:0,0:0:0:0:
63,201,96009,6,0,P|30:168|38:84,2,130,6|8|0,0:0|0:0|0:0,0:0:0:0:
140,207,96866,1,6,0:0:0:0:
201,254,97037,2,0,L|198:333,1,65,10|0,0:0|0:0,0:0:0:0:
276,313,97380,5,8,0:0:0:0:
349,340,97552,1,0,0:0:0:0:
337,263,97723,1,6,0:0:0:0:
264,235,97894,5,10,0:0:0:0:
203,285,98066,1,0,0:0:0:0:
190,208,98237,1,4,0:0:0:0:
251,159,98409,5,8,0:0:0:0:
323,187,98580,1,2,0:0:0:0:
311,109,98752,1,6,0:0:0:0:
256,192,98837,12,0,101494,0:2:0:0:
