osu file format v12

[General]
AudioFilename: Lifetheory - Fairy2.mp3
AudioLeadIn: 0
PreviewTime: 53666
Countdown: 0
SampleSet: None
StackLeniency: 0.7
Mode: 0
LetterboxInBreaks: 1
WidescreenStoryboard: 0

[Editor]
Bookmarks: 21957,32928,43899,54871,65842,76814,79557,87785,98757
DistanceSpacing: 1.2
BeatDivisor: 4
GridSize: 4
TimelineZoom: 1.4

[Metadata]
Title:Fairy
TitleUnicode:Fairy
Artist:Lifetheory
ArtistUnicode:Lifetheory
Creator:Zare
Version:Easy
Source:
Tags:dnb drum and bass cut short
BeatmapID:388410
BeatmapSetID:158820

[Difficulty]
HPDrainRate:1
CircleSize:3
OverallDifficulty:3
ApproachRate:3
SliderMultiplier:0.699999999999999
SliderTickRate:2

[Events]
//Background and Video events
0,0,"Fairy.jpg",0,0
//Break Periods
2,77009,78112
//Storyboard Layer 0 (Background)
//Storyboard Layer 1 (Fail)
//Storyboard Layer 2 (Pass)
//Storyboard Layer 3 (Foreground)
//Storyboard Sound Samples
//Background Colour Transformations
3,100,0,0,0

[TimingPoints]
21952,342.857142857143,4,1,0,40,1,0
21952,-100,4,1,0,40,0,0
35580,-100,4,2,0,5,0,0
35666,-100,4,2,0,40,0,0
38323,-100,4,2,0,5,0,0
38409,-100,4,2,0,40,0,0
41066,-100,4,2,0,5,0,0
41152,-100,4,2,0,40,0,0
54866,-100,4,3,0,70,0,1
76809,-100,4,1,0,40,0,0
79552,-100,4,3,0,60,0,1
98752,-100,4,3,0,40,0,0
98837,-100,4,2,0,5,0,0
101494,-100,4,2,0,5,0,0

[Colours]
Combo1 : 120,150,254
Combo2 : 163,208,147
Combo3 : 238,224,125

[HitObjects]
250,297,32923,6,0,L|288:154,1,140,6|0,0:0|0:0,0:0:0:0:
165,44,34294,2,0,P|125:31|93:27,2,69.9999999999999,0|0|0,0:0|1:0|0:0,0:0:0:0:
132,209,35666,5,6,0:0:0:0:
49,222,36009,2,0,P|84:278|152:290,1,140,0|0,1:0|1:0,0:0:0:0:
228,237,37037,1,0,0:0:0:0:
296,187,37380,2,0,L|310:40,1,140,0|0,1:0|1:0,0:0:0:0:
390,25,38409,5,6,0:0:0:0:
446,87,38752,1,0,1:0:0:0:
474,252,39437,1,0,1:2:0:0:
394,279,39780,2,0,L|324:291,1,69.9999999999999,0|0,0:0|1:0,0:0:0:0:
172,223,40809,1,0,1:0:0:0:
105,274,41152,6,0,P|101:176|193:140,1,210,6|0,0:0|1:0,0:0:0:0:
254,197,42523,2,0,L|368:192,2,105,0|0|0,0:0|1:0|0:0,0:0:0:0:
128,202,43894,6,0,B|76:102|180:102|128:2,2,210,2|0|0,0:0|1:0|0:0,0:0:0:0:
273,286,46637,6,0,P|355:313|486:301,1,210,2|0,0:0|1:0,0:0:0:0:
450,225,48009,2,0,L|457:76,1,140,0|0,0:0|0:0,0:0:0:0:
293,46,49380,6,0,P|196:18|142:101,2,210,2|0|0,0:0|1:0|0:0,0:0:0:0:
226,97,51780,1,0,1:0:0:0:
187,171,52123,6,0,L|178:284,1,105,2|0,0:0|0:0,0:0:0:0:
267,365,53152,1,0,0:0:0:0:
433,346,53837,2,0,L|421:200,1,140,0|0,1:0|0:0,0:0:0:0:
491,158,54866,6,0,P|495:93|445:44,1,140,6|0,0:0|0:0,0:0:0:0:
416,123,55894,1,10,0:0:0:0:
333,106,56237,2,0,L|255:92,2,69.9999999999999,4|10|0,0:0|0:0|0:0,0:0:0:0:
361,185,57266,1,10,0:0:0:0:
297,239,57609,6,0,L|269:382,1,140,6|0,0:0|0:0,0:0:0:0:
193,342,58637,2,0,P|158:334|124:339,1,69.9999999999999,10|0,0:0|0:0,0:0:0:0:
44,361,59323,1,10,0:0:0:0:
85,198,60009,1,10,0:0:0:0:
21,141,60352,6,0,P|64:114|116:118,2,105,2|0|0,0:0|0:0|0:0,0:0:0:0:
186,169,62066,1,10,0:0:0:0:
266,143,62409,2,0,L|345:133,1,69.9999999999999,0|10,0:0|0:0,0:0:0:0:
367,56,63094,6,0,P|417:101|415:169,1,140,2|0,0:0|0:0,0:0:0:0:
350,223,64123,1,10,0:0:0:0:
339,306,64466,1,8,0:0:0:0:
273,253,64809,2,0,L|127:264,1,140,6|8,0:0|0:0,0:0:0:0:
49,269,65837,6,0,P|45:199|54:129,1,140,6|0,0:0|0:0,0:0:0:0:
124,84,66866,2,0,P|125:49|126:15,2,69.9999999999999,10|4|10,0:0|0:0|0:0,0:0:0:0:
291,66,68237,1,2,0:0:0:0:
353,123,68580,6,0,P|420:112|473:155,1,140,6|0,0:0|0:0,0:0:0:0:
399,196,69609,2,0,P|390:265|396:335,1,140,10|10,0:0|0:0,0:0:0:0:
228,344,70980,1,10,0:0:0:0:
145,328,71323,6,0,L|167:247,1,69.9999999999999,6|8,0:0|0:0,0:0:0:0:
120,187,72009,1,0,0:0:0:0:
44,150,72352,2,0,P|80:90|140:47,1,140,10|10,0:0|0:0,0:0:0:0:
300,17,73723,1,10,0:0:0:0:
277,97,74066,6,0,P|320:153|379:189,1,140,6|0,0:0|0:0,0:0:0:0:
423,259,75094,1,10,0:0:0:0:
346,294,75437,2,0,L|138:323,1,210,6|10,0:0|0:0,0:0:0:0:
64,281,76809,5,0,0:0:0:0:
64,280,79552,6,0,P|64:211|56:141,1,140,6|0,0:0|0:0,0:0:0:0:
115,81,80580,2,0,B|141:87|178:83|178:83|172:99|172:99|205:97|237:105,1,140,10|10,0:0|0:0,0:0:0:0:
399,109,81952,1,10,0:0:0:0:
325,151,82294,5,6,0:0:0:0:
157,163,82980,1,0,0:0:0:0:
93,217,83323,2,0,P|76:282|114:339,1,140,10|10,0:0|0:0,0:0:0:0:
172,181,84694,1,10,0:0:0:0:
160,267,85037,6,0,L|299:275,1,140,6|0,0:0|0:0,0:0:0:0:
381,294,86066,1,10,0:0:0:0:
441,234,86409,2,0,L|426:24,1,210,8|10,0:0|0:0,0:0:0:0:
345,48,87780,6,0,P|286:22|220:51,1,140,6|0,0:0|0:0,0:0:0:0:
284,105,88809,2,0,L|279:244,1,140,10|10,0:0|0:0,0:0:0:0:
120,299,90180,1,10,0:0:0:0:
100,217,90523,6,0,L|86:135,2,69.9999999999999,2|8|0,0:0|0:0|0:0,0:0:0:0:
180,242,91552,2,0,P|249:248|331:240,1,140,10|10,0:0|0:0,0:0:0:0:
367,81,92923,1,10,0:0:0:0:
349,163,93266,6,0,P|398:209|399:277,1,140,6|0,0:0|0:0,0:0:0:0:
319,242,94294,1,10,0:0:0:0:
237,260,94637,2,0,L|156:254,1,69.9999999999999,4|10,0:0|0:0,0:0:0:0:
95,102,95666,1,10,0:0:0:0:
36,161,96009,6,0,P|16:221|16:298,1,140,6|0,0:0|0:0,0:0:0:0:
73,358,97037,1,10,0:0:0:0:
140,308,97380,2,0,L|356:331,1,210,8|8,0:0|0:0,0:0:0:0:
417,280,98752,1,6,0:0:0:0:
256,192,98837,12,0,101494,0:2:0:0:
