osu file format v9

[General]
AudioFilename: 14-Here Tomorrow Gone Today.mp3
AudioLeadIn: 0
PreviewTime: 76370
Countdown: 0
SampleSet: Normal
StackLeniency: 0.7
Mode: 0
LetterboxInBreaks: 0
EpilepsyWarning: 1

[Editor]
Bookmarks: 16453,40419,54275,64386,176482
DistanceSpacing: 1
BeatDivisor: 4
GridSize: 8

[Metadata]
Title:Here Tomorrow Gone Today
Artist:Lifehouse
Creator:Kotya
Version:Insane
Source:
Tags:smoke & mirrors

[Difficulty]
HPDrainRate:6
CircleSize:5
OverallDifficulty:6
ApproachRate:8
SliderMultiplier:1.9
SliderTickRate:2

[Events]
//Background and Video events
0,0,"1024-768-117333.jpg"
//Break Periods
2,32644,35689
2,58361,63653
2,114538,133563
//Storyboard Layer 0 (Background)
//Storyboard Layer 1 (Fail)
//Storyboard Layer 2 (Pass)
//Storyboard Layer 3 (Foreground)
//Storyboard Sound Samples
//Background Colour Transformations
3,100,163,162,255

[TimingPoints]
486,499.354999791935,4,1,0,50,1,0
40434,-100,4,1,0,50,0,1
40559,-100,4,1,0,50,0,0
58161,-100,4,2,0,20,0,0
64386,-100,4,1,0,50,0,0
80382,-100,4,1,0,50,0,1
80507,-100,4,1,0,50,0,0
114338,-100,4,2,0,20,0,0
134313,-100,4,1,0,50,0,0
136310,-100,4,1,0,50,0,1
136435,-100,4,1,0,50,0,0
170266,-100,4,1,0,20,0,0

[Colours]
Combo1 : 112,0,223
Combo2 : 255,15,15
Combo3 : 244,122,0
Combo4 : 80,207,48
Combo5 : 58,147,243

[HitObjects]
168,120,16215,1,0
256,48,16465,1,8
344,120,16715,1,0
168,264,17214,1,0
256,336,17464,1,8
344,264,17713,1,0
168,120,18213,5,0
344,120,18462,1,8
168,264,18712,1,0
344,264,18962,1,8
256,192,19211,2,0,B|272:80|416:88,1,190
392,87,19960,1,8
256,192,20460,6,0,B|240:304|96:296,1,190,0|8
120,296,21209,1,0
168,120,21458,1,8
336,272,21958,1,8
416,120,22207,5,0
336,168,22457,1,0
256,216,22707,1,0
256,216,22832,1,0
256,216,22956,1,8
184,280,23206,2,0,B|232:360|384:360|432:280,1,285,0|8
208,88,24205,5,0
304,88,24455,1,8
136,160,24704,1,0
368,160,25204,5,0
208,256,25453,1,8
304,256,25703,1,0
256,72,26202,5,0
256,72,26452,1,0
200,152,26702,2,0,B|152:232|168:296|256:336|352:296|360:232|312:152,1,380
314,156,27950,1,8
424,240,28449,6,0,B|424:128,1,95,8|0
88,144,28949,2,0,B|88:256,1,95,8|0
256,144,29448,2,0,B|256:32,2,95,8|0|0
288,312,30197,5,0
376,240,30447,2,0,B|400:192|376:144,1,95,8|0
272,200,30946,1,8
168,152,31196,2,0,B|144:200|168:248,1,95,0|0
377,58,31695,2,0,B|401:106|377:154,1,95,0|8
168,336,32195,2,0,B|144:288|168:240,1,95
125,310,36439,6,0,B|72:312|55:256,1,95,8|0
133,188,36938,2,0,B|117:134|64:136,1,95,8|0
288,168,37438,2,0,B|234:169|218:115,1,95,8|0
392,208,37937,2,0,B|375:261|322:260,1,95,8|0
176,232,38436,6,0,B|80:232,1,95,8|0
328,232,38936,1,8
328,232,39186,2,0,B|440:232,1,95
248,160,39685,2,0,B|248:56,1,95
248,304,40184,2,0,B|264:336|248:360,2,47.5
264,88,40684,5,0
264,88,40933,2,0,B|312:64|360:88,1,95,2|0
304,192,41433,2,0,B|256:216|208:192,1,95,2|0
174,91,41932,2,0,B|222:67|270:91,1,95,2|0
360,152,42431,5,2
304,312,42681,1,0
144,240,42931,1,8
304,312,43180,2,0,B|256:200,1,95,2|0
320,72,43680,2,0,B|264:152,1,95,2|0
456,192,44179,2,0,B|352:192,1,95,2|0
256,256,44678,5,0
64,224,44928,2,0,B|168:184,1,95,2|0
256,136,45427,2,0,B|160:88,1,95,8|0
152,189,45927,2,0,B|152:293,1,95,8|0
368,192,46426,2,0,B|368:88,1,95,8|0
304,312,46926,5,2
120,128,47175,1,0
192,224,47425,2,0,B|200:248|192:280|136:288|80:296|72:328|80:352,2,190,0|0|2
336,56,48923,5,8
392,152,49173,1,0
440,48,49422,2,0,B|496:152,1,95
488,248,49922,2,0,B|448:336,1,95
336,336,50421,1,8
384,232,50671,1,0
288,168,50920,1,8
240,272,51170,6,0,B|120:304,1,95,2|0
288,168,51669,2,0,B|384:136,1,95,2|0
104,80,52169,2,0,B|168:160,1,95,2|0
256,224,52668,5,2
416,304,52918,2,0,B|352:224,1,95,8|0
256,224,53417,2,0,B|272:152|352:152,1,95,8|0
200,152,53916,2,0,B|184:208|120:208,1,95,8|0
56,48,54416,2,0,B|128:152,1,95,8|0
256,248,54915,5,2
432,152,55165,1,0
288,120,55415,1,4
392,280,55664,1,0
344,200,55914,1,4
256,192,56164,12,0,58161
80,128,64403,5,8
152,216,64653,1,0
192,112,64902,2,0,B|256:120|264:208,1,95,8|0
152,216,65402,2,0,B|160:280|248:288,1,95,8|0
328,280,65901,2,0,B|380:278|388:214,1,95,8|0
328,104,66400,5,8
256,192,66650,1,0
184,104,66900,1,8
112,192,67149,1,0
256,312,67649,6,0,B|304:328|304:328|352:312,1,95,0|8
346,126,68148,2,0,B|304:112|304:112|256:128,1,95,0|8
456,176,68647,2,0,B|456:272,1,95,0|8
168,272,69147,2,0,B|168:176,1,95,0|8
320,240,69646,5,0
96,248,69896,1,8
184,80,70146,1,0
296,104,70395,2,0,B|272:168|192:200|112:152,1,190,0|8
208,304,71144,2,0,B|232:240|312:208|392:256,2,190
96,304,72393,5,8
136,200,72642,1,0
416,48,73142,1,0
368,152,73391,1,8
256,328,73891,2,0,B|256:224,1,95,8|0
256,233,74390,1,8
176,152,74640,1,0
176,152,74889,2,0,B|200:88|304:88|328:152,1,190,8|0
144,280,75888,1,8
328,152,76387,6,0,B|352:216|456:216|480:152,1,190,8|8
408,64,77136,1,0
296,64,77386,2,0,B|104:64,1,190,8|8
176,184,78135,5,0
80,248,78385,1,8
176,304,78635,1,0
272,248,78884,1,8
368,304,79134,1,0
464,248,79384,1,8
368,184,79633,1,0
176,184,79883,1,8
272,320,80133,1,0
272,320,80257,1,0
272,320,80382,1,4
64,312,80632,5,2
64,312,80882,2,0,B|40:248|72:192,1,95,8|0
152,152,81381,2,0,B|176:200|152:264,1,95,8|0
176,360,81880,2,0,B|248:288,1,95,8|0
248,176,82380,5,2
352,136,82629,1,0
456,176,82879,1,8
352,136,83129,2,0,B|288:112|232:144,1,95,2|0
192,224,83628,2,0,B|240:248|304:224,1,95,2|0
400,248,84127,2,0,B|328:320,1,95,2|0
256,232,84627,5,2
256,232,84876,2,0,B|256:128,1,95,8|0
112,248,85376,2,0,B|184:320,1,95,8|0
304,152,85875,2,0,B|248:248|248:248,1,95,8|0
120,64,86375,2,0,B|184:144|184:144,1,95,8|0
360,280,86874,5,2
208,328,87124,1,0
160,200,87373,1,4
304,152,87623,1,0
304,328,87873,2,0,B|360:376|456:328|432:240,1,190,0|4
328,160,88622,5,2
328,160,88871,2,0,B|280:136|232:160,1,95
160,248,89371,2,0,B|112:272|64:248,1,95,8|0
112,144,89870,5,2
328,64,90120,1,0
400,272,90369,1,8
192,344,90619,1,0
80,272,90869,5,8
80,272,91118,2,0,B|96:208|192:224,1,95,2|0
232,136,91618,2,0,B|248:200|344:184,1,95,2|0
384,272,92117,2,0,B|448:192,1,95,2|0
144,272,92616,5,2
40,224,92866,1,8
328,72,93366,2,0,B|424:136,1,95,8|0
312,184,93865,2,0,B|232:128,1,95,8|0
216,240,94364,2,0,B|296:296,1,95,8|0
216,240,94864,5,2
312,184,95113,1,0
216,240,95363,1,12
120,184,95613,1,0
216,240,95862,1,4
216,128,96112,2,0,B|240:56|336:56|360:128,1,190
160,304,96861,6,0,B|280:304,1,95,8|0
440,192,97360,2,0,B|320:192,1,95,8|0
256,120,97860,1,8
168,192,98109,1,0
280,216,98359,2,0,B|328:296|256:360|160:320,1,190
80,304,99108,6,0,B|96:256|56:208,1,95,2|0
152,144,99607,2,0,B|136:200|176:248,1,95,2|0
256,160,100107,2,0,B|256:48,1,95,2|0
344,144,100606,5,2
344,144,100856,2,0,B|360:192|320:240,1,95,8|0
416,304,101355,2,0,B|400:248|440:200,1,95,8|0
328,264,101855,2,0,B|208:264,1,95,8|0
72,136,102354,2,0,B|208:136,1,95,8|0
128,240,102853,5,2
192,312,103103,1,0
288,312,103353,1,4
352,240,103602,1,0
272,192,103852,2,0,B|248:128|352:64|400:120,1,190,0|4
136,232,104601,5,2
160,144,104851,1,8
232,200,105100,1,0
256,112,105350,1,8
336,160,105600,1,0
256,320,105849,5,8
208,240,106099,1,0
304,232,106349,2,0,B|331:196|307:140,1,95
152,72,106848,5,0
152,72,107098,2,0,B|128:128|168:184,1,95,2|0
360,336,107597,2,0,B|360:232,1,95,2|0
256,72,108097,2,0,B|256:176,1,95,2|0
160,232,108596,5,2
48,264,108846,2,0,B|112:352,1,95,8|0
464,120,109345,2,0,B|400:32,1,95,8|0
103,43,109844,2,0,B|48:120,1,95,8|0
408,340,110344,2,0,B|464:264,1,95,8|0
136,176,110843,5,2
256,104,111093,1,0
384,176,111342,1,4
328,304,111592,1,0
184,304,111842,1,4
256,192,112091,12,0,114338
64,192,134313,6,0,B|160:192,1,95,4|0
216,96,134812,5,8
392,248,135062,1,0
168,272,135311,1,8
336,136,135561,1,0
288,320,135811,1,8
160,176,136060,1,0
264,104,136310,6,0,B|360:96|464:104,1,190,2|0
400,184,137059,1,0
400,184,137309,2,0,B|352:192|296:184,1,95,2|0
200,120,137808,2,0,B|144:112|144:112|104:144,1,95,2|0
152,240,138307,5,2
344,328,138557,1,0
448,168,138807,1,8
344,208,139057,2,0,B|312:160|344:120,1,95,2|0
317,292,139556,2,0,B|361:265|341:196,1,95,2|0
222,294,140055,2,0,B|334:294,1,95,2|0
272,128,140555,5,2
168,168,140804,2,0,B|136:120|168:72,1,95,8|0
380,78,141304,2,0,B|408:120|376:168,1,95,8|0
272,328,141803,1,0
272,328,142302,2,0,B|272:232,1,95,8|0
184,264,142802,5,2
360,200,143051,1,0
320,336,143301,1,4
456,328,143551,1,0
456,328,143800,2,0,B|496:232|456:144,1,190,2|4
376,104,144549,5,2
296,136,144799,1,0
216,104,145049,1,8
136,136,145298,2,0,B|95:224|135:320,1,190
135,320,146047,1,2
135,320,146297,1,8
216,352,146547,6,0,B|320:352,1,95
408,184,147046,2,0,B|408:280,1,95,2|0
216,104,147546,2,0,B|311:104,1,95,2|0
104,184,148045,2,0,B|104:279,1,95,2|0
256,224,148544,5,2
256,224,148794,1,8
80,144,149293,2,0,B|96:88|184:72,1,95,8|0
432,240,149793,2,0,B|416:296|328:312,1,95,8|0
256,224,150292,2,0,B|256:112,1,95,8|0
344,160,150791,5,2
256,328,151041,1,0
176,160,151291,1,4
344,224,151540,5,2
256,56,151790,1,0
176,224,152040,1,6
256,328,152289,2,0,B|248:288|256:232,1,95
392,64,152789,6,0,B|392:176,1,95,8|0
120,336,153288,2,0,B|120:232,1,95,8|0
120,336,153787,1,2
256,296,154037,1,0
216,160,154287,1,8
344,96,154537,1,0
344,96,154661,1,0
344,96,154786,1,0
280,176,155036,6,0,B|296:232|368:240,1,95,2|0
208,112,155535,2,0,B|200:48|120:32,1,95,2|0
184,200,156035,2,0,B|133:204|117:260,1,95,2|0
256,264,156534,5,2
256,264,156784,2,0,B|312:272|368:264,1,95,8|0
152,320,157283,2,0,B|144:256|152:200,1,95,8|0
208,80,157782,2,0,B|216:136|208:184,1,95,8|0
472,184,158282,2,0,B|416:192|360:184,1,95,8|0
296,144,158781,5,2
208,176,159031,1,0
96,288,159280,1,4
176,256,159530,1,0
256,304,159780,2,0,B|280:368|384:368|408:304,1,190,2|4
64,104,160529,6,0,B|80:72|128:72|143:105,2,95,2|0|0
104,192,161278,1,2
104,192,161527,1,0
192,232,161777,1,8
256,160,162027,1,0
320,232,162277,1,0
320,232,162526,1,0
408,192,162776,1,8
408,192,163026,6,0,B|408:80,1,95,2|0
80,192,163525,2,0,B|80:288,1,95,2|0
288,240,164024,2,0,B|184:240,1,95,2|0
112,56,164524,5,2
400,56,164773,1,8
48,344,165273,1,0
256,64,165772,1,8
448,344,166271,1,8
136,168,166771,5,2
184,248,167020,1,0
256,192,167270,2,0,B|368:192,2,95,4|0|4
216,104,168019,1,0
136,168,168269,1,4
256,192,168518,12,0,170266
