osu file format v7

[General]
AudioFilename: 01 Halfway Gone.mp3
AudioLeadIn: 0
PreviewTime: 80330
Countdown: 2
SampleSet: Normal
StackLeniency: 0.7
Mode: 0
LetterboxInBreaks: 1

[Editor]
Bookmarks: 8100,15780,23460,33060,40740,47210,56100,63780,71460,81060,88740,96420,104100,111780,119460,127140,134820,142500,150180,157860,165540,173220,180900,188580
DistanceSpacing: 1
BeatDivisor: 4
GridSize: 8

[Metadata]
Title:Halfway Gone
Artist:Lifehouse
Creator:Gladi
Version:Normal
Source:
Tags:American Band Smoke and Mirrors Jason Wade

[Difficulty]
HPDrainRate:4
CircleSize:4
OverallDifficulty:4
SliderMultiplier:1.4
SliderTickRate:2

[Events]
//Background and Video events
0,0,"Vector_Nature_Wallpaper_HD_high_definition_background.jpg"
//Break Periods
2,48610,54770
//Storyboard Layer 0 (Background)
//Storyboard Layer 1 (Fail)
//Storyboard Layer 2 (Pass)
//Storyboard Layer 3 (Foreground)
//Storyboard Sound Samples
//Background Colour Transformations
3,100,0,0,0

[TimingPoints]
8090,480,4,1,0,40,1,0
32820,-100,4,1,0,60,0,1
48420,-100,4,1,0,40,0,0
80820,-100,4,1,0,60,0,1
96120,-100,4,1,0,60,0,0
96180,-100,4,1,0,60,0,1
111780,-100,4,1,0,40,0,0

[Colours]
Combo1 : 183,4,251
Combo2 : 15,131,208
Combo3 : 122,46,250
Combo4 : 17,101,227

[HitObjects]
152,144,8090,1,4
288,104,8570,1,8
320,168,8810,2,0,B|360:176|408:200,1,70
416,328,9530,1,8
416,328,9770,1,0
280,360,10250,1,0
216,328,10490,2,0,B|152:280|56:328,3,140,8|0|8|4
32,184,12410,5,8
96,152,12650,2,0,B|88:112|96:64,2,70
216,232,13610,2,0,B|304:256|360:176,4,140
184,168,15770,5,4
216,104,16010,2,0,B|224:56|208:16,3,70,0|8|0|0
304,144,17210,1,8
304,144,17450,1,0
424,64,17930,1,0
456,128,18170,2,0,B|400:192|408:288,3,140,8|0|8|4
272,304,20090,1,8
256,168,20570,5,0
256,168,20810,1,0
144,248,21290,2,0,B|120:168|160:96,2,140
272,304,22730,2,0,B|352:328|424:272,1,140,0|0
432,216,23450,5,4
376,88,23930,1,8
248,136,24410,2,0,B|216:120|176:112,1,70
80,208,25130,2,0,B|72:288|128:400|288:320,1,280
336,344,26330,5,0
344,272,26570,1,0
432,176,27050,2,0,B|440:96|384:-16|224:64,1,280
184,80,28250,5,0
152,144,28490,2,0,B|144:264|256:336|368:248|336:128,2,350,0|8|0
152,144,31130,1,4
440,256,32330,5,2
384,296,32570,1,8
312,288,32810,2,2,B|256:240|168:232,1,140,6|2
80,320,33770,1,2
56,184,34250,1,2
56,184,34490,1,8
56,184,34730,2,2,B|144:160|136:64,2,140,6|2|2
168,272,36170,6,0,B|208:256|272:256,1,70,2|8
304,264,36650,2,2,B|392:272|440:224,1,140,6|2
400,96,37610,2,2,B|312:88|264:136,1,140
208,168,38330,1,8
208,168,38570,1,6
256,296,39050,1,2
320,264,39290,2,2,B|368:272|400:288,1,70,8|2
432,152,40010,5,2
368,120,40250,1,8
376,48,40490,2,0,B|392:16,2,35,2|0|4
304,40,40970,2,2,B|224:64|216:160,1,140
304,248,41930,1,2
240,280,42170,1,8
176,248,42410,2,2,B|120:200|32:216,2,140,6|2|2
168,112,43850,5,2
240,128,44090,2,2,B|272:96|328:72,1,70,8|6
424,144,44810,2,2,B|464:216|424:288,1,140
248,344,46010,1,8
184,312,46250,2,2,B|144:240|184:168,1,140,6|2
120,48,47210,6,2,B|232:16|312:144|408:64,1,280,2|0
389,77,48410,1,6
200,264,56090,5,4
168,128,56570,1,8
232,96,56810,2,0,B|272:80|320:80,1,70
408,168,57530,1,8
408,168,57770,1,0
344,288,58250,1,0
272,272,58490,2,0,B|192:256|128:304,3,140,8|0|8|4
64,176,60410,5,8
128,144,60650,2,0,B|168:128|208:128,1,70
248,176,61130,2,0,B|304:240|392:208,1,140
416,80,62090,2,0,B|360:16|272:48,1,140
160,88,63050,1,0
160,88,63290,1,8
96,208,63770,5,4
200,304,64250,2,0,B|240:312|288:328,1,70,8|0
336,296,64730,2,0,B|400:248|480:232,1,140,0|8
480,168,65450,1,0
368,88,65930,1,0
304,120,66170,2,0,B|240:88|152:80,3,140,8|0|8|4
88,192,68090,5,8
136,248,68330,2,0,B|152:288|136:336,2,70
272,224,69290,2,0,B|312:296|400:296,1,140
464,176,70250,2,0,B|424:104|336:104,1,140
208,104,71210,5,0
208,104,71450,1,4
152,232,71930,1,8
256,328,72410,2,0,B|304:312|344:312,1,70
464,336,73130,6,0,B|496:240|456:112,1,210,0|8
400,88,74090,1,0
400,88,74330,1,0
328,104,74570,2,0,B|248:128|168:64,2,140
376,160,75770,1,8
256,192,76250,12,0,79130
384,120,80330,5,2
312,112,80570,1,8
248,144,80810,2,2,B|168:176|88:112,2,140,6|2|2
344,248,82250,2,2,B|352:288|344:328,1,70,2|8
280,344,82730,1,6
152,288,83210,1,2
176,152,83690,1,2
56,80,84170,5,2
56,80,84410,1,8
56,80,84650,2,2,B|136:112|184:40,1,140,6|2
296,128,85610,2,2,B|376:96|424:168,1,140,2|2
424,232,86330,1,8
384,288,86570,2,2,B|304:320|256:248,1,140,6|2
192,272,87290,2,2,B|184:224|160:192,1,70,8|2
192,64,88010,5,2
192,64,88250,1,8
256,96,88490,2,0,B|304:80,2,35,2|0|4
256,168,88970,2,2,B|312:232|392:192,1,140
448,320,89930,2,2,B|400:304|352:304,1,70,2|8
312,312,90410,2,2,B|240:344|160:320,1,140,6|2
96,208,91370,1,2
200,112,91850,6,2,B|216:80|224:32,1,70,2|8
288,40,92330,2,2,B|336:104|424:72,1,140,6|2
472,208,93290,1,2
288,312,94010,1,8
288,312,94250,1,2
160,256,94730,2,0,B|152:208,2,35
352,160,95690,6,0,B|360:112,4,35,0|0|0|0|6
224,104,96650,2,2,B|152:80|80:128,1,140
40,256,97610,2,2,B|80:256|112:264,1,70,2|8
160,312,98090,2,2,B|232:352|312:320,1,140,6|2
384,216,99050,1,2
352,80,99530,5,2
352,80,99770,1,8
352,80,100010,2,2,B|272:56|216:128,1,140,6|2
256,256,100970,2,2,B|176:280|120:208,1,140,2|2
120,152,101690,1,8
120,152,101930,1,6
240,80,102410,6,2,B|288:88|336:104,1,70,2|8
352,152,102890,1,2
296,280,103370,5,2
296,280,103610,1,8
232,248,103850,2,0,B|224:208,2,35,2|0|4
168,280,104330,2,2,B|88:296|48:224,1,140
120,104,105290,2,2,B|160:88|208:80,1,70,2|8
256,96,105770,2,2,B|320:144|408:128,2,140,6|2|2
256,96,107210,5,2
256,96,107450,2,2,B|288:64|344:40,1,70,8|6
440,112,108170,2,2,B|480:184|440:256,1,140
264,312,109370,1,8
200,280,109610,2,2,B|160:208|200:136,1,140,6|2
120,24,110570,6,2,B|232:-8|312:120|408:40,1,280,2|0
389,53,111770,1,6
