osu file format v9

[General]
AudioFilename: Snow Black.mp3
AudioLeadIn: 0
PreviewTime: 90701
Countdown: 0
SampleSet: Soft
StackLeniency: 0.7
Mode: 0
LetterboxInBreaks: 1

[Editor]
DistanceSpacing: 0.8
BeatDivisor: 4
GridSize: 8

[Metadata]
Title:Snow Black
Artist:Lico
Creator:RinNa
Version:Insane
Source:Shoujo Byou
Tags:Reimeirorerai

[Difficulty]
HPDrainRate:7
CircleSize:5
OverallDifficulty:8
ApproachRate:8
SliderMultiplier:1.5
SliderTickRate:1

[Events]
//Background and Video events
0,0,"BG.jpg"
//Break Periods
2,39301,43151
2,81601,87551
2,134101,139151
2,164850,168251
2,194101,205151
2,207600,209951
2,215701,221951
2,267301,271751
2,282001,285551
//Storyboard Layer 0 (Background)
//Storyboard Layer 1 (Fail)
//Storyboard Layer 2 (Pass)
//Storyboard Layer 3 (Foreground)
//Storyboard Sound Samples
//Background Colour Transformations
3,100,163,162,255

[TimingPoints]
36701,300,4,2,0,100,1,0
43826,-200,4,2,0,100,0,0
47726,-100,4,2,0,100,0,0
61076,-200,4,2,0,100,0,0
67526,-100,4,2,0,100,0,0
71126,-200,4,2,0,100,0,0
76226,-100,4,2,0,100,0,0
90626,-50,4,2,0,100,0,1
93026,-100,4,2,0,100,0,1
111326,-100,4,2,0,100,0,0
172526,-100,4,2,0,100,0,1
190226,-200,4,2,0,100,0,0
205826,-100,4,2,0,100,0,0
212126,-50,4,2,0,100,0,0
213026,-100,4,2,0,100,0,0
222626,-100,4,2,0,100,0,1
231926,-100,4,2,0,100,0,0
236426,-200,4,2,0,100,0,0
245426,-100,4,2,0,100,0,1
265526,-100,4,2,0,100,0,0

[Colours]
Combo1 : 128,128,128
Combo2 : 0,0,0

[HitObjects]
104,80,36701,1,0
104,80,36851,1,0
224,104,37151,1,0
224,104,37301,2,0,B|320:104|376:192,1,150
360,288,37901,2,2,B|264:288|208:200,1,150
112,224,38501,2,0,B|40:224|40:168,2,75
112,224,38951,1,0
112,224,39101,1,4
408,56,43901,6,2,B|328:56,1,75
312,112,44501,2,2,B|392:112,1,75
416,168,45101,2,2,B|328:168,1,75
312,224,45701,2,0,B|392:224,1,75
416,224,46151,1,0
448,232,46301,2,2,B|520:288|456:368,2,150
328,264,47801,6,0,B|176:264,1,150
178,264,48251,1,0
178,264,48401,1,0
80,192,48701,2,2,B|24:112|104:24,1,150
81,52,49301,1,0
200,40,49601,2,2,B|272:144|320:128,1,150
424,120,50201,6,2,B|480:208|376:272,1,150
288,272,50801,5,0
264,216,50951,1,0
208,208,51101,1,0
160,176,51251,1,0
128,128,51401,2,0,B|80:48|0:120,2,150
176,96,52151,1,0
232,72,52301,2,0,B|312:40|400:72,2,150
256,128,53051,1,0
312,160,53201,6,2,B|392:224|344:304,1,150
232,256,53801,2,2,B|152:192|200:112,2,150
352,240,54701,2,0,B|448:200|448:112,2,150,0|0|0
352,240,55601,2,0,B|256:200|256:112,2,150
352,240,56351,1,0
352,240,56501,1,0
240,288,56801,5,0
240,288,56951,1,0
136,232,57251,2,2,B|104:208,1,37.5
152,128,57551,2,2,B|128:88,1,37.5
216,64,57851,2,4,B|224:16,1,37.5
336,72,58151,5,0
336,72,58301,2,0,B|432:112|408:224,1,150
352,296,58901,2,0,B|256:256|280:144,2,150
352,296,59651,1,0
352,296,59801,2,0,B|496:200|424:16,2,300
320,304,61151,1,0
288,304,61301,6,2,B|200:304,1,75
176,256,61901,2,2,B|264:256,1,75
288,208,62501,2,2,B|208:208,2,75
320,208,63251,1,0
352,208,63401,2,0,B|432:208,2,75
352,176,64151,1,0
344,144,64301,1,0
328,120,64451,1,0
304,96,64601,2,0,B|240:32|160:64,1,150
144,80,65351,1,0
128,104,65501,2,0,B|112:144,4,37.5
256,192,66401,12,0,67301
136,80,67601,5,0
136,80,67751,1,0
136,80,67901,2,0,B|32:192,1,150
33,189,68351,1,0
33,189,68501,2,0,B|32:296|144:296,1,150
240,280,69101,2,0,B|241:173|129:173,1,150
156,175,69551,1,0
156,175,69701,1,0
176,120,69851,5,0
232,96,70001,1,0
288,88,70151,1,0
344,104,70301,2,0,B|408:128|432:232,1,150
429,220,70751,1,0
429,220,70901,1,0
429,220,71201,6,2,B|464:248|440:288,2,75
368,232,72101,2,2,B|333:204|357:164,2,75
360,264,72851,1,0
344,288,73001,2,0,B|304:352,4,75
344,288,74501,1,0
288,272,74801,1,0
240,240,75101,1,0
192,280,75401,1,0
136,304,75701,1,0
104,64,76301,6,4,B|272:64,1,150
254,64,76751,1,0
254,64,76901,1,0
352,128,77201,5,0
352,128,77276,1,0
352,128,77351,1,0
352,128,77426,1,0
352,128,77501,2,0,B|424:200|376:296,2,150
352,128,78251,1,0
352,128,78401,2,0,B|200:128,1,150
88,168,79001,5,0
88,168,79151,1,0
88,168,79301,2,2,B|104:272|208:264,1,150
216,152,79901,2,2,B|200:48|96:56,2,150
224,208,80651,1,0
224,264,80801,2,2,B|208:368|104:360,2,150
256,192,88301,12,0,90401
80,304,90701,5,8
160,216,90851,1,0
88,120,91001,1,8
200,64,91151,1,0
320,64,91301,1,8
432,112,91451,1,0
368,216,91601,1,8
440,304,91751,1,0
320,304,91901,2,2,B|112:304|96:104,1,300
101,142,92351,1,0
184,56,92501,2,2,B|392:56|408:256,1,300
402,217,92951,1,0
402,217,93101,6,0,B|336:288|248:264,1,150
268,268,93551,1,0
268,268,93701,2,0,B|192:200|224:104,1,150
288,40,94301,2,0,B|364:108|332:204,1,150
339,173,94751,1,0
192,272,95201,5,0
192,272,95351,1,0
192,272,95501,2,0,B|96:224|112:120,1,150
120,96,95951,1,0
168,56,96101,2,2,B|248:24|344:72,1,150
314,58,96551,2,2,B|400:104|392:184,1,150
392,176,97001,2,2,B|392:280|304:328,2,150
272,200,97901,6,0,B|104:200,1,150
56,104,98501,2,0,B|216:104,1,150
264,104,98951,1,0
320,104,99101,2,0,B|408:120|416:232,1,150
413,207,99551,1,0
413,207,99701,2,0,B|432:304|344:336,4,150
413,207,101051,1,0
413,207,101201,1,0
352,208,101351,1,8
304,176,101501,1,0
256,208,101651,1,8
208,176,101801,1,0
160,208,101951,1,8
112,176,102101,2,4,B|40:104|88:16,1,150
200,48,102701,6,0,B|248:8,7,37.5
200,48,103301,6,0,B|152:88,7,37.5
200,48,103901,1,0
200,48,104051,2,0,B|312:168,1,150
344,200,104501,2,2,B|368:296|256:312,1,150
224,200,105101,2,2,B|200:104|312:88,1,150
416,88,105701,2,4,B|440:184|328:200,1,150
256,192,106301,12,0,107201
416,64,107501,6,0,B|176:64,1,225
191,64,108101,1,0
112,152,108401,2,0,B|64:224|128:288,1,150
176,256,108851,1,0
232,224,109001,2,0,B|280:296|216:360,2,150
232,224,109751,1,0
232,224,109901,1,4
256,192,110201,12,0,111101
128,72,111401,5,0
128,72,111551,1,0
128,72,111701,1,0
240,104,112001,1,0
240,104,112151,1,0
240,104,112301,2,0,B|336:136|320:248,1,150
256,320,112901,2,0,B|160:288|176:176,1,150
240,104,113501,2,0,B|336:136|320:248,1,150
256,320,114101,2,0,B|160:288|176:176,1,150
296,208,114701,5,0
296,208,114776,1,0
296,208,114851,1,0
296,208,114926,1,0
296,208,115001,1,0
336,160,115151,2,2,B|384:136,2,37.5
448,136,115601,1,0
464,160,115676,1,0
440,184,115751,1,0
464,208,115826,1,0
440,232,115901,1,0
464,256,115976,1,0
440,272,116051,2,0,B|440:352,2,75
264,272,116801,5,0
208,256,116951,1,0
160,224,117101,2,0,B|80:176|112:96,1,150
168,120,117551,1,0
216,88,117701,1,0
264,120,117851,1,0
320,88,118001,2,2,B|416:104|424:208,1,150
420,184,118451,1,0
420,184,118601,2,2,B|424:288|320:296,1,150
340,293,119051,1,0
340,293,119201,2,2,B|248:336|176:280,4,150
340,293,120551,1,0
340,293,120701,1,4
448,80,121301,6,0,B|360:80,1,75
373,80,121601,2,0,B|288:80,1,75
298,80,121901,2,0,B|208:80,1,75
223,80,122201,2,0,B|144:80,1,75
104,120,122501,1,0
104,120,122651,1,0
104,120,122801,1,0
104,120,122951,1,0
104,120,123101,2,0,B|64:192|128:280,1,150
208,184,123701,2,0,B|248:112|184:24,2,150
184,240,124451,1,0
192,296,124601,2,2,B|216:376|352:352,1,150
315,356,125051,1,0
315,356,125201,2,2,B|408:352|424:256,1,150
421,268,125651,1,0
421,268,125801,1,4
296,64,126401,5,0
240,48,126551,1,0
184,64,126701,2,0,B|104:96|104:192,2,150
208,120,127451,1,0
232,176,127601,2,0,B|312:144|312:48,2,150
232,176,128351,1,0
184,208,128501,1,8
176,264,128651,1,0
136,312,128801,1,8
80,296,128951,1,0
48,248,129101,1,8
80,128,129401,6,0,B|120:48|232:56,1,150
216,112,129851,1,0
264,152,130001,2,0,B|224:232|112:224,1,150,0|0
141,224,130451,1,0
141,224,130601,1,4
256,192,130901,12,0,133901
384,72,139901,6,2,B|416:112,1,37.5
360,176,140201,2,2,B|352:224,1,37.5
424,264,140501,2,2,B|456:304,1,37.5
360,328,140801,2,0,B|288:360|208:312,1,150
216,316,141251,1,0
216,316,141401,1,0
136,232,141701,5,0
136,232,141851,1,0
136,232,142001,1,0
136,112,142301,1,0
136,112,142451,1,0
136,112,142601,2,0,B|160:16|280:56,2,150
176,160,143351,1,0
216,208,143501,6,0,B|192:304|72:264,2,150
216,208,144251,1,0
272,208,144401,1,0
272,208,144551,1,0
328,208,144701,1,0
328,208,144851,1,0
384,208,145001,2,0,B|488:208|472:304,2,150
344,96,145901,2,2,B|264:32|200:136,1,150
136,208,146501,2,2,B|216:272|280:168,1,150
265,189,146951,1,0
265,189,147101,2,0,B|304:272|384:272,1,150
368,152,147701,2,0,B|329:69|249:69,1,150
252,69,148151,1,0
252,69,148301,1,0
144,112,148601,6,2,B|96:128,1,37.5
136,208,148901,2,2,B|96:248,1,37.5
192,272,149201,2,2,B|168:320,3,37.5
200,280,149501,2,0,B|352:280,1,150
350,280,149951,1,0
350,280,150101,2,0,B|416:280,2,37.5
350,280,150401,2,0,B|384:192|336:104,1,150
232,136,151001,2,0,B|198:224|246:312,1,150
350,280,151601,6,0,B|384:192|336:104,1,150
232,136,152201,2,0,B|198:224|246:312,1,150
232,282,152651,1,0
176,296,152801,1,0
120,280,152951,1,0
72,240,153101,2,0,B|32:160|96:80,1,150
128,136,153551,1,0
176,168,153701,2,0,B|216:88|152:8,2,150
216,216,154451,1,0
248,264,154601,2,2,B|320:320|408:288,1,150
408,176,155201,2,2,B|336:120|248:152,1,150
168,72,155801,6,2,B|112:40,1,37.5
120,144,156101,2,2,B|72:160,1,37.5
128,240,156401,2,2,B|112:272,1,37.5
200,304,156701,2,0,B|280:336|376:304,2,150
240,192,157601,1,0
200,304,157901,1,0
240,192,158201,1,0
200,304,158501,2,0,B|160:296,3,37.5
200,304,158801,2,0,B|208:352,3,37.5
200,304,159101,2,4,B|336:216,1,150
304,104,159701,5,0
280,96,159776,1,0
248,88,159851,1,0
216,88,159926,1,0
184,96,160001,2,0,B|104:112|112:216,1,150
232,192,160601,2,0,B|312:208|304:312,1,150
360,288,161051,1,0
416,264,161201,2,2,B|480:192|416:96,1,150
352,32,161801,2,2,B|288:104|352:200,1,150
416,264,162401,2,2,B|480:192|416:96,1,150
352,32,163001,2,2,B|288:104|352:200,1,150
256,264,163601,6,0,B|200:328,1,75
256,264,163901,2,0,B|320:192,1,75
256,264,164201,2,0,B|336:328,1,75
256,264,164501,2,4,B|192:208,1,75
208,64,169001,5,0
208,64,169151,1,0
208,64,169301,2,4,B|160:88,1,37.5
128,160,169601,2,0,B|96:256|168:320,1,150
240,224,170201,2,0,B|272:320|200:384,1,150
128,160,170801,2,0,B|96:256|168:320,1,150
240,224,171401,2,0,B|272:320|200:384,2,150
240,224,172151,1,0
240,224,172301,1,0
352,192,172601,5,0
352,192,172751,1,0
376,136,172901,1,0
376,136,173051,1,0
344,80,173201,1,0
344,80,173351,2,0,B|264:32|192:72,1,150
201,67,173801,1,0
144,80,173951,1,0
152,136,174101,1,0
96,144,174251,1,0
96,200,174401,2,2,B|88:304|184:328,1,150
280,344,175001,2,2,B|288:240|192:216,1,150
213,222,175451,1,0
213,222,175601,1,0
224,104,175901,6,0,B|384:104,1,150
374,104,176351,1,0
408,152,176501,2,0,B|256:152,1,150
258,152,176951,2,0,B|192:152,4,37.5
258,152,177401,2,0,B|264:256|336:280,1,150
216,328,178001,1,0
168,296,178151,1,0
136,248,178301,1,0
96,136,178601,1,0
96,136,178751,1,0
96,136,178901,2,0,B|120:40|232:72,1,150
209,66,179351,1,0
216,128,179501,6,0,B|200:184,3,37.5
240,168,179801,2,0,B|248:208,3,37.5
280,200,180101,2,0,B|312:232,3,37.5
328,208,180401,2,0,B|376:224,3,37.5
376,192,180701,2,0,B|440:136|432:40,1,150
320,88,181301,2,0,B|256:144|264:240,1,150
263,221,181751,1,0
263,221,181901,1,4
256,192,182201,12,0,183401
120,64,183701,5,0
96,120,183851,1,0
112,176,184001,1,0
152,216,184151,1,0
208,248,184301,2,2,B|312:280|376:256,1,150
440,176,184901,2,2,B|336:144|272:168,1,150
292,162,185351,1,0
292,162,185501,1,0
292,162,185651,1,0
292,162,185801,1,0
216,72,186101,5,0
216,72,186251,1,0
216,72,186401,2,0,B|112:72,1,75
141,72,186701,2,0,B|56:72,1,75
64,128,187001,2,0,B|160:128,1,75
139,128,187301,2,0,B|224:128,1,75
214,128,187601,2,0,B|296:128,2,75
448,312,188651,5,0
448,312,188801,1,0
448,312,188951,1,0
448,312,189101,2,0,B|464:216|352:192,1,150
375,198,189551,2,0,B|280:168|224:224,1,150
144,240,190301,2,2,B|72:200,1,75
78,203,190751,2,2,B|80:120,1,75
79,128,191201,2,4,B|112:96,1,37.5
256,192,191651,12,0,192551
400,88,193001,6,2,B|320:88,1,75
325,88,193451,2,2,B|248:88,1,75
250,88,193901,1,4
304,56,205901,6,0,B|384:104,1,75
328,136,206201,2,0,B|392:176,1,75
344,216,206501,2,0,B|416:264,1,75
406,257,206801,2,2,B|464:296,3,37.5
406,257,207101,2,4,B|264:368,1,150
256,192,210701,12,0,211901
256,32,212201,5,8
184,128,212351,1,8
256,224,212501,1,8
328,128,212651,1,8
256,32,212801,1,4
256,192,213101,12,0,215501
184,32,222701,6,0,B|224:56,3,37.5
216,51,223001,2,0,B|248:96,3,37.5
237,81,223301,2,0,B|232:136,3,37.5
233,119,223601,2,0,B|240:168,3,37.5
238,156,223901,2,2,B|280:240|200:320,1,150
128,216,224501,2,2,B|86:132|166:52,2,150
136,216,225251,2,0,B|176:256,3,37.5
162,242,225551,2,0,B|208:264,3,37.5
196,258,225851,2,0,B|240:256,3,37.5
233,256,226151,2,0,B|296:224,1,37.5
267,239,226301,2,2,B|320:184|304:88,1,150
216,16,226901,2,2,B|163:71|179:167,1,150
232,136,227351,1,0
288,112,227501,2,0,B|376:112|408:192,1,150
432,304,228101,2,0,B|344:304|312:224,1,150
313,228,228551,6,0,B|256:272,3,37.5
283,250,228851,2,0,B|248:264,3,37.5
248,263,229151,2,0,B|200:264,3,37.5
211,263,229451,2,2,B|128:256|96:168,1,150
99,176,229901,2,0,B|96:112,3,37.5
97,138,230201,2,0,B|120:96,3,37.5
114,105,230501,2,0,B|168:88,3,37.5
150,93,230801,2,0,B|200:104,3,37.5
187,101,231101,2,4,B|240:224|328:264|440:240,1,300
416,120,232001,5,0
416,120,232151,1,0
416,120,232301,2,0,B|248:120,1,150
266,120,232751,2,0,B|96:120,1,150
116,120,233201,1,0
116,120,233351,1,0
116,120,233501,2,0,B|56:208|128:280,1,150
208,192,234101,2,0,B|268:104|196:32,2,150
208,192,234851,1,0
208,192,235001,2,0,B|148:280|220:352,2,150
208,192,235751,1,0
264,216,235901,1,8
320,192,236051,1,0
376,216,236201,1,8
432,184,236501,5,8
448,128,236801,1,0
416,80,237101,1,8
360,104,237401,1,0
312,64,237701,1,8
264,96,238001,1,0
216,64,238301,6,2,B|176:48|144:80,1,75
128,136,238901,2,2,B|168:152|200:120,1,75
216,64,239501,2,2,B|176:48|144:80,1,75
128,136,240101,2,4,B|168:152|200:120,1,75
248,152,240701,1,0
288,192,241001,1,0
320,240,241301,1,0
304,296,241601,2,0,B|280:336,1,37.5
284,328,241901,2,0,B|240:344,1,37.5
249,340,242201,2,0,B|200:328,1,37.5
213,331,242501,2,0,B|176:304,1,37.5
182,309,242801,2,0,B|160:264,1,37.5
165,275,243101,2,0,B|168:232,1,37.5
167,238,243401,2,0,B|184:192,1,37.5
179,202,243701,2,2,B|216:128|312:120,1,150
256,56,245501,6,2,B|176:112,1,75
256,56,245801,2,2,B|320:104,1,75
256,120,246101,2,2,B|176:176,1,75
256,120,246401,2,2,B|320:168,1,75
256,184,246701,2,2,B|176:240,1,75
256,184,247001,2,2,B|320:232,1,75
256,248,247301,2,2,B|176:304,1,75
256,248,247601,2,2,B|320:296,1,75
256,248,247901,5,0
152,192,248201,1,0
256,128,248501,1,0
360,192,248801,1,0
408,80,249101,6,0,B|344:16|240:40,1,150
168,88,249701,2,0,B|232:152|336:128,1,150
416,184,250301,2,0,B|456:272|376:336,1,150
304,240,250901,2,0,B|264:152|344:88,1,150
216,64,251501,1,0
216,64,251576,1,0
216,64,251651,1,0
216,64,251726,1,0
216,64,251801,2,0,B|120:64,2,75
216,64,252251,2,0,B|312:64,2,75
216,64,252701,1,4
456,336,253601,5,0
400,320,253751,1,0
360,280,253901,1,0
384,160,254201,1,0
352,112,254351,1,0
304,80,254501,2,0,B|240:24|160:80,1,150
166,75,254951,1,0
168,136,255101,2,0,B|232:192|312:136,1,150
328,192,255551,1,0
312,248,255701,1,0
264,288,255851,1,0
208,312,256001,2,2,B|56:312,2,150
208,312,256751,2,4,B|360:312,2,150
104,168,257801,5,0
104,168,257951,1,0
104,168,258101,1,0
192,88,258401,1,0
192,88,258551,1,0
192,88,258701,2,0,B|352:88,1,150
440,152,259301,2,0,B|280:152,1,150
192,216,259901,2,0,B|352:216,1,150
342,216,260351,1,0
342,216,260501,1,0
312,104,260801,6,2,B|216:104,1,75
312,104,261101,2,2,B|312:16,1,75
312,104,261401,2,2,B|400:104,1,75
312,104,261701,2,2,B|312:184,1,75
312,179,262001,1,0
224,264,262301,1,0
104,240,262601,2,0,B|56:208,3,37.5
72,219,262901,2,0,B|56:168,3,37.5
61,183,263201,2,0,B|72:104|160:64,1,150
272,72,263801,2,0,B|261:151|173:191,1,150
61,183,264401,2,0,B|72:104|160:64,1,150
272,72,265001,2,0,B|261:151|173:191,1,150
256,288,265601,5,0
256,288,265751,1,0
360,232,266051,1,8
360,232,266201,1,0
392,184,266351,1,8
392,184,266501,1,0
400,128,266651,1,8
400,128,266801,1,0
400,72,266951,1,8
400,72,267101,1,0
88,80,272501,6,2,B|56:152|88:232,1,150
184,160,273101,2,2,B|216:232|184:312,1,150
280,232,273701,6,2,B|248:160|280:80,1,150
376,160,274301,2,2,B|408:88|376:8,2,150
376,160,275201,2,4,B|344:232|376:312,2,150
376,160,275951,1,0
344,112,276101,1,8
288,120,276251,1,0
248,72,276401,1,8
192,88,276551,1,0
152,136,276701,2,4,B|112:208|168:304,1,150
155,280,277151,5,0
208,256,277301,1,0
256,288,277451,1,0
304,256,277601,1,0
336,256,277676,1,0
368,256,277751,1,0
400,256,277826,1,0
432,256,277901,2,0,B|480:232,3,37.5
465,239,278201,2,0,B|488:192,3,37.5
481,205,278501,2,0,B|464:160,3,37.5
468,170,278801,2,0,B|480:112,3,37.5
475,133,279101,2,2,B|440:64|320:64,1,150
349,65,279551,1,0
288,56,279701,1,8
264,112,279851,1,0
208,104,280001,1,8
184,160,280151,1,0
128,168,280301,6,4,B|64:208|96:320,1,150
192,232,280901,2,4,B|256:192|224:80,2,150
192,232,281651,1,0
192,232,281801,1,4
112,72,286301,6,2,B|272:72,1,150
344,160,286901,2,2,B|160:160,1,150
104,240,287501,1,0
200,304,287801,1,0
320,304,288101,1,0
424,240,288401,1,0
424,240,288701,1,0
320,304,289001,1,0
200,304,289301,1,0
104,240,289601,1,0
104,240,289676,1,0
104,240,289751,1,0
104,240,289826,1,0
104,240,289901,2,0,B|104:136,2,75
256,192,290501,12,0,291401
256,184,291701,5,0
256,184,291851,1,0
256,184,292001,1,4
256,192,292301,12,0,294701
