osu file format v9

[General]
AudioFilename: Dolls_Garden.mp3
AudioLeadIn: 0
PreviewTime: 73760
Countdown: 0
SampleSet: Soft
StackLeniency: 0.7
Mode: 0
LetterboxInBreaks: 1

[Editor]
DistanceSpacing: 0.5
BeatDivisor: 4
GridSize: 4

[Metadata]
Title:Dolls Garden
Artist:Liberatus
Creator:soulfear
Version:Hyper
Source:EZ2DJ
Tags:Deen TTTTTTTTTTTT H-Boy

[Difficulty]
HPDrainRate:6
CircleSize:4
OverallDifficulty:7
ApproachRate:8
SliderMultiplier:1.8
SliderTickRate:1

[Events]
//Background and Video events
0,0,"Dolls_Garden.jpg"
//Break Periods
//Storyboard Layer 0 (Background)
//Storyboard Layer 1 (Fail)
//Storyboard Layer 2 (Pass)
//Storyboard Layer 3 (Foreground)
//Storyboard Sound Samples
//Background Colour Transformations
3,100,163,162,255

[TimingPoints]
260,375,4,2,1,0,1,0
1760,-100,4,2,1,90,0,0
8510,-200,4,1,1,60,0,0
8978,-100,4,1,1,65,0,0
9541,-100,4,1,1,60,0,0
9728,-100,4,1,1,50,0,0
9916,-100,4,1,1,40,0,0
10103,-100,4,1,1,40,0,0
10291,-100,4,1,1,65,0,0
10478,-100,4,1,1,50,0,0
10666,-100,4,2,1,80,0,0
17322,-100,4,1,1,55,0,0
18635,-100,4,2,1,80,0,0
28291,-200,4,2,1,80,0,0
28853,-100,4,2,1,80,0,0
37760,-200,4,2,1,80,0,0
38135,-100,4,2,1,90,0,0
39541,-200,4,2,1,90,0,0
41603,-100,4,2,1,90,0,0
42166,-200,4,2,1,90,0,0
43103,-100,4,2,1,90,0,0
43666,-200,4,2,1,90,0,0
44135,-100,4,2,1,90,0,0
50041,-100,4,2,1,90,0,0
51072,-100,4,2,1,55,0,0
54541,-100,4,2,1,80,0,0
55713,-100,4,2,1,75,0,0
63447,-100,4,1,1,55,0,0
64853,-100,4,2,1,80,0,0
73572,-100,4,2,1,80,0,0
91713,-100,4,2,1,70,0,0
92041,-100,4,2,1,50,0,0
93166,-100,4,2,1,30,0,0
94291,-100,4,2,1,0,0,0
94385,-688.333333333333,4,2,1,0,0,0

[Colours]
Combo1 : 255,128,255
Combo2 : 128,255,255
Combo3 : 255,255,255
Combo4 : 255,255,128

[HitObjects]
360,80,1760,5,0
348,164,1947,1,0
268,120,2135,2,0,B|196:68|92:108,1,180,2|2
232,224,2885,5,0
264,308,3072,1,0
320,248,3260,2,0,B|392:196|496:236,1,180,2|2
491,234,3822,2,0,B|492:168|492:168,2,45,0|0|2
320,248,4197,5,0
256,184,4385,1,2
192,248,4572,1,2
328,184,4760,1,0
184,184,4947,1,0
256,296,5135,2,0,B|256:112|256:112|276:104,1,180,2|0
332,68,5697,1,0
408,116,5885,1,2
328,184,6072,1,2
328,184,6260,6,0,B|244:120|156:168,1,180,0|2
159,166,7010,1,2
332,68,7385,1,0
160,168,7572,1,0
160,168,7760,2,0,B|244:104|332:152,1,180,2|2
342,160,8228,1,0
357,169,8322,1,0
373,175,8416,1,0
390,180,8510,6,0,B|437:201|478:175,1,90
424,60,9072,1,0
424,60,9166,1,0
424,60,9260,1,0
342,216,9447,1,0
284,60,9635,1,0
174,122,9822,1,0
257,191,10010,1,0
179,236,10197,1,0
240,273,10385,1,0
311,192,10572,1,0
412,88,10760,6,0,B|452:184|436:276,1,180,4|2
412,88,11322,1,0
437,263,11510,1,2
100,88,11885,6,0,B|60:184|76:276,1,180,2|2
100,88,12447,1,2
74,263,12635,1,2
74,263,12728,1,0
74,263,12822,1,0
164,264,13010,5,2
252,264,13197,1,0
238,146,13385,1,2
282,222,13572,1,2
360,135,13760,1,0
329,217,13947,1,0
282,222,14135,1,2
282,222,14510,5,0
282,222,14603,1,0
282,222,14697,1,2
192,300,14885,1,2
282,222,15072,1,2
192,300,15260,6,0,B|144:216|48:200,1,180,4|2
49,200,16010,1,2
128,152,16385,2,0,B|200:208|312:164,1,180,2|2
299,168,17135,1,2
344,116,17510,5,0
400,184,17697,1,0
352,280,17885,1,0
224,288,18072,1,0
180,288,18166,1,0
136,288,18260,1,0
180,88,18447,1,0
192,216,18635,5,2
212,216,18728,1,0
236,212,18822,1,0
256,204,18916,1,0
276,192,19010,1,2
292,176,19103,1,0
304,164,19197,1,0
320,156,19291,1,0
336,144,19385,2,0,B|396:128|432:148,1,90,2|0
185,116,19760,5,4
176,296,19947,1,0
340,220,20135,1,2
212,160,20322,1,0
204,256,20510,1,0
288,220,20697,1,2
236,208,20885,5,2
236,208,21072,1,0
236,208,21166,1,0
236,208,21260,1,2
184,116,21447,5,0
176,296,21635,1,0
340,220,21822,1,2
340,220,22197,1,0
360,132,22385,1,2
340,220,22572,1,0
356,308,22760,6,0,B|272:272|272:272,1,90,0|2
360,132,23135,2,0,B|276:168|276:168,1,90
208,224,23510,2,0,B|268:224,2,45
116,224,23885,2,0,B|172:224|172:224,4,45,0|0|0|0|4
208,224,24447,1,0
208,132,24635,1,2
120,152,24822,1,0
148,64,25010,1,0
208,132,25197,1,2
244,48,25385,6,0,B|300:80|304:136,1,90
292,204,25760,2,0,B|320:160|380:152,1,90,2|0
364,64,26135,2,0,B|328:100|340:164,1,90,0|2
260,100,26510,1,0
172,100,26697,1,0
220,176,26885,1,2
220,192,26978,1,0
220,208,27072,1,0
220,228,27166,1,0
220,248,27260,1,2
220,248,27447,1,0
148,312,27635,6,2,B|200:300|236:336,1,90
364,72,28010,2,2,B|308:80|276:48,1,90
192,260,28385,2,2,B|224:296|272:300|272:300,1,90
428,280,28947,6,0,B|360:340|360:340,1,90,0|2
360,248,29322,2,0,B|432:180|432:180,1,90,2|0
336,176,29697,2,0,B|268:236|268:236,1,90
268,144,30072,1,2
304,120,30166,1,0
344,96,30260,1,0
268,52,30447,2,2,B|192:120|88:112,2,180
84,280,31385,6,0,B|152:340|152:340,1,90,2|0
152,244,31760,2,0,B|80:176|80:176,1,90,2|0
176,168,32135,2,0,B|244:228|244:228,1,90,0|0
244,136,32510,2,0,B|172:72|172:72,1,90,2|0
264,52,32885,1,2
308,60,32978,1,0
340,92,33072,1,0
352,136,33166,1,0
356,176,33260,5,0
320,256,33447,1,0
276,336,33635,1,2
320,256,33822,1,0
260,188,34010,2,0,B|352:188|352:188,1,90,0|2
316,104,34385,2,0,B|404:104|404:104,1,90
316,104,34760,1,2
196,104,34947,2,0,B|108:104|108:104,2,90,0|0|2
256,292,35510,5,0
256,184,35697,1,0
256,92,35885,2,0,B|256:48|256:48,2,45
256,200,36260,1,2
256,308,36447,1,2
364,288,36635,5,2
356,272,36728,1,0
348,256,36822,1,2
344,240,36916,1,0
340,224,37010,1,2
340,208,37103,1,0
336,192,37197,1,2
332,176,37291,1,0
320,164,37385,1,2
304,160,37478,1,0
284,160,37572,1,2
268,168,37666,1,0
252,176,37760,6,0,B|188:184|172:144|168:144,1,90,4|2
171,147,38510,1,2
172,220,38885,1,0
172,292,39260,1,2
264,192,39635,2,0,B|292:160|348:160|344:160,2,90,2|0|2
344,212,40760,2,0,B|296:192|284:144,2,90,2|0|2
344,212,41885,1,2
276,164,42260,6,0,B|192:128|192:128|116:180|116:180,1,180,0|0
112,260,43385,1,2
284,116,43760,6,0,B|200:80|200:80|124:132|124:132,1,180,0|0
112,292,44885,1,2
284,116,45260,1,0
168,232,45635,1,0
192,116,46010,5,2
168,232,46197,1,2
284,208,46385,1,0
300,212,46478,1,0
316,216,46572,1,0
332,220,46666,1,0
348,224,46760,1,4
416,244,47135,1,2
416,244,47510,1,2
344,136,47885,5,0
316,112,48072,1,0
288,92,48260,1,2
260,72,48447,1,0
224,92,48635,1,2
196,112,48822,1,2
168,136,49010,5,4
344,136,49385,1,2
168,136,49760,1,2
256,188,49947,1,0
256,188,50135,2,0,B|256:368|256:368,2,180,0|2|2
408,92,51260,6,0,B|372:132|328:120,1,90,0|2
327,119,51635,1,4
327,119,51728,1,0
327,119,51822,1,2
104,92,52010,6,0,B|140:132|184:120,1,90,0|2
184,119,52385,1,0
184,119,52478,1,0
184,119,52572,1,2
256,232,52760,5,4
327,119,52947,1,0
184,119,53135,1,0
256,232,53322,1,0
256,232,53510,6,0,B|256:336,1,90
348,192,53885,2,0,B|396:112,1,90,4|0
164,192,54260,2,0,B|116:112,1,90
257,305,54635,1,2
243,293,54728,1,0
237,275,54822,1,0
240,257,54916,1,0
250,242,55010,1,2
261,228,55103,1,0
257,210,55197,1,0
247,194,55291,1,0
236,186,55385,1,2
248,172,55478,1,0
262,162,55572,1,0
277,151,55666,1,0
292,141,55760,6,0,B|345:98|397:91|465:132,1,180,4|2
458,129,56510,1,2
301,211,56885,1,0
289,295,57072,1,0
209,251,57260,2,0,B|137:199|33:239,1,180,2|2
37,237,57822,1,0
37,237,57916,1,0
37,237,58010,1,2
56,148,58197,1,0
140,176,58385,1,2
224,144,58572,1,2
308,180,58760,1,0
388,144,58947,1,0
472,176,59135,1,2
296,248,59510,6,0,B|296:140|296:140,1,90,2|0
216,158,59885,2,2,B|216:140|216:248,1,90
160,88,60260,1,0
256,64,60447,1,0
352,88,60635,1,2
256,240,61010,5,2
240,228,61103,1,0
216,224,61197,1,0
196,236,61291,1,0
188,256,61385,1,0
244,324,61572,1,0
324,284,61760,1,2
412,268,61947,1,0
432,260,62041,1,0
444,240,62135,1,2
440,216,62228,1,0
428,200,62322,1,2
364,136,62510,6,0,B|328:88|280:88,1,90
148,136,62885,2,2,B|184:88|232:88,1,90
256,172,63260,2,0,B|256:352,1,180,0|4
148,136,63822,1,4
364,136,64010,1,4
300,64,64197,1,0
256,64,64291,1,0
212,64,64385,1,0
256,140,64572,1,0
256,140,64666,1,0
256,140,64760,6,0,B|216:224,1,90
292,268,65135,2,0,B|384:268,1,90,2|0
404,180,65510,2,2,B|388:112|344:68|288:52,2,180,2|0|2
404,180,66635,1,2
328,224,66822,1,0
240,216,67010,5,2
240,216,67197,1,0
156,188,67385,1,2
156,188,67572,1,0
116,108,67760,1,2
116,108,67947,1,2
168,32,68135,2,0,B|356:32,1,180,0|2
388,108,68885,5,2
256,228,69260,1,0
324,164,69447,1,0
388,108,69635,1,2
292,80,69822,1,0
260,76,69916,1,0
232,88,70010,1,0
204,100,70103,1,0
184,124,70197,1,0
176,156,70291,1,0
180,188,70385,5,0
236,256,70572,2,0,B|328:200|328:200,1,90,0|2
372,276,70947,2,0,B|280:328|280:328,1,90,0|2
256,192,71510,12,4,73385
96,120,73760,5,0
184,120,73947,1,0
136,196,74135,2,2,B|152:252|172:296|216:308|268:316,1,180
254,313,74697,1,0
340,280,74885,1,0
396,196,75072,1,0
348,120,75260,1,2
264,88,75447,1,0
180,116,75635,1,2
136,192,75822,1,2
228,196,76010,6,0,B|408:296|408:292,1,180,0|2
386,282,76572,1,2
384,104,76947,2,0,B|336:192,1,90,2|0
340,183,77322,1,2
284,116,77510,2,0,B|236:204,1,90
240,195,77885,1,2
180,128,78072,1,2
180,128,78166,1,2
180,128,78260,5,4
84,144,78447,1,0
116,228,78635,1,2
172,160,78822,2,2,B|232:104|272:100|320:96|340:96,1,180
335,96,79385,1,0
364,180,79572,1,0
396,264,79760,1,2
420,352,79947,1,2
336,324,80135,2,2,B|304:276|184:272|160:304|156:304,1,180,2|2
132,268,80603,6,0,B|88:240,1,45,0|2
64,208,80791,2,0,B|49:156,1,45,0|2
72,124,80978,2,0,B|97:83,3,45,0|2|0|2
168,32,81447,1,2
164,124,81635,5,4
252,108,81822,1,2
188,216,82010,5,4
300,160,82197,1,2
236,268,82385,5,4
348,212,82572,1,2
284,320,82760,5,4
120,248,83135,1,2
120,248,83322,1,2
256,132,83697,1,2
348,132,83885,1,0
436,132,84072,1,0
436,132,84260,1,2
396,212,84447,1,2
348,288,84635,1,0
304,212,84822,5,2
156,108,85197,1,0
116,188,85385,1,2
76,268,85572,1,2
432,192,85947,1,0
432,192,86135,1,2
344,188,86322,1,2
288,116,86510,1,0
232,188,86697,1,0
180,116,86885,1,2
120,184,87072,1,2
28,184,87260,6,0,B|168:56,1,180,4|0
160,62,87822,1,0
260,60,88010,1,0
351,62,88197,1,0
351,62,88385,6,0,B|484:184,1,180,4|0
484,184,88947,1,0
412,240,89135,1,0
336,288,89322,1,0
256,332,89510,5,2
248,316,89603,1,0
240,300,89697,1,2
236,284,89791,1,0
240,268,89885,1,2
244,252,89978,1,0
252,236,90072,1,2
264,224,90166,1,0
276,212,90260,1,2
276,196,90353,1,0
272,180,90447,1,2
260,168,90541,1,0
248,156,90635,6,0,B|212:108|260:64,1,90,4|0
160,232,91010,2,0,B|124:184|172:140,1,90,2|0
76,308,91385,2,0,B|40:260|88:216,1,90,2|0
148,48,91760,5,0
84,108,91947,1,0
172,132,92135,2,0,B|264:160|360:136,1,180
428,300,92885,5,0
384,220,93072,1,0
320,284,93260,2,0,B|234:305|142:277,1,180
140,96,94010,1,0
212,40,94197,1,0
212,40,94385,2,0,B|272:40,1,61.0169502797152
