osu file format v5

[General]
AudioFilename: Lia-Will.mp3
AudioLeadIn: 0
PreviewTime: -1
Countdown: 1
SampleSet: Normal
StackLeniency: 0.7
Mode: 0
LetterboxInBreaks: 1
EditorBookmarks: 15522

[Metadata]
Title:Will
Artist:Lia
Creator:kioukiou
Version:Hard
Source:
Tags:

[Difficulty]
HPDrainRate:7
CircleSize:5
OverallDifficulty:7
SliderMultiplier:1.4
SliderTickRate:2

[Events]
//Background and Video events
0,0,"Lia-Will.jpg"
//Break Periods
//Storyboard Layer 0 (Background)
//Storyboard Layer 1 (Failing)
//Storyboard Layer 2 (Passing)
//Storyboard Layer 3 (Foreground)
//Storyboard Sound Samples
//Background Colour Transformations
3,100,163,162,255

[TimingPoints]
7903,476.190476190476,4,1,1,74,1
30760,-200,4,1,1,74,0
31236,-200,4,2,2,74,0
31712,-100,4,1,1,74,0
56474,-200,4,1,1,74,0
56950,-200,4,2,2,74,0
57426,-100,4,1,1,74,0
59093,-200,4,1,1,74,0
60998,-100,4,1,1,74,0
61236,-200,4,1,1,74,0
61712,-200,4,2,2,74,0
62188,-100,4,1,1,74,0
65045,-200,4,1,1,74,0
65522,-200,4,2,2,74,0
65998,-100,4,1,1,74,0
70760,-200,4,1,1,74,0
71236,-200,4,2,2,74,0
71712,-100,4,1,1,74,0
72664,-200,4,1,1,74,0
73141,-200,4,2,2,74,0
73617,-100,4,1,1,74,0
76474,-200,4,1,1,74,0
76950,-200,4,2,2,74,0
77426,-100,4,1,1,74,0
80283,-200,4,1,1,74,0
80760,-100,4,2,2,74,0
81236,-100,4,1,1,74,0
85998,-200,4,1,1,74,0
86474,-200,4,2,2,74,0
86950,-100,4,1,1,74,0
87902,-200,4,1,1,74,0
88379,-200,4,2,2,74,0
88855,-100,4,1,1,74,0
91712,-200,4,1,2,74,0
92188,-200,4,1,2,100,0
92664,-200,4,1,2,74,0
93141,-200,4,1,2,100,0
93617,-100,4,1,1,74,0
101236,-200,4,1,2,74,0
101712,-200,4,1,2,100,0
102188,-200,4,1,2,74,0
102664,-200,4,1,2,100,0
103141,-100,4,1,1,74,0
106950,-200,4,1,2,74,0
107426,-200,4,1,2,100,0
107902,-100,4,1,1,74,0
108855,-200,4,1,2,74,0
109331,-200,4,1,2,100,0
109807,-100,4,1,1,74,0
110760,-200,4,1,2,74,0
111236,-200,4,1,2,100,0
111712,-100,4,1,1,74,0
115760,-100,4,1,2,74,0
115998,-100,4,1,2,100,0
116474,-200,4,1,2,74,0
116950,-200,4,1,2,100,0
117426,-200,4,1,2,74,0
117902,-200,4,1,2,100,0
118378,-100,4,1,1,74,0
122188,-200,4,1,2,74,0
122664,-200,4,1,2,100,0
123141,-200,4,1,2,74,0
123617,-200,4,1,2,100,0
124093,-100,4,1,1,74,0
125045,-200,4,1,2,74,0
125522,-200,4,1,2,100,0
125998,-200,4,1,2,74,0
126474,-200,4,1,2,100,0
126950,-100,4,1,1,74,0
127426,-200,4,1,1,74,0
127902,-200,4,2,2,74,0
128379,-200,4,1,1,74,0
128855,-200,4,2,2,74,0
129331,-100,4,1,1,74,0
129807,-200,4,1,2,74,0
130283,-200,4,1,2,100,0
130760,-100,4,1,1,74,0
131712,-200,4,1,2,74,0
132188,-200,4,1,2,100,0
132664,-200,4,1,2,74,0
133141,-200,4,1,2,100,0
133617,-100,4,1,1,74,0
135522,-200,4,1,2,74,0
135998,-200,4,1,2,100,0
136474,-200,4,1,2,74,0
136950,-200,4,1,2,100,0
137426,-100,4,1,1,74,0
142188,-200,4,1,2,74,0
142664,-200,4,1,2,100,0
143141,-200,4,1,2,74,0
143617,-200,4,1,2,100,0
144093,-100,4,1,1,74,0
152545,-100,4,2,1,74,0
158379,-200,4,2,1,74,0
158855,-100,4,2,1,74,0

[Colours]
Combo1 : 255,0,255
Combo2 : 128,0,255
Combo3 : 5,5,240
Combo4 : 240,5,5

[HitObjects]
112,104,15522,1,0
104,232,15998,2,0,B|160:304|224:224,2,140
104,168,17188,1,0
104,168,17426,2,0,B|264:168,1,140
304,168,18141,1,0
304,104,18379,1,0
432,104,18855,5,0
432,168,19093,1,0
368,168,19331,1,0
280,256,19807,1,0
280,256,20045,2,0,B|192:256,2,70
344,256,20760,5,0
344,192,20998,2,0,B|344:96,2,70
280,192,21712,2,0,B|112:192,1,140
144,128,22426,1,0
80,128,22664,1,0
80,192,22902,1,0
80,256,23141,6,0,B|152:344|192:248,2,140
80,192,24331,1,0
80,192,24450,1,0
80,192,24569,1,0
80,128,24807,2,0,B|152:56|208:152,1,140
192,200,25522,1,0
192,264,25760,1,0
256,264,25998,1,0
256,136,26474,6,0,L|256:64|336:64,2,140
320,136,27664,1,0
320,200,27902,2,0,L|320:344,1,140
256,344,28617,1,0
256,344,28736,1,0
256,344,28855,1,0
192,344,29093,1,0
128,344,29331,2,0,B|48:344|48:224,2,140
136,216,30760,6,0,B|136:128|256:128,1,140
288,128,31950,1,0
288,128,32069,1,0
288,128,32188,1,0
288,192,32426,1,0
288,256,32664,2,0,B|352:320|432:256,2,140
224,256,33855,1,0
224,256,33974,1,0
224,256,34093,1,0
160,256,34331,1,0
96,256,34569,2,0,B|16:256|16:128,2,140
96,192,35760,5,0
96,192,35879,1,0
96,192,35998,1,0
96,128,36236,1,0
96,128,36474,2,0,B|168:48|216:152,1,140
208,200,37188,1,0
208,264,37426,2,0,B|272:328|336:264,1,140
336,208,38141,1,0
336,208,38379,1,0
336,208,38617,1,0
272,208,38855,6,0,B|272:64,1,140
208,72,39569,1,0
208,72,39688,1,0
208,72,39807,2,0,L|136:72|136:160,1,140
72,144,40522,1,0
72,208,40760,1,0
72,272,40998,1,0
72,272,41117,1,0
72,272,41236,1,0
136,272,41474,5,0
136,272,41712,2,0,B|232:272,2,70
136,208,42426,1,0
136,144,42664,1,0
200,144,42902,2,0,B|200:88,2,35
200,208,43379,5,0
264,208,43617,2,0,B|320:152,1,70
344,216,44093,2,0,B|400:160,2,70
344,280,44807,1,0
216,280,45283,1,0
152,280,45522,1,0
152,280,45641,1,0
152,280,45760,1,0
88,280,45998,1,0
88,152,46474,5,0
128,104,46712,1,0
168,56,46950,1,0
176,184,47426,1,0
216,136,47664,1,0
248,80,47902,1,0
272,200,48379,2,0,B|368:80,1,140
480,120,49331,2,0,B|392:240,1,140
336,232,50045,1,0
336,232,50164,1,0
336,232,50283,1,0
272,232,50522,1,0
272,232,50760,1,0
144,232,51236,6,0,B|72:232|72:104,1,140
136,128,51950,1,0
200,128,52188,2,0,B|200:24|312:24,2,140,0|0|0
200,256,53617,1,0
264,256,53855,1,0
264,256,53974,1,0
264,256,54093,1,0
328,256,54331,1,0
328,192,54569,6,0,B|376:120|320:40,1,140
272,64,55283,1,0
208,64,55522,2,0,B|144:128|208:208,1,140
200,256,56236,1,0
200,256,56355,1,0
200,256,56474,2,0,B|200:336|320:336,1,140
360,336,57664,5,0
360,208,58141,1,0
360,272,58379,1,0
296,272,58617,1,0
424,272,59093,2,0,B|472:208|424:136,2,140
360,272,61236,6,0,B|320:200|368:136,1,140
368,80,62426,1,0
304,80,62664,2,0,B|248:16,2,70
304,144,63379,2,0,B|304:224|200:224,1,140
208,160,64093,1,0
208,160,64212,1,0
208,160,64331,5,0
144,160,64569,1,0
144,288,65045,2,0,B|208:360|288:264,1,140
264,224,66236,5,0
296,168,66474,1,0
328,224,66712,1,0
360,168,66950,2,0,B|448:168,2,70
360,104,67664,2,0,B|360:16,2,70
296,104,68379,1,0
296,104,68498,1,0
296,104,68617,1,0
256,56,68855,1,0
40,192,69331,5,0
256,320,69807,5,0
472,192,70283,5,0
344,192,70760,2,0,B|280:128|208:208,1,140
96,192,72188,5,0
224,192,72664,2,0,B|288:256|360:176,1,140
344,64,74093,1,0
280,64,74331,5,0
280,64,74450,1,0
280,64,74569,1,0
216,64,74807,2,0,B|136:128|240:200,1,140
280,184,75522,1,0
344,184,75760,2,0,B|400:264|336:328,1,140
288,312,76474,6,0,B|136:312,1,140
152,248,77664,1,0
152,184,77902,1,0
216,184,78141,2,0,B|256:152|200:104,1,70
152,120,78617,2,0,B|112:88|160:56,1,70
216,64,79093,2,0,B|360:64,1,140
360,128,79807,1,0
360,128,79926,1,0
360,128,80045,1,0
360,192,80283,6,0,B|440:256|344:320,1,140
296,312,81474,1,0
248,272,81712,1,0
200,232,81950,1,0
160,184,82188,2,0,B|88:184,2,70
160,120,82902,2,0,B|160:48,2,70
224,120,83617,1,0
224,120,83736,1,0
224,120,83855,1,0
256,64,84093,1,0
472,192,84569,5,0
256,328,85045,5,0
40,192,85522,5,0
168,192,85998,2,0,B|232:120|304:208,1,140
416,192,87426,5,0
288,192,87902,2,0,B|232:264|160:184,1,140
168,128,89093,1,0
104,128,89331,1,0
104,192,89569,2,0,B|56:232|120:264,1,70
96,312,90045,2,0,B|248:312,1,140
296,312,90760,1,0
360,312,90998,1,0
360,248,91236,1,0
360,248,91355,1,0
360,248,91474,1,0
424,248,91712,6,0,B|496:184|392:104,2,140
360,248,93855,1,0
296,248,94093,1,8
232,248,94331,1,0
192,200,94569,2,0,B|120:136|208:80,2,140,0|8|0
256,200,95760,1,0
320,200,95998,1,8
384,200,96236,1,0
424,152,96474,2,0,B|480:96|408:24,2,140,0|8|0
360,152,97664,1,0
296,152,97902,1,8
232,152,98141,1,0
184,112,98379,6,0,B|120:56|48:120,2,140,0|8|0
184,176,99569,2,0,B|184:264,1,70,0|8
240,216,100045,2,0,B|240:128,1,70
296,176,100522,1,0
336,128,100760,1,8
376,176,100998,1,0
424,128,101236,2,0,B|488:192|416:272,2,140
368,88,103379,5,0
304,88,103617,1,8
240,88,103855,1,0
176,88,104093,2,0,B|104:160|192:232,2,140,0|8|0
112,88,105283,1,0
64,136,105522,1,8
24,184,105760,1,0
72,224,105998,1,0
72,224,106117,1,0
72,224,106236,1,0
128,256,106474,1,8
256,256,106950,6,0,B|352:256|352:144,1,140
288,176,108141,1,0
224,176,108379,1,8
160,176,108617,1,0
96,176,108855,2,0,B|32:112|112:48,1,140
224,64,110283,5,8
288,64,110522,1,0
352,64,110760,2,0,B|400:128|344:200,1,140
288,192,111950,1,0
288,192,112188,1,8
224,192,112426,1,0
224,192,112664,1,0
160,192,112902,1,0
160,192,113022,1,0
160,192,113141,1,8
160,256,113379,1,0
160,320,113617,6,0,B|232:352|328:312,2,140,0|8|0
96,320,114807,1,0
56,272,115045,1,8
104,232,115283,1,0
56,184,115522,1,0
104,136,115760,2,0,B|248:136,1,140
280,80,116474,2,0,B|344:144|264:208,2,140
256,192,118617,12,0,120283
120,96,120760,5,0
120,160,120998,1,0
120,192,121117,1,0
120,224,121236,1,0
184,224,121474,1,0
216,224,121593,1,0
248,224,121712,1,0
312,224,121950,1,0
344,224,122069,1,0
376,224,122188,2,0,B|448:200|448:88,2,140
376,288,124331,5,0
312,288,124569,1,8
184,288,125045,2,0,B|104:264|104:152,2,140
248,288,127188,1,0
312,288,127426,2,0,B|384:288|384:168,2,140,8|8|8
248,288,129569,1,0
248,224,129807,6,0,B|248:80,1,140
184,88,130998,1,0
136,48,131236,1,8
88,88,131474,1,0
136,120,131712,2,0,B|136:272,2,140
200,128,133855,2,0,B|232:88,2,35,0|0|8
248,168,134331,2,0,B|216:208,2,35
304,200,134807,2,0,B|328:168,2,35,0|0|8
360,232,135283,5,0
360,232,135402,1,0
360,232,135522,2,0,B|360:320|480:320,2,140
368,104,137903,1,8
304,104,138141,1,0
176,104,138617,1,0
240,104,138855,1,8
240,232,139331,1,0
240,168,139569,1,0
240,232,139807,1,8
240,104,140283,6,0,B|168:56|96:112,2,140,0|8|0
304,104,141474,1,0
304,104,141593,1,0
304,104,141712,1,8
304,168,141950,1,0
304,232,142188,2,0,B|152:232,2,140
432,224,144569,5,8
432,160,144807,1,0
432,96,145045,1,0
304,96,145522,1,8
368,96,145760,1,0
368,160,145998,2,0,B|320:160|320:224,1,70
328,264,146474,2,0,B|328:304|272:304,1,70,8|0
264,240,146950,2,0,B|104:240,3,140,0|8|0|8
256,192,148855,12,0,150760
336,192,150998,5,0
272,192,151236,1,0
272,192,151355,1,0
272,128,151593,1,0
272,128,151712,1,0
208,128,151950,1,0
208,128,152069,1,0
208,128,152188,1,0
144,128,152426,1,0
144,192,152664,5,0
144,320,153141,2,0,B|200:384|272:328,1,140
272,264,153855,1,2
272,264,154093,1,2
272,264,154331,1,2
272,200,154569,2,0,B|352:144|424:224,1,140
464,208,155283,1,2
464,144,155522,1,2
368,56,155998,5,0
304,56,156236,1,0
304,120,156474,2,0,B|232:120,2,70
344,168,157188,1,0
304,216,157426,2,0,B|160:216,1,140
104,216,158141,1,0
104,216,158379,2,0,B|104:112,1,70
168,144,159093,5,2
296,144,159569,1,0
232,144,159807,1,2
232,272,160283,6,0,B|296:192|368:304,2,140
104,272,161712,1,0
104,208,161950,1,2
168,208,162188,1,2
40,208,162664,1,0
40,144,162903,1,2
104,144,163141,1,2
232,144,163617,1,0
168,144,163855,1,2
168,80,164093,1,2
168,208,164569,5,0
232,208,164807,1,2
232,272,165045,1,2
232,144,165522,1,0
296,144,165760,1,2
296,80,165998,1,2
256,192,166474,12,0,167426
