osu file format v7

[General]
AudioFilename: Air.mp3
AudioLeadIn: 3000
PreviewTime: 130784
Countdown: 0
SampleSet: Soft
StackLeniency: 0.7
Mode: 0
LetterboxInBreaks: 1

[Editor]
Bookmarks: 15569,42209,52823,59518,99325,113339,133232,137167,160949,175281
DistanceSpacing: 0.800000011920929
BeatDivisor: 4
GridSize: 8

[Metadata]
Title:Tori no Uta
Artist:Lia
Creator:skyflying
Version:Normal
Source:Air
Tags:alex0686 vikon breeze

[Difficulty]
HPDrainRate:4
CircleSize:4
OverallDifficulty:4
SliderMultiplier:1.4
SliderTickRate:1

[Events]
//Background and Video events
0,0,"AIR18.JPG"
Video,0,"lia - tori no shi[Air].avi"
//Break Periods
2,13040,15452
2,37610,37811
2,50387,51570
2,148667,164838
//Storyboard Layer 0 (Background)
//Storyboard Layer 1 (Fail)
//Storyboard Layer 2 (Pass)
//Storyboard Layer 3 (Foreground)
//Storyboard Sound Samples
//Background Colour Transformations
3,100,163,162,255

[TimingPoints]
1047,491.400491400491,4,2,0,39,1,0
42209,-100,4,2,0,45,0,0
44174,-100,4,2,0,48,0,1
52651,-100,4,2,0,62,0,0
140734,-100,4,2,0,61,0,0
142454,-100,4,2,0,62,0,1
147983,-100,4,2,0,62,0,0
165182,-100,4,2,0,50,0,0
174027,508.474576271186,4,2,0,50,1,0
175043,517.241379310345,4,2,0,50,1,0
176077,526.315789473684,4,2,0,50,1,0
177129,530.973451327434,4,2,0,50,1,0
178200,540.540540540541,4,2,0,50,1,0
179275,576.923076923077,4,2,0,50,1,0
179841,800,4,2,1,50,1,0

[Colours]
Combo1 : 0,0,160
Combo2 : 3,216,233
Combo3 : 19,154,253
Combo4 : 2,84,236

[HitObjects]
64,320,1047,1,0
456,320,3012,1,0
256,24,4978,1,0
256,136,5469,1,0
256,248,5961,1,0
256,360,6452,1,0
256,360,6698,1,0
256,192,7435,1,0
256,352,8909,5,0
64,64,10875,1,0
456,64,12840,1,0
40,32,16772,6,0,B|-8:112|56:184,1,140
80,208,17509,2,0,B|208:344|408:210,1,350
488,152,19229,6,0,B|488:232,2,70,0|0|0
456,112,19966,1,0
416,72,20212,2,0,B|312:72,1,70
288,72,20703,2,0,B|112:72,2,140
56,72,23406,6,0,B|56:232,1,140
112,216,24143,2,0,B|208:216,2,70
224,216,25126,1,0
263,255,25372,1,0
304,296,25617,2,0,B|384:208|272:32,1,280
160,64,27092,6,0,B|56:64,2,70,0|0|0
200,104,27829,1,0
240,144,28074,2,0,B|240:240,2,70
328,208,29057,2,0,B|328:72|328:72,1,105
496,96,30286,6,0,B|496:192,1,70
440,264,31023,1,0
328,264,31514,1,0
216,264,32006,1,0
104,264,32497,5,0
104,152,32988,2,0,B|208:152,2,70
104,96,33725,1,0
216,96,34217,2,0,B|296:160,1,70
384,136,34954,5,0
344,96,35200,1,0
304,64,35445,1,0
256,40,35691,1,0
200,40,35937,1,0
144,48,36182,1,0
96,80,36428,2,0,B|64:168,4,70
456,312,39131,6,0,B|456:152,1,140
400,168,39868,2,0,B|304:168,2,70
288,168,40851,1,0
249,129,41096,1,0
208,88,41342,2,0,B|128:32|-8:168|80:256,1,280
148,322,42816,5,2
204,322,43062,1,0
260,322,43308,1,0
316,322,43553,2,0,B|404:322,1,70,0|2
444,322,44045,1,0
444,258,44291,5,0
356,170,44782,1,2
228,170,45273,1,0
140,258,45765,1,2
140,258,46010,1,0
140,258,46256,1,4
304,272,47730,5,2
160,272,48222,1,0
152,144,48713,1,2
320,144,49205,1,0
304,272,49696,1,2
304,272,49942,1,0
304,272,50187,1,6
24,32,52890,6,0,B|112:32,1,70,0|2
96,120,53504,1,0
176,120,53873,2,0,B|264:120,1,70,0|2
328,120,54487,1,0
328,200,54856,1,0
328,312,55347,6,0,B|168:312,1,140
192,256,56084,1,2
192,176,56453,2,0,B|200:96|112:112,1,105,0|8
40,168,57313,2,0,B|40:216|40:264,1,70,0|8
119,317,58050,2,0,B|184:389|267:298,1,140,0|8
242,209,59033,1,4
242,96,59524,1,4
56,288,60752,6,0,B|152:288,1,70,0|2
126,203,61367,2,0,B|126:123|214:123,1,105,0|0
239,126,61981,1,2
322,126,62350,2,0,B|402:118|378:30,1,105,0|2
271,57,63209,6,0,B|199:17|127:57,1,140,0|2
97,91,63947,2,0,B|57:147|87:220,1,105,2|0
137,250,64684,2,0,B|257:322|345:234,1,210,0|2
256,192,65912,12,4,67878
408,272,68615,6,0,B|408:184,1,70,0|2
408,117,69229,2,0,B|408:37|320:61,1,105,0|0
303,95,69843,2,0,B|239:143|199:79,1,105,2|0
150,34,70580,1,0
70,113,71072,6,0,B|70:209|166:209,1,140,0|0
190,248,71809,1,2
249,307,72178,2,0,B|321:307|361:307,1,105
433,227,73037,2,8,B|433:147,1,70,0|8
353,77,73775,2,0,B|201:77,1,140,0|8
133,156,74757,2,0,B|21:156|37:268,1,140,0|2
114,311,75740,1,8
272,248,76477,6,0,B|184:248,1,70,0|2
202,332,77092,2,0,B|74:332,1,105,0|0
97,275,77706,2,0,B|97:163,2,105,2|0|2
17,195,78934,1,0
17,83,79426,2,0,B|73:19,1,70,0|2
175,30,80163,1,8
287,30,80654,2,0,B|391:14|383:118,2,140,2|8|4
256,192,81883,12,8,83111
200,80,83603,6,0,B|112:80|112:80,2,70,2|0|8
200,136,84340,1,0
200,164,84463,2,0,B|224:340|32:308,1,245,0|0
23,272,85568,1,2
23,160,86060,6,0,B|23:-8,3,140,8|2|8|2
190,20,88271,2,0,B|270:20,1,70,0|4
304,208,90236,6,0,B|224:208,2,70,0|2|0
360,208,90974,1,8
472,208,91465,6,0,B|472:128,3,70,0|0|8|0
472,82,92448,1,2
359,82,92939,1,2
247,82,93431,1,2
134,82,93922,1,2
54,161,94413,1,2
54,272,94905,6,0,B|134:272,2,70,8|0|2
166,272,95888,2,0,B|166:200,1,70,8|0
166,145,96379,2,0,B|166:105|230:105,1,70,2|0
326,105,97116,1,2
256,192,97423,12,6,98836
256,72,99327,5,0
367,72,99819,1,8
446,151,100310,1,2
366,230,100802,1,2
253,230,101293,1,2
173,150,101784,1,8
252,70,102276,1,0
364,70,102767,1,8
443,149,103259,5,0
363,228,103750,1,8
307,228,103996,2,0,B|219:228,1,70,0|2
124,228,104733,1,8
44,148,105224,1,2
123,68,105716,1,8
179,68,105961,6,0,B|251:68,2,70,0|0|0
122,68,106698,1,8
122,179,107190,5,2
234,179,107681,1,8
313,258,108173,1,2
392,178,108664,1,2
312,98,109155,1,2
200,98,109647,1,2
120,177,110138,1,2
199,256,110630,6,0,B|279:256,2,70,8|0|2
278,176,111612,1,8
334,176,111858,1,0
334,120,112104,1,2
334,64,112350,1,0
222,64,112841,1,4
103,182,113578,1,4
47,182,113824,6,0,B|47:334,1,140,0|0
103,322,114561,2,0,B|191:322,2,70,8|0|0
182,242,115544,1,8
182,129,116035,1,2
293,129,116526,1,2
293,240,117018,1,2
405,240,117509,6,0,B|405:136,1,70
405,113,118001,2,0,B|392:56|464:64,1,70
406,110,118492,2,0,B|391:55|331:70,1,70,8|0
301,66,118983,1,0
189,66,119475,1,8
76,66,119966,1,2
76,177,120458,1,2
76,289,120949,1,2
174,341,121440,1,2
177,291,121686,6,0,B|273:307|273:211,1,140,0|0
312,181,122423,2,0,B|392:181,1,70,8|0
438,181,122915,1,0
438,68,123406,1,8
326,68,123897,1,2
246,147,124389,1,2
133,147,124880,1,2
53,67,125372,6,0,B|53:139|53:139,1,70,8|0
53,193,125863,2,0,B|85:233|125:185,1,70,0|0
152,237,126354,2,0,B|192:269|232:213,1,70,8|0
270,233,126846,1,8
270,148,127214,1,8
270,63,127583,1,4
48,160,128566,6,0,B|48:232,1,70,0|2
160,230,129303,2,0,B|304:230,2,140,8|2|8
160,342,130777,1,2
272,344,131268,2,0,B|328:336|328:288,1,70,8|0
345,285,131637,2,4,B|377:69|177:69,1,315
187,181,133234,6,8,B|179:237|107:205,1,70,8|0
97,175,133725,2,0,B|97:143|97:87,1,70,2|0
97,48,134217,2,0,B|65:16|9:64,1,70,8|0
32,102,134708,1,2
32,213,135200,1,8
111,292,135691,1,2
190,212,136182,1,2
269,291,136674,1,2
348,211,137165,1,8
308,171,137411,6,0,B|212:163|228:75,1,140,0|0
266,42,138148,2,0,B|370:42,1,70,8|0
375,81,138639,1,0
375,192,139131,1,8
295,271,139622,1,2
183,271,140114,1,2
103,191,140605,1,2
23,111,141096,6,0,B|-25:151|47:175,1,70,8|0
63,205,141588,2,0,B|63:229|63:285,1,70,2|0
102,314,142079,2,0,B|142:314|182:314,1,70,8|0
211,274,142571,2,2,B|51:274|83:-14|499:18,1,560,2|2
344,328,146010,5,4
455,328,146502,2,4,B|431:64|-9:80,1,560
24,64,166158,5,2
80,64,166404,1,0
136,64,166649,1,0
192,64,166895,1,0
304,64,167386,1,2
416,64,167878,5,2
416,119,168123,1,0
416,175,168369,1,0
416,231,168615,1,0
416,287,168861,1,0
312,256,169352,1,2
200,256,169843,5,2
144,256,170089,1,0
144,200,170335,1,0
144,144,170580,1,0
144,88,170826,1,0
32,88,171318,1,2
40,200,171809,5,2
80,240,172055,1,0
136,240,172300,1,0
192,240,172546,1,0
248,240,172792,1,0
240,112,173283,5,2
288,112,173529,1,2
336,112,173775,1,4
256,192,174027,12,0,181041
