osu file format v6

[General]
AudioFilename: tori no uta.mp3
AudioLeadIn: 3000
PreviewTime: 113824
Countdown: 0
SampleSet: Soft
StackLeniency: 0.7
Mode: 0
LetterboxInBreaks: 1
SkinPreference:Default

[Editor]
Bookmarks: 81637,115052,130777,150433
DistanceSpacing: 1
BeatDivisor: 4
GridSize: 8

[Metadata]
Title:Tori no Uta
Artist:Lia
Creator:osuplayer111
Version:Hard
Source:Air
Tags:Anime Card_N'FoRcE DJPop WyndII ignorethis

[Difficulty]
HPDrainRate:6
CircleSize:5
OverallDifficulty:6
SliderMultiplier:1.4
SliderTickRate:0.5

[Events]
//Background and Video events
0,0,"Hard.jpg"
Video,0,"torinouta.avi"
//Break Periods
//Storyboard Layer 0 (Background)
//Storyboard Layer 1 (Fail)
//Storyboard Layer 2 (Pass)
//Storyboard Layer 3 (Foreground)
//Storyboard Sound Samples
//Background Colour Transformations
3,100,163,162,255

[TimingPoints]
65,491.400491400491,4,2,0,70,1,0
310,-200,4,2,1,70,0,0
1907,-200,4,2,1,0,0,0
2153,-200,4,2,1,70,0,0
6330,-200,4,2,1,0,0,0
6576,-200,4,2,1,70,0,0
9770,-200,4,2,1,0,0,0
10015,-200,4,2,1,70,0,0
11735,-200,4,2,1,0,0,0
11981,-200,4,2,1,70,0,0
13701,-200,4,2,1,0,0,0
13947,-200,4,2,1,30,0,0
14561,-200,4,2,1,50,0,0
15298,-200,4,2,1,60,0,0
15544,-100,4,2,1,70,0,0
16649,-100,4,1,1,50,0,0
16895,-100,4,2,1,70,0,0
17509,-200,4,2,1,70,0,0
19229,-100,4,2,1,70,0,0
21440,-200,4,2,1,70,0,0
23406,-100,4,2,1,70,0,0
25372,-200,4,2,1,70,0,0
27092,-100,4,2,1,70,0,0
28811,-100,4,2,1,40,0,0
29057,-100,4,2,1,50,0,0
29549,-100,4,2,1,70,0,0
32374,-100,4,1,1,50,0,0
32620,-100,4,2,1,70,0,0
33234,-200,4,2,1,70,0,0
34954,-100,4,2,1,70,0,0
37165,-200,4,2,1,70,0,0
39131,-100,4,2,1,70,0,0
41096,-200,4,2,1,70,0,0
42448,-100,4,2,1,0,0,0
42693,-100,4,2,1,70,0,0
44413,-100,4,2,1,0,0,0
47607,-100,4,2,1,70,0,0
47976,-200,4,2,1,70,0,0
49942,-100,4,2,1,70,0,0
50310,-100,4,1,1,50,0,0
50556,-100,4,2,1,70,0,0
50679,-100,4,1,1,50,0,0
52276,-100,4,2,1,70,0,0
57436,-200,4,2,1,70,0,0
59033,-100,4,2,1,70,0,0
64561,-200,4,2,1,70,0,0
65666,-100,4,2,1,0,0,0
65789,-100,4,2,1,70,0,0
73037,-200,4,2,1,70,0,0
74757,-100,4,2,1,70,0,0
107927,-200,4,2,1,70,0,0
109647,-100,4,2,1,70,0,0
113701,-100,4,2,1,10,0,0
114069,-100,4,2,1,30,0,0
114561,-100,4,2,1,50,0,0
115052,-100,4,2,1,70,0,1
127829,-100,4,2,1,70,0,0
130777,-100,4,2,1,70,0,1
142448,-200,4,2,1,70,0,1
146502,-100,4,2,1,0,0,1
150433,-100,4,2,1,70,0,0

[Colours]
Combo1 : 255,128,192
Combo2 : 0,191,225
Combo3 : 254,154,18
Combo4 : 0,128,128

[HitObjects]
256,48,310,1,2
256,120,556,1,0
256,192,802,1,0
256,264,1047,2,0,B|256:336|360:336,1,140,2|0
416,304,2276,5,2
464,256,2522,1,0
408,208,2767,1,0
464,160,3013,2,0,B|464:48|352:48,1,175,2|2
296,72,4487,5,0
256,128,4733,1,0
256,128,4979,2,0,B|152:144|176:272|288:272,1,210,2|0
255,267,6698,1,2
448,192,7436,1,2
256,112,8173,5,2
256,40,8418,1,0
200,80,8664,1,0
128,80,8910,2,0,B|72:136|136:208,1,140,2|0
184,256,10138,5,2
216,192,10384,1,0
288,192,10630,1,0
320,256,10875,2,0,B|392:320|448:248,1,140,2|0
408,192,12104,5,2
464,152,12350,1,0
400,120,12595,1,0
344,160,12841,2,0,B|256:40,1,140,2|0
120,48,14315,1,0
40,160,14807,5,0
48,176,14929,1,0
56,192,15052,1,0
64,208,15175,1,0
72,224,15298,1,0
80,240,15421,1,0
88,256,15544,5,2
200,344,16035,1,0
256,296,16281,1,0
312,344,16526,1,0
256,296,16772,5,0
256,152,17264,1,2
256,80,17509,1,0
256,80,17632,2,0,B|320:8|376:-8|448:88,1,227.5,0|2
456,152,19475,5,0
400,192,19721,2,0,B|304:192,1,70
256,192,20212,1,0
256,264,20458,1,0
256,336,20703,2,0,B|336:336,1,70,0|0
400,336,21195,1,2
448,288,21440,1,0
448,288,21563,2,0,B|528:168|416:40,1,262.5,0|2
296,112,23897,5,0
256,56,24143,1,0
216,112,24389,1,0
256,168,24635,2,0,B|256:248,1,70
256,312,25126,1,2
256,312,25372,1,0
256,312,25494,2,0,B|392:304|448:184,1,227.5,0|2
480,136,27337,6,0,B|480:56,1,70
416,32,27829,2,0,B|344:32,1,70
304,88,28320,1,0
256,32,28566,2,0,B|208:0|144:40,2,105,2|0|0
256,312,30286,5,0
256,240,30531,2,0,B|256:96,1,140,2|0
128,48,31514,2,0,B|24:152,1,140,2|0
384,48,32497,6,0,B|496:160,1,140,0|2
440,200,33234,1,0
440,200,33357,2,0,B|360:200|360:200|336:256|336:256|248:256,1,227.5,0|2
192,216,35200,5,0
192,288,35445,1,0
128,256,35691,1,0
128,256,35937,1,0
64,288,36182,1,0
64,216,36428,2,0,B|8:152|64:80,1,140,2|0
112,40,37165,1,0
112,40,37288,2,0,B|176:40|248:112|296:40|384:32,1,262.5,0|2
456,136,39622,5,0
504,192,39868,1,0
456,248,40114,1,0
504,192,40359,2,0,B|352:192,1,140,2|0
296,192,41096,1,0
296,192,41219,2,0,B|280:88|232:72|216:200,1,192.5
256,248,42816,5,2
256,320,43062,1,0
192,352,43308,2,0,B|104:352,1,70
72,304,43799,2,0,B|24:232,1,70
80,192,44291,1,2
256,208,44413,12,0,46010
256,208,46256,12,0,47485
256,208,47730,5,2
256,64,48222,2,0,B|128:64|80:160|80:224,1,245
104,272,50187,1,2
152,328,50433,5,0
152,328,50556,1,0
224,328,50802,1,0
280,288,51047,1,0
296,296,51170,1,0
312,304,51293,1,0
328,312,51416,1,0
392,344,51662,1,0
408,336,51784,1,0
424,328,51907,1,0
440,320,52030,1,0
456,312,52153,5,4
376,192,52644,5,8
416,136,52890,1,0
376,80,53136,2,0,B|264:80,2,105,2|0|0
416,136,54119,2,0,B|528:136,2,105,2|0|0
288,192,55347,5,2
256,128,55593,2,0,B|200:80,1,70,8|0
136,80,56084,2,0,B|88:56|72:104|16:64,2,105,2|0|0
88,216,57313,1,2
48,272,57558,2,0,B|144:352|264:256,1,210,8|2
312,192,59401,1,8
312,192,59524,2,0,B|312:112,1,70,0|8
256,80,60015,1,4
48,48,60752,5,2
96,96,60998,2,0,B|160:184,2,105,0|2|0
48,144,61981,1,0
24,248,62350,1,2
56,352,62718,2,0,B|200:352,1,140,0|2
320,288,63701,1,0
384,256,63947,2,0,B|456:256,1,70,2|0
453,256,64315,1,0
480,152,64684,2,0,B|448:72|448:72|384:72,1,140,2|0
328,48,65912,5,2
320,56,66035,1,0
312,64,66158,1,0
304,72,66281,1,0
296,80,66404,1,8
288,88,66526,1,0
280,96,66649,1,0
272,104,66772,1,0
264,112,66895,5,2
256,120,67018,1,0
248,128,67141,1,0
240,136,67264,1,8
232,144,67386,1,0
224,152,67509,1,0
216,160,67632,1,8
208,168,67755,1,0
200,176,67878,5,4
32,304,68615,5,2
96,336,68861,2,0,B|152:304|216:344,1,105,0|2
256,248,69598,1,0
208,192,69843,2,0,B|152:224|88:184,1,105,2|0
48,104,70580,1,2
104,64,70826,1,0
160,24,71072,5,2
160,24,71195,1,0
160,24,71318,1,8
216,64,71563,1,0
272,104,71809,2,0,B|392:104,2,105,2|0|0
160,192,73037,1,2
160,192,73283,2,0,B|80:232|80:312|184:368,1,210,8|2
224,272,75126,1,8
224,272,75249,1,0
256,208,75494,1,8
288,272,75740,1,4
480,192,76477,5,2
440,136,76723,2,0,B|440:64|488:32,2,105,0|2|0
400,192,77706,1,0
296,192,78074,1,2
256,96,78443,2,0,B|224:24|200:24|172:101,1,140,0|2
48,152,79426,1,0
24,216,79671,2,0,B|85:273|160:208,1,140,2|8
216,192,80408,1,0
256,136,80654,1,2
304,192,80900,1,0
256,248,81146,1,8
304,192,81391,1,0
256,136,81637,5,2
256,120,81760,1,0
256,104,81883,1,0
256,88,82006,1,0
256,72,82128,1,8
256,56,82251,1,0
256,40,82374,1,0
248,24,82497,1,0
232,24,82620,5,2
216,24,82743,1,0
200,24,82865,1,0
184,24,82988,1,8
168,24,83111,1,0
152,24,83234,1,0
136,24,83357,1,8
120,24,83480,1,0
104,24,83603,5,4
16,128,84094,5,8
72,176,84340,1,0
72,176,84463,1,0
16,224,84708,1,0
16,224,84831,1,0
72,272,85077,2,0,B|216:272,2,140,8|2|8
16,320,86305,5,0
72,368,86551,2,0,B|216:368,1,140,2|8
256,232,87534,1,2
256,96,88025,1,8
312,48,88271,1,0
368,96,88517,1,2
368,96,88639,2,0,B|424:64|480:104,1,105,0|8
424,152,89254,1,0
424,152,89377,1,0
384,208,89622,5,0
384,208,89745,1,0
344,264,89991,2,0,B|264:264,1,70,8|2
256,192,90482,1,0
256,192,90728,1,0
256,192,90851,1,8
256,192,90974,1,0
256,120,91219,2,0,B|256:40,1,70,8|4
192,24,91711,5,0
128,48,91956,1,8
64,24,92202,1,0
64,24,92325,1,2
32,88,92571,2,0,B|32:144,1,35
80,176,92939,1,8
136,216,93185,1,0
80,256,93431,1,0
24,304,93676,1,0
80,344,93922,5,8
152,344,94168,2,0,B|192:344,2,35,0|0|2
80,344,94659,1,0
24,304,94905,1,8
80,256,95150,1,0
136,216,95396,2,0,B|216:216,2,70,2|0|8
80,168,96133,1,0
136,128,96379,1,0
192,88,96625,2,0,B|256:40|336:96,1,140,2|0
384,120,97362,5,2
400,128,97485,1,0
416,136,97607,1,0
432,144,97730,1,0
448,152,97853,1,8
464,160,97976,1,0
480,168,98099,1,0
496,176,98222,1,0
504,192,98345,5,2
504,216,98467,1,0
488,232,98590,1,0
472,240,98713,1,8
456,248,98836,1,0
440,256,98959,1,0
424,264,99082,1,0
408,272,99205,1,0
392,280,99327,5,4
256,328,99819,5,8
256,256,100064,1,0
256,256,100187,1,0
256,184,100433,1,0
256,184,100556,1,0
200,224,100802,2,0,B|128:224,1,70,8|0
312,224,101293,2,0,B|392:224,1,70
200,136,101784,6,0,B|112:136,1,70,8|0
312,136,102276,2,0,B|400:136,1,70
381,136,102644,1,0
381,136,102767,1,8
344,72,103013,1,0
296,24,103259,5,4
256,80,103504,1,0
216,24,103750,1,8
168,72,103996,1,0
168,72,104119,1,0
256,80,104364,1,0
256,80,104487,1,0
256,152,104733,2,0,B|256:232,1,70,8|0
256,352,105224,6,0,B|256:272,1,70
192,256,105716,1,8
176,256,105838,1,0
160,256,105961,1,2
120,312,106207,1,0
120,312,106330,1,2
120,200,106576,1,8
120,200,106698,1,0
72,256,106944,1,8
72,256,107190,5,4
24,120,107681,1,8
72,72,107927,1,0
72,72,108050,2,0,B|184:16|304:80,1,227.5,2|8
432,80,110138,6,0,B|488:144|432:216,1,140,0|8
368,192,110875,1,0
320,144,111121,2,0,B|240:144,1,70,2|0
192,104,111612,1,8
136,144,111858,1,0
80,184,112104,2,0,B|49:240|88:288,1,105,2|0
176,312,112841,2,0,B|208:312,4,17.5,0|0|0|0|4
256,184,113578,1,4
256,112,113824,6,0,B|232:112,20,17.5,0|0|0|0|0|0|0|0|0|0|0|0|0|0|0|0|0|0|0|0|4
384,48,115544,5,8
456,64,115789,1,0
456,64,115912,1,0
456,136,116158,1,0
456,136,116281,1,0
392,160,116526,1,8
392,232,116772,2,0,B|392:312,1,70
320,304,117264,6,0,B|320:224,1,70,0|8
320,160,117755,1,0
320,160,117878,1,0
320,160,118001,1,0
256,184,118246,2,0,B|184:184,1,70,0|8
208,120,118738,2,0,B|280:120,1,70
304,56,119229,2,0,B|232:56,1,70,0|8
160,56,119721,1,0
160,56,119843,1,0
80,64,120089,6,0,B|48:96,1,35
56,89,120458,1,8
80,152,120703,1,2
88,168,120826,1,0
96,184,120949,1,0
56,240,121195,1,2
128,248,121440,1,8
168,192,121686,6,0,B|256:192,2,70,2|0|0
200,128,122423,1,8
256,80,122669,1,0
256,80,122792,1,0
256,80,122915,2,0,B|312:32|312:32|368:88,1,140,4|8
424,96,123652,1,0
424,96,123775,1,0
464,152,124020,1,0
464,152,124143,1,0
424,208,124389,6,0,B|344:208,1,70,8|0
360,280,124880,2,0,B|440:280,1,70
432,352,125372,1,8
360,352,125617,1,0
344,352,125740,1,0
328,352,125863,1,0
256,336,126109,2,0,B|256:264,1,70,0|8
256,192,126600,1,0
256,192,126846,2,0,B|272:144|224:112|264:80,2,105,2|0|2
256,192,128566,5,2
256,192,128811,1,4
24,24,129303,5,4
488,360,129794,5,4
488,24,130286,5,4
24,360,130777,5,4
128,264,131268,1,8
184,224,131514,1,0
184,224,131637,2,0,B|176:152|216:120,1,105,2|0
256,176,132251,1,8
304,128,132497,1,0
304,128,132620,1,0
304,128,132743,1,0
304,56,132988,6,0,B|384:56,1,70,0|8
448,56,133480,2,0,B|496:112,1,70
464,168,133971,2,0,B|432:232,1,70,0|8
400,296,134463,1,0
400,296,134708,2,0,B|328:296,1,70,2|0
280,344,135200,1,8
256,280,135445,1,0
256,280,135568,2,0,B|256:160,1,105,2|2
256,32,136428,6,0,B|184:32,1,70,2|0
256,96,136920,2,0,B|336:96,1,70,0|8
256,160,137411,2,0,B|184:160,1,70
256,224,137902,2,0,B|336:224,1,70,0|8
256,296,138394,1,2
256,312,138517,1,0
256,328,138639,5,4
112,328,139131,1,8
80,264,139377,1,0
80,264,139499,2,0,B|32:168,1,105,2|0
48,104,140114,2,0,B|176:32,1,140,8|0
256,144,141096,5,8
208,192,141342,1,0
256,240,141588,1,0
304,192,141834,1,0
376,192,142079,1,8
448,192,142325,1,0
448,192,142571,6,0,B|448:104|392:56|288:56,1,210,2|8
256,96,144291,1,0
192,128,144536,2,0,B|192:216|248:264|352:264,1,210,2|8
256,208,146502,12,0,148222
256,208,148467,12,4,150433
