osu file format v5

[General]
AudioFilename: Toki wo Kizamu Uta.mp3
AudioLeadIn: 0
PreviewTime: -1
Countdown: 1
SampleSet: Soft
StackLeniency: 1
Mode: 0
LetterboxInBreaks: 1

[Metadata]
Title:Toki wo Kizamu Uta (TV Size)
Artist:Lia
Creator:Sakura-chan
Version:Hard
Source:
Tags:

[Difficulty]
HPDrainRate:7
CircleSize:6
OverallDifficulty:7
SliderMultiplier:1.3
SliderTickRate:1

[Events]
//Background and Video events
0,0,"Clannad.jpg"
1,0,"Clannad AS OP Song.wmv"
//Break Periods
2,15394,16584
//Storyboard Layer 0 (Background)
//Storyboard Layer 1 (Failing)
//Storyboard Layer 2 (Passing)
//Storyboard Layer 3 (Foreground)
//Storyboard Sound Samples
//Background Colour Transformations
3,100,163,162,255

[TimingPoints]
3000,431.654676258993,4,2,0,100,1
17818,431.654676258993,4,2,0,100,1
42000,431.654676258993,4,2,0,100,1
70500,356.930398572278,4,2,0,100,1
79000,356.930398572278,4,2,0,100,1

[HitObjects]
256,192,2190,12,2,3485
320,128,3863,5,0
320,160,4079,1,0
192,224,4726,1,0
128,224,5374,1,0
128,96,6021,1,0
320,96,6453,1,0
352,96,6884,1,0
352,224,7262,5,0
320,224,7478,1,0
160,224,8125,1,0
160,96,8773,1,0
320,96,9420,1,0
160,224,9852,1,0
128,96,10284,5,0
128,224,10715,1,0
160,224,10931,1,0
352,224,11579,5,0
352,128,12226,1,0
288,128,12874,1,0
128,128,13305,1,0
128,192,13737,5,0
160,192,14115,1,0
192,192,14330,1,0
256,192,14762,5,2
256,192,14978,1,2
256,192,15194,1,2
192,192,17784,5,2
256,192,17979,1,0
320,192,18195,1,2
224,192,18411,1,0
288,192,18627,1,2
320,192,19059,5,2
256,192,19274,1,0
192,192,19490,1,2
288,192,19706,1,0
224,192,19922,1,2
384,256,20353,5,0
320,192,20785,1,0
256,128,21217,1,0
192,192,21648,1,0
128,256,22080,1,0
256,256,22512,1,0
256,192,22943,5,4
192,128,23375,5,2
224,160,23591,1,0
256,192,23807,1,2
288,160,24023,1,0
320,128,24238,1,2
320,128,24670,5,2
288,160,24886,1,0
256,192,25102,1,2
224,160,25318,1,0
192,128,25533,1,2
224,224,25965,5,0
288,224,26397,1,0
256,160,26828,1,0
224,160,27260,1,0
288,160,27476,1,0
224,224,27692,1,0
288,224,27907,1,0
256,192,28123,1,0
256,192,28555,5,4
192,160,28987,5,2
256,160,29202,1,2
320,160,29418,1,2
192,224,29850,1,2
256,224,30281,1,2
320,224,30713,1,2
256,192,31199,5,4
320,224,31630,5,2
256,224,31846,1,2
192,224,32062,1,2
320,160,32494,1,2
256,160,32925,1,2
192,160,33357,1,2
256,192,33789,5,4
256,96,34220,5,0
256,160,34436,1,0
256,224,34652,1,0
192,288,35084,1,0
320,288,35515,1,0
256,288,35947,5,2
256,192,36379,5,4
256,288,36810,5,0
256,224,37026,1,0
256,160,37242,1,0
320,96,37674,1,0
192,96,38105,1,0
256,96,38537,1,0
256,192,39346,5,4
256,192,39562,5,4
256,192,39778,5,4
224,224,40210,1,0
256,224,40641,1,0
288,224,41073,1,0
352,128,41936,5,2
352,256,42377,1,2
160,256,42809,1,2
160,128,43456,1,2
256,192,44104,1,2
256,192,45399,5,0
256,192,45507,1,0
256,192,45615,1,0
256,192,45723,1,0
256,192,45830,1,0
224,160,46100,5,0
288,160,46316,1,0
256,192,46964,5,0
224,224,47611,5,0
288,224,47827,1,0
256,192,48852,5,0
256,192,48960,1,0
256,192,49068,1,0
256,192,49176,1,0
256,192,49284,1,0
192,160,49715,5,2
256,192,50363,1,2
320,224,51010,1,2
256,192,51442,5,0
256,192,51874,1,0
256,192,52305,1,0
256,192,52737,1,4
320,160,53169,5,0
256,192,53816,1,2
192,224,54464,1,2
256,192,54787,6,0,C|288:192,10,16.25
128,160,55705,5,0
192,128,56136,1,0
256,96,56568,1,0
320,128,57215,1,0
384,160,57863,1,0
352,224,58294,6,0,C|192:224,1,146.25
256,192,59212,5,0
256,192,59320,1,0
256,192,59428,1,0
256,192,59535,1,0
256,192,59643,1,0
352,192,60021,5,0
288,224,60669,1,0
224,224,61316,1,0
160,192,61532,1,0
192,160,61748,5,0
192,160,62233,1,0
352,224,62665,5,0
352,224,62773,1,0
352,224,62881,1,0
352,224,62989,1,0
352,224,63097,1,0
192,160,63528,5,2
256,160,64176,1,2
320,160,64823,1,2
320,192,65255,6,0,L|192:224,3,130
320,224,66982,5,4
256,224,67629,1,4
192,224,68276,1,4
96,32,70435,5,0
128,32,70678,1,0
160,32,70901,1,0
192,32,71124,1,0
224,32,71347,1,0
256,32,71526,5,0
288,32,71749,1,0
320,32,71972,1,0
352,32,72195,1,0
384,32,72418,1,0
384,64,72596,5,0
384,96,72820,1,0
384,128,72998,1,0
384,160,73221,1,0
384,192,73444,1,0
384,224,73667,5,0
384,256,73890,1,0
384,288,74113,1,0
384,320,74337,1,0
384,352,74560,1,0
352,352,74783,5,0
320,352,75006,1,0
288,352,75229,1,0
256,352,75452,1,0
224,352,75675,1,0
192,352,75853,5,0
160,352,76077,1,0
128,352,76300,1,0
96,352,76523,1,0
64,352,76746,1,0
64,320,76924,5,0
64,288,77147,1,0
64,256,77370,1,0
64,224,77593,1,0
64,192,77817,1,0
64,160,78040,5,0
64,128,78263,1,0
64,96,78486,1,0
64,64,78709,1,0
64,32,78887,1,0
96,64,79312,5,0
128,96,79490,1,0
160,128,79713,1,0
192,160,79936,1,0
224,192,80160,1,0
256,224,80383,5,0
288,256,80606,1,0
320,288,80829,1,0
352,320,81052,1,0
384,352,81275,1,0
384,288,81453,5,0
384,256,81676,1,0
384,224,81900,1,0
384,192,82123,1,0
384,160,82346,1,0
384,128,82569,5,0
384,96,82792,1,0
384,64,83015,1,0
352,96,83238,1,0
320,128,83461,1,0
288,160,83640,5,0
256,192,83818,1,0
224,224,84041,1,0
192,256,84264,1,0
160,288,84487,1,0
128,320,84710,5,0
96,352,84889,1,0
96,320,85067,1,0
96,288,85290,1,0
96,256,85513,1,0
128,224,85781,5,0
160,192,86004,1,0
192,224,86183,1,0
224,192,86406,1,0
256,224,86629,1,0
288,192,86852,5,4
