osu file format v5

[General]
AudioFilename: Lia - Toki wo Kizamu Uta (TV Size).mp3
AudioLeadIn: 0
PreviewTime: -1
Countdown: 0
SampleSet: Soft
StackLeniency: 0.7
Mode: 0
LetterboxInBreaks: 1

[Metadata]
Title:Toki wo Kizamu Uta (TV Size)
Artist:Lia
Creator:Jeffro
Version:Normal
Source:Raw
Tags:

[Difficulty]
HPDrainRate:5
CircleSize:5
OverallDifficulty:5
SliderMultiplier:1.6
SliderTickRate:2

[Events]
//Background and Video events
0,0,"clannad.png"
1,-200,"Lia - Toki wo Kizamu Uta (TV Size).avi"
//Break Periods
//Storyboard Layer 0 (Background)
//Storyboard Layer 1 (Failing)
//Storyboard Layer 2 (Passing)
//Storyboard Layer 3 (Foreground)
//Storyboard Sound Samples
//Background Colour Transformations
3,100,255,128,255

[TimingPoints]
17206,431.654676258993,4,2,0,50,1
35335,431.654676258993,4,2,0,80,1
42241,431.654676258993,4,2,0,90,1
69868,863.309352517986,4,2,0,50,1

[HitObjects]
160,64,17205,5,8
224,64,17421,1,2
224,128,17637,1,2
160,128,17853,1,8
192,192,18069,1,8
288,192,18500,6,0,L|384:64,2,160,8|0|8
384,128,19795,5,8
480,128,20227,1,0
480,224,20659,1,8
384,224,21090,1,0
384,352,21522,2,4,L|192:352,1,160,4|8
96,128,22817,5,8
128,96,23033,1,0
160,64,23249,1,8
192,32,23464,1,0
224,64,23680,1,8
224,160,24112,5,0
256,192,24328,1,8
224,224,24544,1,0
256,256,24759,2,8,L|352:256,1,80,8|4
448,192,25407,5,0
448,64,25839,1,4
320,64,26270,1,0
192,64,26702,1,4
160,96,26918,1,0
128,128,27134,1,8
96,160,27349,1,0
64,192,27565,2,8,L|224:192,1,160,8|0
64,280,28429,5,0
128,280,28644,1,8
192,280,28860,1,0
312,280,29292,2,0,B|376:344|440:216|376:216,1,160,0|0
256,192,30155,1,8
96,64,31018,5,8
160,64,31234,1,0
224,64,31450,1,8
320,64,31882,1,0
416,64,32313,1,8
416,160,32745,6,8,B|512:256|352:256,1,160,8|4
288,192,33608,5,0
288,128,33824,1,8
288,64,34040,1,0
160,64,34472,1,8
160,160,34903,1,0
160,256,35335,6,0,B|288:352|352:160,1,240,8|4
384,160,36198,5,0
352,96,36414,1,8
320,32,36630,1,0
192,32,37062,1,8
96,96,37493,1,0
32,224,37925,2,8,B|96:288|182:148|352:256,1,320,8|4
384,224,39004,1,4
64,96,41378,5,8
160,96,41810,1,4
256,96,42241,2,2,B|416:96|416:256,1,240,4|4
256,320,43536,2,0,B|256:192|128:192|128:352|0:352|0:192|0:64|192:64,1,560,4|4
288,32,45479,5,8
288,96,45695,1,4
288,256,46342,2,4,B|291:368|162:369|160:224,1,240
160,192,47205,2,4,B|160:0|320:0|470:1|416:288,1,560,4|4
256,320,49148,5,8
160,320,49795,1,4
64,320,50443,2,4,B|1:98|146:70|146:70|266:35|359:119|320:288,1,640
224,224,52601,5,8
224,64,53249,1,4
384,64,53896,2,0,C|458:96|496:144|461:196|352:224,1,320,4|0
288,160,55191,5,8
224,256,55623,1,4
96,256,56054,2,8,C|54:181|48:101|96:32,1,240,8|4
224,64,57349,6,8,C|285:215|416:64|480:320,1,640,8|4
288,288,59508,6,8,C|223:351|160:288,1,160
112,304,60155,2,8,B|48:368|-8:312|32:192|56:48|168:8|320:16|472:136|480:264|456:352|320:320|248:184,1,880
352,288,62961,6,8,B|160:352|0:288|174:89|174:89,1,400,4|8
192,64,64256,2,4,B|448:65|573:327|96:320,1,640,0|4
64,232,66414,5,8
64,136,67062,1,4
64,32,67709,2,4,B|448:32|514:287|160:288,1,640
64,192,69868,5,2
64,64,70515,1,8
160,64,70947,5,2
160,192,71594,1,8
256,192,72026,5,2
256,64,72673,1,8
352,64,73105,5,2
352,192,73752,1,8
256,192,74184,5,2
256,320,74832,1,8
160,320,75263,5,2
160,192,75911,1,8
256,192,76342,5,2
256,64,76990,1,8
160,64,77421,5,2
160,160,77853,2,8,B|224:224|256:128|320:128,1,160,4|10
416,128,79364,1,8
416,224,79796,5,2
288,224,80443,1,8
288,128,80875,5,2
160,128,81522,1,8
160,224,81954,5,2
32,224,82601,1,8
32,128,83033,5,2
160,128,83680,1,8
160,224,84112,5,2
288,224,84760,1,8
288,128,85191,5,2
160,128,85839,1,8
160,224,86270,2,0,B|231:115|291:322|384:224,1,240,2|2
