osu file format v5

[General]
AudioFilename: Lia - Toki wo Kizamu Uta (TV Size).mp3
AudioLeadIn: 0
PreviewTime: -1
Countdown: 0
SampleSet: Soft
StackLeniency: 0.7
Mode: 0
LetterboxInBreaks: 1

[Metadata]
Title:Toki wo Kizamu Uta (TV Size)
Artist:Lia
Creator:Jeffro
Version:Easy
Source:Raw
Tags:

[Difficulty]
HPDrainRate:2
CircleSize:3
OverallDifficulty:3
SliderMultiplier:1.6
SliderTickRate:2

[Events]
//Background and Video events
0,0,"clannad.png"
1,-200,"Lia - Toki wo Kizamu Uta (TV Size).avi"
//Break Periods
//Storyboard Layer 0 (Background)
//Storyboard Layer 1 (Failing)
//Storyboard Layer 2 (Passing)
//Storyboard Layer 3 (Foreground)
//Storyboard Sound Samples
//Background Colour Transformations
3,100,163,162,255

[TimingPoints]
17206,863.309352517986,4,2,0,50,1
35335,863.309352517986,4,2,0,80,1
42241,863.309352517986,4,2,0,90,1
69868,863.309352517986,4,2,0,50,1

[HitObjects]
96,64,17205,1,0
192,64,17638,1,2
288,64,18070,2,0,L|288:174|288:174,3,80
192,64,19796,5,8
192,160,20228,1,2
192,256,20660,1,8
288,256,21091,1,2
288,160,21523,5,8
288,64,21955,2,2,L|224:64|224:64|192:64,1,80,2|4
192,160,22817,5,2
192,256,23250,1,8
288,256,23681,2,8,L|288:160,2,80
384,256,24976,5,8
384,160,25408,1,0
288,160,25840,1,8
192,160,26271,1,0
192,256,26702,6,8,L|288:256,2,80
192,64,28429,6,8,L|256:64,2,40
192,160,29293,1,2
288,160,29724,1,8
384,160,30156,2,0,L|384:96|384:64,1,80
288,64,31019,6,8,L|224:64,2,40
288,160,31883,1,8
384,160,32314,1,8
384,256,32746,2,0,L|384:320|352:320,1,80,2|0
288,256,33609,6,8,L|224:256,2,40
288,160,34473,1,2
192,160,34904,1,8
96,160,35336,2,2,L|96:224|96:256,1,80,2|4
192,224,36199,6,8,L|256:224,2,40,8|8|8
192,128,37063,1,8
192,32,37494,1,2
288,32,37925,6,0,B|480:64|352:224|192:288|103:272|64:224,1,480,8|4
96,64,41379,5,8
192,64,41810,1,8
288,64,42241,2,0,B|448:128|288:192|64:256|288:320|448:192,1,480,8|4
320,128,45480,6,8,B|320:64,1,40,8|8
448,128,46342,2,0,B|448:320|288:320|96:320|96:256,1,440,8|4
128,192,49149,5,8
256,192,49796,1,2
384,192,50443,2,8,B|384:32|128:32,1,320,8|4
64,64,52601,6,4,B|64:288|352:288,1,400,8|0
384,192,55192,5,8
384,96,55624,1,2
288,96,56054,2,0,B|96:32|0:160|160:256|448:192,1,560,8|2
448,288,59508,6,0,B|64:376|416:1|32:64,1,560,8|2
32,160,62961,6,0,B|160:448|224:224|267:8|448:192,1,560,8|2
448,96,66415,5,8
288,96,67063,1,2
288,224,67709,2,2,B|128:320|95:306|64:128,1,320,8|2
128,64,69868,6,2,L|256:64,1,120,2|10
384,64,70947,6,0,L|384:192,1,120,0|8
224,192,72026,6,0,L|96:192,1,120,2|8
96,320,73105,6,0,L|224:320,1,120,2|8
352,320,74184,6,0,L|480:320,1,120,2|8
448,192,75263,6,0,L|320:192,1,120,2|8
192,192,76342,6,0,L|64:192,1,120,2|8
96,64,77421,6,0,B|288:64,1,160,2|10
384,64,78716,6,0,L|384:192,1,120,2|8
224,192,79796,6,2,L|96:192,1,120,2|8
160,320,80875,6,0,L|288:320,1,120,2|8
416,320,81954,6,2,L|416:192,1,120,2|8
256,192,83033,6,8,L|128:192,1,120,2|8
96,64,84112,6,2,L|224:64,1,120,2|8
352,64,85191,6,8,L|352:192,1,120,2|8
256,288,86270,2,0,B|111:307|65:197|192:160,1,240,2|2
