osu file format v5

[General]
AudioFilename: Lia - toki wo kizamu uta.mp3
AudioLeadIn: 0
PreviewTime: -1
Countdown: 1
SampleSet: Soft
StackLeniency: 0
Mode: 0
LetterboxInBreaks: 1
EditorBookmarks: 109099

[Metadata]
Title:Toki wo Kizamu Uta
Artist:Lia
Creator:Kirisame
Version:Hard
Source:CLANNAD After
Tags:Lia Kirisame

[Difficulty]
HPDrainRate:8
CircleSize:6
OverallDifficulty:7
SliderMultiplier:1
SliderTickRate:2

[Events]
//Background and Video events
0,0,"102.jpg"
//Break Periods
2,108759,120093
2,186034,187440
2,245818,253267
//Storyboard Layer 0 (Background)
//Storyboard Layer 1 (Failing)
//Storyboard Layer 2 (Passing)
//Storyboard Layer 3 (Foreground)
//Storyboard Sound Samples
//Background Colour Transformations
3,100,163,162,255

[TimingPoints]
16408,431.654676258993,4,2,0,80,1

[Colours]
Combo1 : 255,174,53
Combo2 : 75,147,254
Combo3 : 80,80,80
Combo4 : 205,205,205

[HitObjects]
408,113,16623,1,0
373,147,16839,1,0
337,179,17055,1,0
301,213,17271,1,0
266,248,17487,2,0,C|250:266|213:235|226:212,1,100
258,177,18134,1,0
290,139,18350,1,0
326,105,18566,1,0
363,71,18782,1,0
264,54,19213,5,0
163,54,19645,1,0
163,153,20076,1,0
262,160,20508,1,0
347,107,20940,1,0
396,109,21156,1,0
445,110,21371,1,0
448,310,22235,5,0
397,309,22451,1,0
347,311,22666,1,0
297,313,22882,1,0
246,312,23098,2,0,C|198:311|140:274,1,100
119,247,23746,1,0
101,200,23961,1,0
112,151,24177,1,0
143,111,24393,1,0
242,117,24825,5,0
341,114,25256,1,0
347,217,25688,1,0
246,217,26120,1,0
78,175,26551,1,0
119,176,26767,1,0
160,176,26983,1,0
318,298,27846,5,2
282,263,28062,1,2
243,230,28278,1,2
167,164,28710,1,2
242,229,29141,1,2
165,164,29573,2,2,C|79:82,1,100
173,36,30436,5,2
211,67,30652,1,2
250,97,30868,1,2
325,162,31299,1,2
248,97,31731,1,2
325,162,32163,2,2,C|369:201,1,50
261,306,33026,5,2
261,255,33242,1,2
262,204,33458,1,2
262,104,33889,1,2
263,204,34321,1,2
261,103,34753,1,2
439,192,35616,5,2
388,192,35832,1,2
337,192,36048,1,2
237,191,36479,1,2
337,192,36911,1,2
236,193,37343,2,2,C|178:171|117:210|56:183,1,200
347,101,39501,5,2
384,134,39717,1,2
400,181,39933,1,2
396,230,40148,1,2
363,268,40364,2,2,C|349:293|287:293|275:266,1,100
252,247,41012,1,2
243,197,41228,1,2
250,147,41443,1,2
270,101,41659,2,2,C|315:63|367:54,1,100
453,73,42523,1,2
454,172,42954,1,2
354,176,43386,1,2
354,76,43818,2,2,C|302:86|259:130,1,100
134,267,45112,5,2
168,231,45328,1,2
202,194,45544,1,2
242,223,45760,1,2
279,256,45976,2,2,C|330:228|357:175,1,100
313,156,46623,1,2
273,125,46839,1,2
312,93,47055,1,2
351,61,47271,2,2,C|393:49|433:64|452:87,2,100
250,62,48566,1,2
251,161,48997,2,2,C|252:220,1,50
254,261,49429,2,2,C|254:317,1,50
257,361,49861,1,2
62,314,50724,5,2
99,280,50940,1,2
137,247,51156,1,2
215,185,51587,1,2
297,128,52019,1,2
366,56,52451,2,2,C|419:61|463:112,1,100
447,194,53314,5,2
396,195,53530,1,2
345,195,53746,1,2
245,197,54177,1,2
345,195,54609,1,2
244,198,55041,1,2
257,355,55904,5,2
256,306,56120,1,2
255,257,56335,1,2
255,159,56767,1,2
255,256,57199,1,2
256,158,57630,1,2
449,189,58494,5,2
400,190,58710,1,2
351,190,58925,1,2
253,190,59357,1,2
350,190,59789,1,2
253,190,60220,2,2,C|172:189|122:157|96:83,1,200
93,53,61300,1,2
423,188,63674,5,2
305,188,64105,1,2
187,181,64537,2,2,C|132:174|97:192|67:243,1,150
196,359,65832,2,2,C|278:342|345:302|387:228|369:115,1,350
311,27,67774,5,2
271,69,67990,2,2,C|225:128|235:221,2,150
312,27,69501,2,2,C|386:68|422:163|394:282,1,300
220,272,71443,6,2,C|141:266|81:221,1,150
254,272,72738,2,2,C|315:264|372:228|414:161|400:67|307:5,1,400
206,17,74897,6,2,C|135:38|80:108,2,150
168,128,76623,1,2
116,233,77055,1,2
61,338,77487,5,2
138,234,77918,1,2
227,176,78350,2,2,C|268:145|305:128|371:114,2,150
332,228,80076,1,2
449,228,80508,1,2
384,130,80940,2,0,C|383:89,5,25
295,131,81803,6,2,C|263:90|215:68|152:74,2,150
326,180,83314,2,2,C|350:232|355:280|336:327,1,150
221,325,84393,2,0,C|182:325,5,25
221,241,85256,6,2,C|278:240|310:208|306:153,3,150
300,104,87415,1,2
182,107,87846,1,2
123,108,88062,1,2
65,116,88278,1,2
68,232,88710,6,2,C|104:289|183:323,1,150
256,192,90005,12,0,91731
119,98,92163,5,0
136,135,92379,1,0
161,162,92594,1,0
192,188,92810,1,0
232,197,93026,1,0
273,196,93242,5,6
312,187,93458,1,2
347,165,93674,1,2
377,136,93889,1,2
380,95,94105,1,2
359,59,94321,5,4
320,44,94537,1,0
279,42,94753,1,0
247,68,94969,1,0
225,102,95184,1,0
227,143,95400,5,6
233,183,95616,1,2
256,216,95832,1,2
291,237,96048,1,2
328,253,96264,1,2
369,250,96479,5,4
400,224,96695,1,0
409,183,96911,1,0
383,150,97127,1,0
343,137,97343,1,0
302,137,97558,5,6
264,153,97774,1,2
233,180,97990,1,2
203,208,98206,1,2
185,244,98422,1,2
187,285,98638,5,4
213,316,98853,1,0
252,325,99069,1,0
291,313,99285,1,0
314,279,99501,1,0
305,238,99717,5,6
286,201,99933,1,2
258,170,100148,1,2
220,152,100364,1,2
183,133,100580,1,2
106,103,101012,5,6
138,78,101228,1,0
179,74,101443,1,2
219,82,101659,1,0
252,105,101875,1,2
280,134,102091,5,6
293,172,102307,1,2
286,212,102523,1,0
259,243,102738,1,2
221,258,102954,1,2
180,253,103170,5,6
149,225,103386,1,2
145,184,103602,1,0
172,153,103817,1,2
211,140,104033,1,0
248,157,104249,5,4
277,185,104465,1,0
305,213,104681,1,0
318,251,104897,1,4
317,292,105112,1,0
291,323,105328,5,6
249,320,105544,1,2
212,298,105760,1,2
195,260,105976,1,2
205,220,106192,1,2
236,194,106407,5,4
273,177,106623,1,0
313,181,106839,1,0
352,192,107055,1,0
384,217,107271,1,0
394,256,107487,5,6
373,291,107702,1,2
332,298,107918,1,2
293,283,108134,1,2
280,244,108350,1,2
286,203,108566,1,2
377,127,121299,5,0
349,168,121515,1,0
320,208,121731,1,0
293,250,121947,1,0
260,289,122163,2,0,C|215:318|152:302,1,100
141,267,122810,1,0
132,215,123026,1,0
144,166,123242,1,0
176,128,123458,2,0,C|189:81|232:41,1,100
307,105,124321,1,0
388,46,124753,1,0
459,116,125184,2,0,C|451:161|402:185,1,100
356,202,125832,1,0
310,223,126048,1,0
123,295,126911,5,0
98,251,127127,1,0
93,201,127343,1,0
119,158,127558,1,0
150,118,127774,2,0,C|193:93|238:114,1,100
270,152,128422,1,0
289,199,128638,1,0
278,246,128853,1,0
251,288,129069,1,0
197,203,129501,1,0
197,303,129933,1,0
197,203,130364,1,0
196,303,130796,1,0
198,202,131228,1,0
198,301,131659,1,0
378,214,132523,5,0
366,165,132738,1,0
340,121,132954,2,0,C|311:90|252:55,1,100
161,58,133817,1,0
75,109,134249,2,0,C|39:149|15:206|47:300,1,200
87,303,135328,5,0
129,328,135544,2,0,C|173:343|239:346,1,100
322,316,136407,1,0
392,244,136839,2,0,C|431:194,1,50
390,58,137702,5,0
341,69,137918,1,0
294,85,138134,2,0,C|245:114|207:166,1,100
172,236,138997,1,0
79,197,139429,2,0,C|48:249|53:292,1,100
136,342,140292,5,0
180,320,140508,1,0
210,280,140724,2,0,C|244:240|260:182,1,100
258,97,141587,2,0,C|355:57|443:77|497:171,1,300
256,192,143098,12,0,144609
450,194,145472,5,2
357,123,145904,1,2
255,65,146336,2,0,C|186:32|92:43,2,150
259,182,148062,1,2
262,299,148494,1,2
258,181,148925,2,0,C|257:148,4,25
317,184,149573,5,2
375,184,149789,2,0,C|438:185|464:159|474:97,1,150
295,107,151084,1,0
236,107,151300,2,0,C|189:111|128:126|65:169|41:228|54:309|63:338,1,350
168,366,153242,6,0,C|229:367|278:358|313:332,2,150
164,247,154969,5,2
164,129,155400,1,2
281,131,155832,1,2
282,189,156048,1,2
282,247,156264,1,2
340,249,156479,5,0
340,190,156695,2,0,C|342:131|360:93|398:55,2,150
15,330,159285,5,0
118,273,159717,1,0
217,209,160149,2,0,C|288:158|360:154,2,150
334,212,161875,5,0
335,329,162307,1,0
217,332,162738,2,0,C|216:291,4,25
217,272,163386,5,0
216,213,163602,2,0,C|216:154|259:124|316:105,2,150
218,272,165113,1,0
394,273,165760,5,0
392,155,166192,2,0,C|394:196,5,25
391,91,167055,5,0
250,198,167702,1,0
106,302,168350,2,0,C|402:79,1,350
445,192,170292,5,0
386,192,170508,1,0
209,194,171156,1,0
32,195,171803,2,0,C|494:195,1,450
483,253,173961,5,2
339,149,174609,1,2
193,48,175256,1,2
64,169,175904,1,2
179,302,176551,2,0,C|207:280,5,25
262,224,177415,5,2
438,226,178062,1,2
439,49,178710,1,2
262,40,179357,1,2
263,216,180005,2,0,C|263:252,5,25
264,329,180868,5,2
87,329,181515,1,2
88,152,182163,1,2
264,155,182810,1,2
440,155,183458,1,0
395,193,183674,1,2
354,235,183890,1,0
308,272,184105,1,2
260,306,184321,1,0
83,307,184969,5,2
223,199,185616,1,2
272,167,185832,1,2
73,83,188638,5,0
246,188,189501,1,0
420,291,190364,2,0,C|275:206,2,150
288,214,192307,5,2
164,124,192954,2,0,C|130:95,4,25
204,155,193602,5,0
239,190,193818,2,0,C|274:256|249:335,2,150
204,152,195328,1,0
87,53,195976,5,2
91,154,196408,1,2
92,204,196623,1,2
92,254,196839,1,2
193,258,197271,5,0
314,166,197918,1,0
256,192,198566,12,0,200077
457,318,200724,5,0
331,232,201372,1,0
202,150,202019,2,0,C|115:81,1,100
94,288,203314,5,0
181,235,203746,1,0
267,182,204177,2,0,C|403:89,2,150
373,291,206120,6,0,C|245:190,1,150
173,138,207199,1,2
217,113,207415,5,0
266,102,207631,2,0,C|331:88|426:110,2,150
216,113,209141,1,0
107,178,209789,5,2
178,250,210220,1,2
243,172,210652,1,2
311,246,211084,6,0,C|302:185|342:92,1,150
488,101,212379,2,0,C|527:170|498:289|310:328,1,400
260,331,214321,5,0
209,334,214537,2,0,C|131:312|87:239,1,150
43,112,215832,2,0,C|78:55|125:29|216:43,1,200
317,65,217127,5,0
388,159,217559,1,0
351,271,217990,2,0,C|328:311|287:343|228:359,2,150
232,263,219717,5,8
113,261,220149,1,2
231,263,220580,1,8
112,260,221012,1,2
140,207,221228,5,0
178,161,221443,2,0,C|242:115|311:91,2,150,8|8|8
140,208,222954,1,2
223,291,223386,5,8
335,329,223818,1,8
439,273,224249,1,8
460,217,224465,1,2
450,158,224681,1,8
425,104,224897,6,6,C|376:58|282:40,2,150,8|8|8
391,217,226623,5,8
355,264,226839,1,2
296,271,227055,1,8
224,176,227487,5,8
262,131,227702,1,2
320,119,227918,1,8
378,126,228134,5,8
431,151,228350,2,0,C|468:207|444:303,2,150,8|8|8
371,253,230077,5,8
372,134,230508,1,10
253,134,230940,1,8
256,252,231372,1,10
137,252,231803,1,8
137,133,232235,1,10
255,133,232666,5,2
314,134,232882,1,2
432,131,233314,1,8
434,190,233530,1,2
435,249,233746,1,8
316,251,234177,1,8
256,251,234393,1,2
196,251,234609,1,10
136,251,234825,1,8
55,164,235256,6,10,C|108:116|198:96,2,150,0|8|0
40,221,236767,1,8
51,280,236983,5,8
85,330,237199,1,2
142,346,237415,1,8
201,346,237631,1,8
262,339,237846,1,8
319,323,238062,1,8
359,280,238278,1,8
445,198,238710,6,0,C|453:155|440:80,1,100
400,59,239357,2,0,C|361:43|287:43,1,100
261,85,240005,2,0,C|232:155|231:221|260:279|327:360,1,300
425,208,241947,5,0
402,153,242163,2,0,C|379:118|318:100,1,100
266,85,242810,2,0,C|217:73|146:84,1,100
117,111,243458,2,0,C|78:147|67:201,1,100
256,192,244105,12,0,245616
66,314,254465,5,2
114,310,254681,1,2
156,287,254897,1,2
194,257,255113,1,2
216,214,255328,1,2
230,167,255544,5,4
222,118,255760,1,0
203,73,255976,1,0
158,53,256192,1,0
116,78,256408,1,0
96,122,256623,5,4
119,164,256839,1,2
161,186,257055,1,2
208,197,257271,1,2
256,191,257487,1,2
300,172,257702,5,4
335,139,257918,1,0
342,90,258134,1,0
331,42,258350,1,0
297,7,258566,1,0
249,15,258782,5,4
233,60,258997,1,2
250,105,259213,1,2
283,139,259429,1,2
326,160,259645,1,2
366,186,259861,5,4
410,205,260077,1,0
458,209,260292,1,0
495,177,260508,1,0
499,128,260724,1,0
474,86,260940,5,4
425,82,261156,1,2
383,107,261372,1,2
347,140,261587,1,2
319,179,261803,1,2
307,226,262019,5,4
311,274,262235,1,2
336,315,262451,1,2
378,338,262666,1,2
425,347,262882,1,2
501,286,263314,5,0
490,238,263530,1,2
458,201,263746,1,0
412,185,263961,1,2
364,177,264177,1,0
317,191,264393,5,4
277,219,264609,1,0
244,254,264825,1,0
220,296,265041,1,0
234,342,265256,1,0
276,365,265472,5,4
318,341,265688,1,0
332,294,265904,1,0
327,245,266120,1,2
292,211,266336,1,2
249,187,266551,5,4
200,179,266767,1,0
151,177,266983,1,2
122,215,267199,1,4
119,263,267415,1,2
154,296,267631,5,4
201,287,267846,1,0
231,249,268062,1,2
226,200,268278,1,0
210,153,268494,1,2
177,116,268710,5,4
133,94,268925,1,0
88,114,269141,1,2
85,162,269357,1,2
123,191,269573,1,2
171,190,269789,5,4
217,176,270005,1,0
262,159,270220,1,2
300,128,270436,1,2
318,83,270652,1,0
335,37,270868,2,0,C|299:21|251:17|196:38|144:91|113:148|102:222|120:323,1,450
