osu file format v5

[General]
AudioFilename: Lia - Toki o Kizamu Uta.mp3
AudioLeadIn: 0
PreviewTime: -1
Countdown: 1
SampleSet: Soft
StackLeniency: 0.7
Mode: 0
LetterboxInBreaks: 1
EditorBookmarks: 0,69624

[Metadata]
Title:Toki o Kizamu Uta (TV Size)
Artist:Lia
Creator:SecksyJennie
Version:Hard
Source:
Tags:

[Difficulty]
HPDrainRate:6
CircleSize:5
OverallDifficulty:7
SliderMultiplier:1.4
SliderTickRate:1

[Events]
//Background and Video events
0,0,"20080327_clannad01 copy.jpg"
//Break Periods
//Storyboard Layer 0 (Background)
//Storyboard Layer 1 (Failing)
//Storyboard Layer 2 (Passing)
//Storyboard Layer 3 (Foreground)
//Storyboard Sound Samples
//Background Colour Transformations
3,100,163,162,255

[TimingPoints]
2733,428.663284989641,4,2,0,100,1
17074,431.654676258993,4,2,0,100,1

[Colours]
Combo1 : 255,0,185
Combo2 : 255,128,192
Combo3 : 255,128,255
Combo4 : 255,0,255

[HitObjects]
448,32,2733,5,0
416,32,2947,1,2
384,32,3161,1,0
352,32,3375,1,0
320,32,3590,1,2
288,32,3804,1,0
256,32,4018,1,0
224,32,4233,1,2
192,32,4447,1,0
160,32,4661,1,0
128,32,4876,1,2
96,32,5090,1,0
64,32,5304,1,0
32,96,5733,1,2
64,160,6162,5,0
96,160,6376,1,2
128,160,6590,1,0
160,160,6805,1,0
192,160,7019,1,2
224,160,7233,1,0
256,160,7448,1,0
288,160,7662,1,2
320,160,7876,1,0
352,160,8091,1,0
384,160,8305,1,2
416,160,8519,1,0
448,160,8734,1,0
480,224,9162,1,2
448,288,9591,5,0
416,288,9805,1,2
384,288,10020,1,0
352,288,10234,1,0
320,288,10448,1,2
288,288,10663,1,0
256,288,10877,1,0
224,288,11091,1,2
192,288,11306,1,0
160,288,11520,1,0
128,288,11734,1,2
96,288,11949,1,0
64,288,12163,1,0
0,320,12592,1,2
64,352,13020,5,0
96,352,13235,1,2
128,352,13449,1,0
160,352,13663,1,0
192,352,13878,1,2
224,352,14092,1,0
256,352,14306,1,0
288,352,14521,1,2
64,128,17074,5,0
96,160,17289,1,0
128,192,17505,1,0
160,224,17721,1,0
192,256,17937,1,0
320,256,18368,1,0
352,224,18584,1,0
384,192,18800,1,0
416,160,19016,1,0
448,128,19232,1,0
416,64,19663,1,2
352,64,20095,1,0
288,64,20527,1,2
224,64,20958,1,0
160,64,21390,1,2
96,64,21822,1,0
448,128,22685,5,0
416,160,22901,1,0
384,192,23117,1,0
352,224,23332,1,0
320,256,23548,1,0
192,256,23980,1,0
160,224,24196,1,0
128,192,24412,1,0
96,160,24627,1,0
64,128,24843,1,0
160,64,25275,1,2
256,64,25707,1,2
352,64,26138,1,2
384,144,26570,1,0
352,176,26786,1,0
384,208,27002,1,0
352,240,27217,1,0
384,272,27433,1,0
64,192,28297,5,0
96,192,28512,1,0
128,192,28728,1,0
224,192,29160,1,2
320,192,29591,1,2
416,192,30023,1,2
448,288,30886,5,0
416,288,31102,1,0
384,288,31318,1,0
288,288,31750,1,2
192,288,32181,1,2
96,288,32613,1,2
64,192,33476,5,0
96,192,33692,1,0
128,192,33908,1,0
224,192,34340,1,2
320,192,34771,1,2
416,192,35203,1,2
448,96,36066,5,0
416,96,36282,1,0
384,96,36498,1,0
288,96,36930,1,2
192,96,37361,1,2
160,176,37793,2,0,B|448:176,1,280
472,144,38872,2,0,B|310:58|-28:305|376:240,1,490
400,192,41246,5,0
304,192,41678,1,0
208,192,42109,1,0
48,192,42757,1,0
48,72,43404,2,0,B|465:73|305:200|16:208,1,560,2|0
32,256,45347,5,0
64,256,45563,1,0
192,256,46210,2,0,B|416:256,1,210
448,256,47074,2,0,B|448:32|20:321|480:320,1,490
480,224,49016,5,0
384,128,49663,1,0
480,32,50311,2,0,B|32:32|24:240|224:224,1,560,2|0
288,224,52469,5,0
384,320,53117,1,0
480,224,53764,2,0,B|320:64,1,210
288,160,55059,5,0
224,160,55491,1,0
160,160,55922,1,0
32,160,56570,1,0
32,64,57217,2,0,B|480:64|320:192|64:224,1,560,2|0
32,288,59376,5,0
192,288,60023,1,0
352,288,60671,1,0
400,288,60886,2,0,B|-25:289|210:96|368:96,1,490
288,32,62829,5,0
160,32,63476,1,0
16,32,64124,2,0,B|513:40|236:151|80:224,1,560,2|0
240,224,66282,5,0
368,128,66930,1,0
480,32,67577,2,0,B|64:32|192:192|416:288,1,560,2|0
480,224,69735,5,2
448,256,69951,1,0
416,288,70167,1,0
384,288,70383,1,2
352,256,70599,1,0
320,224,70815,5,2
288,224,71030,1,0
256,224,71246,1,0
224,192,71462,1,2
256,160,71678,1,0
288,128,71894,5,2
320,96,72109,1,0
288,64,72325,1,0
256,64,72541,1,2
224,64,72757,1,0
192,64,72973,5,2
160,96,73189,1,0
160,128,73404,1,0
160,160,73620,1,2
128,192,73836,1,0
96,224,74052,5,2
64,256,74268,1,0
96,288,74484,1,0
128,320,74699,1,2
160,320,74915,1,0
192,320,75131,5,2
224,288,75347,1,0
256,256,75563,1,0
288,256,75779,1,2
320,256,75994,1,0
352,224,76210,5,2
384,192,76426,1,0
384,160,76642,1,0
352,128,76858,1,2
320,128,77074,1,0
288,128,77289,5,2
256,128,77505,1,0
224,128,77721,1,2
192,128,77937,1,0
192,160,78153,6,0,B|96:288,1,140,0|2
96,256,78800,1,0
64,224,79016,1,0
32,192,79232,1,2
32,160,79448,1,0
32,128,79663,5,2
64,96,79879,1,0
96,64,80095,1,0
128,64,80311,1,2
160,64,80527,1,0
192,64,80743,5,2
224,64,80958,1,0
256,96,81174,1,0
288,128,81390,1,2
288,160,81606,1,0
288,192,81822,5,2
288,224,82038,1,0
320,256,82253,1,0
352,288,82469,1,2
384,288,82685,1,0
416,256,82901,5,2
416,224,83117,1,0
384,192,83332,1,0
352,192,83548,1,2
320,192,83764,1,0
288,192,83980,5,2
256,192,84196,1,0
224,192,84412,1,0
192,160,84627,1,2
160,128,84843,1,0
160,96,85059,5,2
192,64,85275,1,0
224,64,85491,1,0
256,64,85707,1,2
288,64,85922,1,0
320,64,86138,2,0,B|416:224|128:224|48:80,1,420,2|0
