osu file format v5

[General]
AudioFilename: Lia - Toki o Kizamu Uta.mp3
AudioLeadIn: 0
PreviewTime: -1
Countdown: 1
SampleSet: Soft
StackLeniency: 0.7
Mode: 0
LetterboxInBreaks: 1
EditorBookmarks: 0,69624

[Metadata]
Title:Toki o Kizamu Uta (TV Size)
Artist:Lia
Creator:SecksyJennie
Version:Easy
Source:
Tags:

[Difficulty]
HPDrainRate:3
CircleSize:2
OverallDifficulty:3
SliderMultiplier:1.4
SliderTickRate:1

[Events]
//Background and Video events
0,0,"20080327_clannad01 copy.jpg"
//Break Periods
//Storyboard Layer 0 (Background)
//Storyboard Layer 1 (Failing)
//Storyboard Layer 2 (Passing)
//Storyboard Layer 3 (Foreground)
//Storyboard Sound Samples
//Background Colour Transformations
3,100,163,162,255

[TimingPoints]
17074,431.654676258993,4,2,0,100,1

[Colours]
Combo1 : 255,0,185
Combo2 : 255,128,192
Combo3 : 255,128,255
Combo4 : 255,0,255

[HitObjects]
192,192,17074,2,0,B|96:192,4,70
320,192,18368,2,0,B|416:192,4,70
384,96,19663,2,0,B|224:96,2,140
448,160,20958,1,2
448,256,21390,1,2
448,352,21822,1,2
320,160,22685,6,0,B|320:256,4,70
192,160,23980,2,0,B|192:256,4,70
192,64,25275,2,2,B|352:64,2,140
96,64,26570,2,0,B|96:160,4,70
128,192,28297,6,0,B|32:192,2,70
224,192,29160,1,2
320,192,29591,1,2
416,192,30023,1,2
384,288,30886,6,0,B|480:288,2,70,0|0|0
288,288,31750,1,2
192,288,32181,1,2
96,288,32613,1,2
128,192,33476,6,0,B|32:192,2,70
224,192,34340,1,2
320,192,34771,1,2
416,192,35203,1,2
384,96,36066,6,0,B|480:96,2,70
288,96,36930,1,2
192,96,37361,1,2
160,192,37793,2,0,B|448:192,1,280
480,160,38872,2,0,B|318:74|-20:321|384:256,1,490
448,192,41246,5,0
352,192,41678,1,0
256,192,42109,1,0
96,192,42757,1,0
64,64,43404,2,0,B|481:65|321:192|32:192,1,560,2|0
32,256,45347,6,0,B|128:256,1,70
224,256,46210,2,0,B|448:256,1,210
480,256,47074,2,0,B|480:32|52:321|512:320,1,490
480,224,49016,5,0
480,128,49663,1,0
480,32,50311,2,0,B|32:32|24:240|224:224,1,560,2|0
288,224,52469,5,0
384,224,53117,1,0
480,224,53764,2,0,B|320:64,1,210
288,160,55059,5,0
224,160,55491,1,0
160,160,55922,1,0
32,160,56570,1,0
32,64,57217,2,0,B|480:64|320:192|64:224,1,560,2|0
32,288,59376,5,0
192,288,60023,1,0
352,288,60671,1,0
416,288,60886,2,0,B|-9:289|226:96|384:96,1,490
288,32,62829,5,0
160,32,63476,1,0
32,32,64124,2,0,B|480:32|277:113|32:240,1,560,2|0
192,224,66282,5,0
352,128,66930,1,0
480,32,67577,2,0,B|64:32|192:192|416:288,1,560,2|0
480,320,69735,5,0
344,320,70383,1,0
256,320,70815,1,2
152,232,71462,1,0
64,232,71894,1,2
152,128,72541,1,0
240,128,72973,1,2
352,56,73620,1,0
440,56,74052,5,2
352,160,74699,1,0
440,160,75131,1,2
352,264,75779,1,0
264,264,76210,1,2
352,168,76858,1,0
352,80,77289,2,0,B|248:40|128:88,1,210,2|0
128,216,78584,5,0
248,280,79232,1,0
248,192,79663,1,2
352,280,80311,1,0
352,192,80743,1,2
456,280,81390,1,0
456,192,81822,1,2
456,56,82469,1,2
368,56,82901,5,2
368,192,83548,1,0
280,192,83980,1,2
280,56,84627,1,0
280,144,85059,1,2
368,56,85707,1,0
368,144,86138,2,0,B|464:304|176:304|80:144,1,420,2|0
