osu file format v5

[General]
AudioFilename: 02..mp3
AudioLeadIn: 0
PreviewTime: 34101
Countdown: 0
SampleSet: Normal
StackLeniency: 0.2
Mode: 0
LetterboxInBreaks: 1

[Editor]
Bookmarks: 172160,183189,216608,217931,218483,222233,224218,234144,242747,257306
DistanceSpacing: 0.800000011920929
BeatDivisor: 4
GridSize: 8

[Metadata]
Title:Tazunebito
Artist:Lia
Creator:v2b
Version:Hoshi
Source:Hoshiuta
Tags:

[Difficulty]
HPDrainRate:5
CircleSize:5
OverallDifficulty:8
SliderMultiplier:2.6
SliderTickRate:2

[Events]
//Background and Video events
0,0,"hoshiuta.jpg"
//Break Periods
2,104007,117175
2,183419,189528
//Storyboard Layer 0 (Background)
//Storyboard Layer 1 (Fail)
//Storyboard Layer 2 (Pass)
//Storyboard Layer 3 (Foreground)
//Storyboard Sound Samples
//Background Colour Transformations
3,100,0,128,192

[TimingPoints]
24396,441.176470588235,4,1,0,50,1,0
68404,-100,4,1,0,20,0,0
68680,-100,4,1,0,30,0,0
68901,-100,4,1,0,40,0,0
69342,-100,4,1,0,60,0,0
69562,-100,4,1,0,70,0,0
69783,-100,4,1,0,80,0,0
70003,-100,4,1,0,90,0,0
70224,-100,4,2,0,90,0,0
71934,-100,4,1,0,80,0,0
83184,-200,4,1,0,80,0,0
84176,-200,4,2,0,80,0,0
86051,-100,4,1,0,80,0,0
117043,-100,4,1,0,60,0,0
147815,-100,4,1,0,20,0,0
148091,-100,4,1,0,30,0,0
148311,-100,4,1,0,40,0,0
148532,-100,4,1,0,50,0,0
148752,-100,4,1,0,60,0,0
148973,-100,4,1,0,70,0,0
149194,-100,4,1,0,80,0,0
149414,-100,4,1,0,90,0,0
149635,-100,4,2,0,90,0,0
151344,-100,4,1,0,80,0,0
162594,-200,4,1,0,80,0,0
163587,-200,4,2,0,80,0,0
165462,-100,4,1,0,80,0,0
183219,-100,4,1,0,0,0,0
189837,1764.70588235294,4,2,0,40,1,0
214763,441.176470588235,4,1,0,40,1,0
216858,-100,4,1,0,60,0,0
218733,-100,4,1,0,80,0,0
219615,-100,4,1,0,100,0,0
220222,-100,4,2,0,90,0,0
221160,-100,4,1,0,90,0,0
233292,-200,4,1,0,90,0,0
234174,-200,4,2,0,90,0,0
236049,-100,4,1,0,90,0,0

[Colours]
Combo1 : 128,0,64
Combo2 : 0,85,85
Combo3 : 128,128,255
Combo4 : 255,128,255
Combo5 : 192,89,33

[HitObjects]
288,312,38513,6,0,B|360:336|496:312,2,195,4|0|0
200,256,39396,1,0
128,176,39616,1,0
144,72,39837,1,0
240,32,40058,5,0
240,32,40168,1,0
240,32,40278,2,0,B|376:48|440:120,2,195
144,72,41161,1,0
72,152,41381,1,0
72,256,41602,1,4
264,336,42043,5,0
368,320,42263,1,0
296,240,42484,1,0
400,224,42705,1,0
440,128,42925,2,0,B|376:80|296:88,1,130
319,86,43256,2,0,B|192:128|104:88,1,195
32,136,43808,2,0,B|16:232|64:288,2,130
96,56,44469,2,0,B|232:16|360:48,1,260
448,88,45131,1,0
480,184,45352,2,0,B|504:256,2,65,0|0|4
304,304,46013,6,0,B|240:336|144:328,1,130
96,264,46455,2,0,B|216:184|352:216,1,260
448,224,47116,1,0
488,128,47337,2,0,B|256:-32|0:144,1,520
40,240,48440,6,0,B|64:304|128:344,2,130
112,160,49102,1,0
112,160,49212,1,0
112,160,49322,2,0,B|184:192|248:176,2,130
112,160,49874,2,0,B|200:104|200:56,1,130
198,66,50205,2,0,B|256:24|344:32,1,130
424,48,50646,5,0
424,48,50756,1,0
424,48,50866,2,0,B|488:128|472:240,2,195,4|0|0
336,104,51749,2,0,B|288:176|320:304,2,195,4|0|0
440,104,52631,6,0,B|400:200|256:248,2,195,4|0|0
360,40,53513,1,0
336,48,53624,1,0
312,56,53734,1,0
216,88,53955,1,0
112,80,54175,5,0
112,80,54286,1,0
112,80,54396,2,0,B|40:184|56:288,2,195
184,152,55278,1,0
200,168,55388,1,0
216,184,55499,1,0
288,256,55719,1,0
288,256,56161,1,4
360,328,56381,6,0,B|448:224,1,130
472,328,56822,2,0,B|304:200|352:88,1,260
344,8,57484,2,0,B|344:96|272:152,1,130
296,232,57925,2,0,B|288:96|216:56,2,195
264,328,58808,2,0,B|120:320|40:192,1,260,0|4
72,96,59469,5,0
72,96,59580,1,0
72,96,59690,2,0,B|200:40,1,130
272,112,60131,2,0,B|440:128,1,130
360,216,60572,2,0,B|456:256|512:336,2,195
256,216,61455,2,0,B|160:256|104:336,2,195
309,305,62337,2,0,B|309:41,1,260,0|4
104,80,63219,5,0
256,120,63550,1,0
408,80,63881,2,0,B|464:208|408:352,1,260
312,336,64543,1,0
208,328,64763,1,0
104,304,64984,2,0,B|64:208|112:72,2,195
192,248,65866,1,0
280,192,66087,1,0
368,136,66308,1,4
256,64,66528,5,0
256,64,66638,1,0
256,64,66749,1,4
96,336,67080,1,4
416,336,67411,1,4
256,320,67631,5,4
416,48,67962,1,4
96,48,68293,1,4
256,192,68513,5,0
256,192,68624,1,0
256,192,68734,1,0
256,192,68844,1,0
256,192,68955,1,0
256,192,69065,1,0
256,192,69175,1,0
256,192,69286,1,0
256,192,69396,1,0
256,192,69506,1,0
256,192,69616,1,0
256,192,69727,1,0
256,192,69837,1,0
256,192,69947,1,0
256,192,70058,1,0
256,192,70168,1,0
256,192,70278,6,0,B|256:120,2,65
256,352,70719,2,0,B|320:312|360:256,1,130
384,224,71050,1,0
400,176,71161,1,0
400,120,71271,1,0
384,72,71381,2,0,B|368:24,8,32.5
280,40,72043,6,0,B|104:40,1,130,4|0
104,136,72484,2,0,B|240:136,1,130
336,136,72925,2,0,B|424:192|440:304,2,195
344,144,73808,1,0
344,144,73918,1,0
344,144,74028,1,0
248,80,74249,6,0,B|176:112|152:208,1,130
162,173,74580,2,0,B|144:304|32:352,1,195
24,240,75131,2,0,B|32:168|96:112,1,130
160,64,75572,1,0
256,32,75793,1,0
360,48,76013,1,0
368,56,76234,1,0
368,56,76344,1,0
368,56,76455,2,0,B|472:112|480:224,2,195,4|0|4
344,152,77337,2,0,B|240:112|232:-8,2,195,4|0|4
424,216,78219,5,0
392,312,78440,1,0
288,336,78661,1,0
192,304,78881,1,0
128,224,79102,2,0,B|64:104,1,130
160,64,79543,2,0,B|232:200,1,130
220,178,79874,2,0,B|312:232|432:168,1,195
416,72,80425,2,0,B|352:32|272:72,2,130
456,168,81087,5,0
456,272,81308,1,0
368,328,81528,2,0,B|240:344|112:264,1,260
64,176,82190,1,0
80,72,82411,1,0
168,16,82631,2,0,B|320:16|440:72,1,260
400,168,83293,2,0,B|304:128|128:144,1,260,4|0
143,142,84286,1,2
143,142,84396,6,0,B|104:184|96:248,1,97.5,2|0
168,320,85058,2,0,B|232:336|312:328,1,130,2|0
368,312,85719,1,0
424,264,85940,1,2
440,160,86161,6,0,B|440:88|384:32,1,130,4|0
288,24,86602,1,0
184,32,86822,1,0
88,80,87043,1,0
32,168,87264,1,0
40,184,87374,1,0
48,200,87484,1,0
56,216,87594,1,0
64,232,87705,1,0
112,320,87925,2,0,B|184:352|280:336,1,130
352,336,88366,6,0,B|416:280|440:224,1,130
434,236,88697,2,0,B|464:144|456:32,1,195
384,120,89249,2,0,B|368:56|384:-16,1,130
464,56,89690,2,0,B|392:80|264:80,2,195
464,160,90572,2,0,B|384:168|328:192,1,130
240,216,91014,2,0,B|152:224|88:272,1,130
24,304,91455,1,0
24,304,91565,1,0
40,200,91786,1,0
40,200,91896,1,0
112,128,92116,1,0
112,128,92227,1,0
200,80,92447,1,0
200,80,92558,1,0
304,56,92778,5,4
408,64,92999,1,0
488,128,93219,2,0,B|488:224|440:296,1,130
448,304,93550,2,0,B|368:248|256:240,1,195
360,200,94102,2,0,B|248:200|168:144,2,195
328,96,94984,2,0,B|264:56|192:48,1,130
152,40,95315,2,0,B|152:128|104:240,1,195
80,328,95866,2,0,B|8:312,4,65
184,344,96528,1,4
288,336,96749,6,0,B|256:256|272:192,1,130
216,216,97080,2,0,B|256:160|256:24,1,195
312,112,97631,2,0,B|360:208|472:232,2,195
208,80,98514,2,0,B|136:64|56:128,1,130
96,160,98844,2,0,B|152:224|112:304,1,130
121,280,99175,1,4
216,232,99396,6,0,B|336:160|400:168,2,195
120,280,100278,2,0,B|56:312|-16:304,2,130
136,176,100940,1,0
136,176,101050,1,0
136,176,101161,2,0,B|184:88|288:40,2,195,4|0|4
165,316,102043,5,0
197,312,102153,1,0
228,303,102264,1,0
259,293,102374,1,0
289,282,102484,1,0
318,267,102594,1,0
347,252,102705,1,0
375,235,102815,1,0
401,217,102925,1,0
426,197,103036,1,0
447,172,103146,1,0
465,145,103256,1,0
472,113,103366,2,0,B|472:69,8,32.5,0|0|0|0|0|0|0|0|4
136,88,117925,5,4
232,48,118146,1,0
328,88,118366,2,0,B|408:128|464:128,2,130
256,160,119028,2,0,B|288:240|360:264,1,130
440,296,119469,5,0
440,296,119580,1,0
440,296,119690,1,0
344,344,119911,1,0
248,312,120131,2,0,B|256:232|192:184,1,130
104,224,120572,2,0,B|64:160|8:136,2,130,0|0|4
256,80,121455,6,0,B|344:80|400:128,1,130
256,80,121896,2,0,B|176:80|128:120,1,130
256,80,122337,2,0,B|256:224,1,130
256,210,122668,1,0
152,328,122999,1,0
256,352,123219,1,0
360,328,123440,1,0
416,240,123661,1,0
400,136,123881,1,0
400,136,124322,1,0
320,64,124543,2,0,B|256:48|176:48,2,130,0|0|4
440,232,125425,6,0,B|392:280|304:280,1,130
288,176,125866,2,0,B|160:160|16:216,1,260
64,304,126528,1,0
160,328,126749,2,0,B|232:208|176:56,2,260
256,352,127852,6,0,B|328:368|408:336,2,130
280,248,128514,1,0
280,248,128624,1,0
280,248,128734,1,0
368,200,128955,1,0
424,112,129175,1,0
424,112,129286,1,0
360,24,129506,1,0
360,24,129616,1,0
264,56,129837,1,0
160,48,130058,6,0,B|88:32,1,65
96,33,130278,2,0,B|24:104|48:240,1,195,4|0
184,144,130940,1,0
184,144,131161,2,0,B|192:264|128:336,1,195,4|0
40,200,131822,1,0
80,104,132043,6,0,B|200:40,1,130,4|0
272,104,132484,2,0,B|408:136,1,130
328,216,132925,2,0,B|360:288,2,65
224,224,133366,1,0
168,312,133587,5,0
168,312,133697,1,0
168,312,133808,2,0,B|32:256,1,130
112,184,134249,2,0,B|104:16,1,130
208,80,134690,2,0,B|280:0,2,65
248,176,135131,2,0,B|408:160,2,130,0|0|4
296,264,135793,5,0
392,288,136014,1,0
488,240,136234,2,0,B|496:120|384:8,1,260
344,104,136896,1,0
288,192,137116,2,0,B|224:112|256:40,1,130
144,40,137558,2,0,B|88:112|104:208,1,130
100,160,137889,2,0,B|120:224|104:304,1,130
106,288,138219,2,0,B|168:352|240:352,1,130
218,349,138550,1,0
218,349,138661,1,0
218,349,138771,1,0
218,349,138881,1,4
320,336,139102,6,0,B|456:320,1,130
448,216,139543,2,0,B|312:232,1,130
224,280,139984,2,0,B|104:224|64:136,2,195
224,280,140866,2,0,B|232:176|304:88,2,195
224,280,141749,2,0,B|352:232|488:248,1,260,0|4
432,40,142631,6,0,B|288:88|152:72,1,260
72,64,143293,2,0,B|136:152|112:320,1,260
216,296,143955,2,0,B|288:264|368:264,1,130
448,264,144396,2,0,B|424:184|464:48,2,195
352,312,145278,1,0
352,312,145389,1,0
352,312,145499,1,0
256,272,145719,1,4
256,152,145940,6,0,B|256:72,1,65
256,32,146161,2,4,B|176:0|32:24,2,195
256,352,147043,6,4,B|336:384|480:360,2,195
256,192,147925,5,0
256,192,148036,1,0
256,192,148146,1,0
256,192,148256,1,0
256,192,148366,1,0
256,192,148477,1,0
256,192,148587,1,0
256,192,148697,1,0
256,192,148808,1,0
256,192,148918,1,0
256,192,149028,1,0
256,192,149139,1,0
256,192,149249,1,0
256,192,149359,1,0
256,192,149469,1,0
256,192,149580,1,0
256,192,149690,6,0,B|256:120,2,65
256,352,150131,2,0,B|192:312|152:256,1,130
128,224,150462,1,0
112,176,150572,1,0
112,120,150683,1,0
128,72,150793,2,0,B|144:24,8,32.5
232,64,151455,6,0,B|304:80|368:128,1,130,4|0
456,96,151896,2,0,B|400:176|416:256,1,130
408,320,152337,1,0
304,344,152558,2,0,B|224:368|160:344,1,130
175,349,152888,2,0,B|152:280|80:240,1,130
95,249,153219,2,0,B|120:184|192:144,1,130
264,88,153661,6,0,B|208:48|136:48,1,130
142,48,153991,2,0,B|104:160|8:216,1,195
40,96,154543,2,0,B|96:168|176:192,1,130
240,208,154984,1,0
344,184,155205,2,0,B|416:160|496:184,2,130
344,184,155756,2,0,B|200:232|128:216,1,195
112,312,156308,2,0,B|48:248|24:176,1,130
37,206,156638,2,0,B|64:104|152:16,1,195
232,16,157190,1,0
336,32,157411,1,4
432,72,157631,5,0
416,176,157852,1,0
336,104,158072,1,0
320,208,158293,1,0
392,280,158513,2,0,B|336:336|264:352,1,130
248,248,158955,2,0,B|168:264|128:320,1,130
136,310,159286,2,0,B|72:352|8:344,2,130
136,310,159837,1,0
64,232,160058,1,0
96,136,160278,1,4
48,40,160499,6,0,B|112:16|200:24,1,130
240,104,160940,2,0,B|376:120|472:96,1,195
434,103,161381,1,0
434,103,161602,1,0
480,192,161822,1,0
448,288,162043,2,0,B|320:328|184:312,1,260
88,288,162705,2,0,B|32:160|64:24,1,260,4|0
61,33,163697,1,2
61,33,163808,6,0,B|128:56|168:48,1,97.5,2|0
256,128,164469,2,0,B|296:144|392:144,1,130,2|0
464,176,165131,1,0
504,248,165352,1,2
440,328,165572,5,4
336,344,165793,1,0
440,328,166013,1,0
336,344,166234,1,0
440,328,166455,2,0,B|472:192|392:64,1,260
336,160,167116,1,0
272,80,167337,6,0,B|200:200|240:352,1,260
128,344,167999,1,0
128,344,168109,2,0,B|96:256|136:144,1,195
160,48,168661,1,0
160,48,168881,1,0
264,72,169102,2,0,B|384:120|488:120,2,195,4|0|0
280,176,169984,2,0,B|200:224|48:248,2,195,4|0|0
312,272,170866,2,0,B|400:320|504:336,2,195,4|0|0
224,328,171749,2,0,B|168:360|96:360,1,130,4|0
32,280,172190,5,4
32,176,172411,1,0
56,72,172631,2,0,B|144:32|232:24,1,130
232,32,172962,2,0,B|272:104|392:160,1,195
464,88,173513,2,0,B|480:160|440:232,1,130
408,248,173844,2,0,B|312:240|200:304,1,195
128,336,174396,2,0,B|64:296|32:224,1,130
48,192,174727,2,0,B|128:136|176:24,1,195
272,32,175278,1,0
272,32,175388,1,0
376,56,175609,1,0
376,56,175719,1,0
456,128,175940,1,4
440,232,176161,6,0,B|384:288|320:304,1,130
312,248,176491,2,0,B|216:272|136:336,1,195
32,336,177043,2,0,B|-8:200|40:104,2,195
128,296,177925,1,0
208,224,178146,1,0
208,224,178256,1,0
208,224,178366,1,0
208,120,178587,1,4
256,192,178808,12,0,183219
120,64,190278,6,0,B|160:88|224:72,2,97.5
120,168,192042,2,0,B|168:144|232:160,2,97.5
264,112,193807,2,0,B|392:112,2,97.5
160,112,195572,2,0,B|72:112,1,65,0|2
72,216,196454,6,0,B|112:288,1,65
184,336,197336,2,0,B|232:360|280:344,2,97.5
248,248,199101,2,0,B|296:224|368:240,2,97.5
312,328,200866,2,0,B|376:352|456:328,1,130,0|2
464,128,202631,2,0,B|400:104|320:128,1,130
176,256,204395,6,0,B|144:312|72:344,1,130
24,256,205719,1,0
48,152,206160,2,0,B|80:88|152:56,1,130
344,48,207925,6,0,B|416:48,4,65
232,224,210572,2,0,B|280:264|384:272,1,130
408,176,211895,1,0
408,176,212336,1,0
408,176,212778,1,0
376,72,213219,2,0,B|304:48|240:80,1,130
152,120,214542,1,0
48,304,214983,5,0
66,330,215093,1,0
91,350,215204,1,0
120,362,215314,1,0
152,363,215424,1,0
184,358,215535,1,0
214,346,215645,1,0
244,334,215755,1,0
273,320,215865,1,0
302,305,215976,1,0
331,292,216086,1,0
362,286,216196,1,0
394,292,216307,1,0
424,304,216417,1,0
448,325,216527,1,0
480,330,216637,2,0,B|501:366,2,32.5
502,307,216858,5,0
487,277,216968,1,0
490,244,217079,1,0
499,213,217189,1,0
506,181,217299,1,0
511,148,217410,1,0
508,115,217520,1,0
501,83,217630,1,0
491,52,217740,1,0
474,23,217851,1,0
445,8,217961,2,0,B|436:61,2,32.5
408,12,218182,1,0
377,23,218292,1,0
344,26,218402,1,0
312,33,218512,2,0,B|308:-8,2,32.5
281,43,218733,5,0
251,56,218843,1,0
218,55,218954,1,0
187,44,219064,1,0
155,36,219174,1,0
122,35,219285,1,0
91,45,219395,1,0
64,65,219505,1,0
37,84,219615,1,0
17,110,219726,1,0
3,139,219836,1,0
7,171,219946,1,0
20,200,220057,1,0
39,226,220167,1,0
72,240,220277,6,0,B|64:320,2,65
120,232,220608,2,0,B|192:208|288:224,1,130
296,224,220939,2,0,B|384:240|448:224,1,130,0|4
424,72,221490,1,4
264,72,221821,1,4
160,88,222042,6,0,B|88:96|24:128,1,130,4|0
136,200,222483,2,0,B|216:208|280:240,1,130
373,286,222924,1,0
376,288,223145,1,0
376,288,223255,2,0,B|432:240|464:136,1,130
447,181,223586,2,0,B|472:104|472:40,1,130,0|0
342,34,224027,1,0
208,16,224248,6,0,B|72:16,1,130
78,16,224579,2,0,B|32:144|72:232,1,195
184,240,225130,1,0
312,240,225351,1,0
441,239,225571,2,0,B|465:172|448:102,1,130
353,22,226012,2,0,B|258:8|191:31,1,130
223,23,226343,2,0,B|115:40|40:139,1,195
13,241,226895,1,0
81,351,227115,1,0
81,351,227226,2,0,B|220:360|329:321,1,195
400,300,227777,1,0
490,205,227998,1,4
423,93,228218,6,0,B|268:93,3,130
162,93,229101,2,0,B|104:162|116:268,1,130
195,316,229542,2,0,B|232:257|244:179,1,130
241,195,229873,2,0,B|284:78|381:11,1,195
461,102,230424,2,0,B|455:180|399:252,2,130
330,99,231086,6,0,B|184:123,2,130
330,99,231637,2,0,B|388:148|399:219,1,130
396,207,231968,2,0,B|410:277|456:334,2,130
301,296,232630,2,0,B|168:353|75:336,1,195
73,148,233292,2,0,B|188:80|332:74,1,260,4|0
319,74,234285,1,2
319,74,234395,6,0,B|387:60|444:80,1,97.5,2|0
426,228,235057,2,0,B|349:208|283:230,1,130,2|0
197,251,235718,1,0
108,306,235939,1,2
37,196,236160,6,0,B|34:95|55:33,1,130,4|0
171,29,236601,2,0,B|150:99|156:180,1,130
272,214,237042,2,0,B|262:143|291:57,1,130
282,85,237373,2,0,B|348:76|434:80,1,130
411,79,237704,2,0,B|416:156|429:216,1,130
447,336,238145,1,0
317,332,238365,6,0,B|236:356|165:343|165:343|164:342,1,130
188,345,238696,2,0,B|95:336|26:227,1,195
24,105,239248,1,0
124,23,239468,1,0
254,20,239689,2,0,B|388:44|492:141,1,260,4|0
481,264,240351,2,0,B|354:249|237:142,1,260,4|0
165,54,241012,1,0
36,39,241233,1,0
44,168,241454,2,0,B|60:260|160:348,2,195,4|0|4
173,184,242336,1,0
173,184,242446,1,4
301,203,242667,1,0
301,203,242777,5,4
430,185,242998,1,0
384,306,243218,2,0,B|313:336|213:323,1,130
191,325,243549,2,0,B|120:328|20:284,1,130
17,255,243880,2,0,B|4:184|23:115,1,130
99,22,244321,1,0
163,11,244432,1,0
302,116,244652,1,0
240,95,244762,1,0
122,151,244983,2,0,B|143:223|190:286,1,130
226,311,245314,2,0,B|304:345|369:342,1,130
417,340,245645,2,0,B|450:279|456:196,1,130,0|4
282,29,246196,1,4
38,99,246527,1,4
109,207,246748,6,0,B|192:170|252:167,1,130
297,161,247079,2,0,B|404:164|493:131,1,195
374,69,247630,2,0,B|360:210|400:275,2,195,4|0|4
248,34,248512,2,0,B|166:34,1,65,0|4
64,192,248843,2,0,B|145:192,1,65,0|4
256,192,249174,1,4
440,192,249395,5,4
160,336,249726,1,4
160,24,250057,1,4
296,248,250498,6,0,B|248:192|248:112,1,130
368,168,250939,1,0
368,168,251049,1,0
368,168,251160,2,0,B|432:240|448:360,2,195,4|0|4
248,112,252042,2,0,B|168:120,1,65
128,160,252262,2,0,B|80:208,1,65
80,272,252483,1,4
256,192,252924,12,4,257336
