osu file format v7

[General]
AudioFilename: My Soul, Your Beats!.mp3
AudioLeadIn: 0
PreviewTime: 53313
Countdown: 0
SampleSet: Soft
StackLeniency: 0.7
Mode: 0
LetterboxInBreaks: 1

[Editor]
DistanceSpacing: 0.800000011920929
BeatDivisor: 4
GridSize: 8

[Metadata]
Title:My Soul, Your Beats! (TV Size)
Artist:Lia
Creator:NatsumeRin
Version:Normal
Source:Angel Beats!
Tags:key aniplex g's magazine p.a.works maeda jun na-ga climbb65588

[Difficulty]
HPDrainRate:4
CircleSize:3
OverallDifficulty:4
SliderMultiplier:1.2
SliderTickRate:1

[Events]
//Background and Video events
Video,-350,"Angel Beats! 02.flv"
0,0,"Angel Beats!.jpg"
//Break Periods
//Storyboard Layer 0 (Background)
//Storyboard Layer 1 (Fail)
//Storyboard Layer 2 (Pass)
//Storyboard Layer 3 (Foreground)
//Storyboard Sound Samples
//Background Colour Transformations
3,100,163,162,255

[TimingPoints]
15253,413.793103448276,4,2,1,45,1,0
20011,-100,4,2,1,55,0,0
25390,-100,4,2,1,0,0,0
25804,-100,4,2,1,55,0,0
33253,-100,4,2,1,35,0,0
33666,-100,4,2,1,55,0,0
46047,-100,4,2,1,60,0,0
53115,-100,4,2,1,65,0,0
53321,-100,4,2,1,66,0,1
73080,-100,4,2,1,0,0,1
74218,-100,4,2,1,66,0,1
77735,-100,4,2,1,60,0,0

[Colours]
Combo1 : 255,255,106
Combo2 : 255,0,128
Combo3 : 149,149,255
Combo4 : 70,255,163

[HitObjects]
376,320,15253,2,0,B|440:296|440:216|440:216,1,120,2|2
376,152,16080,1,2
440,80,16494,1,2
440,80,16908,6,0,B|392:40|296:32|264:88|264:88,3,180,2|0|0|0
128,80,19390,2,0,B|128:224|128:224,1,120,8|0
128,296,20218,6,0,B|184:328|256:296|256:296,1,120,0|2
328,248,21046,1,0
408,192,21459,1,2
328,136,21873,1,0
248,80,22287,2,0,B|160:80|160:80,2,60,2|0|0
248,80,23115,1,0
328,32,23528,5,0
408,80,23942,1,0
408,80,24149,1,2
456,168,24563,1,0
456,168,24770,2,0,B|456:240|424:336|280:320|280:320,1,240,2|0
104,192,26632,5,0
104,192,26839,2,0,B|104:48|104:48,2,120
152,272,28080,1,2
200,192,28494,2,0,B|200:64|200:64,1,120,0|2
200,72,29115,1,0
296,72,29528,2,0,B|360:72|360:72,1,60,2|0
440,112,30149,5,0
432,208,30563,1,0
336,232,30977,1,2
288,144,31390,1,2
256,192,31804,12,8,33459
152,64,33873,5,0
88,136,34287,2,0,B|56:192|88:256|88:256,1,120,0|2
152,320,35115,1,0
248,344,35528,1,2
344,320,35942,1,0
432,152,36770,6,0,B|360:136|352:56|352:56,1,120
354,69,37390,2,0,B|296:32|224:72|224:72,1,120,2|0
192,80,38011,2,0,B|0:104|32:352|184:352|384:240|384:240,1,540,2|0
416,224,40080,6,0,B|504:184|488:296|488:296,2,120
368,304,41321,1,2
288,352,41735,1,0
72,168,42977,5,0
98,79,43390,1,0
191,54,43804,1,2
258,119,44218,1,0
232,209,44632,1,2
140,233,45046,1,2
368,64,46287,5,0
400,152,46701,2,0,B|472:128,1,60,2|0
432,240,47321,1,2
344,272,47735,2,0,B|272:296,1,60,2|0
200,320,48356,2,0,B|96:272|64:176|88:80|208:40|208:40,1,360
288,88,50011,5,2
288,88,50218,1,0
360,152,50632,1,2
288,216,51046,1,0
288,216,51253,1,2
360,280,51666,2,0,B|320:344|232:352|208:272|208:272,2,180,2|0|0
400,192,53321,6,0,B|464:192|464:192,2,60,2|0|0
400,192,53942,1,0
400,48,54563,1,0
400,48,54770,2,0,B|312:80|216:48|216:48,1,180,2|0
176,40,55597,1,2
72,256,56632,6,0,B|72:176|72:176,1,60,2|0
72,144,57046,2,0,B|72:64|72:64,1,60
216,56,57873,1,0
216,56,58080,2,0,B|304:32|400:56,1,180,2|0
440,64,58908,2,0,B|488:112|488:192|440:256|440:256,1,180,2|2
424,272,59735,1,0
256,192,59942,12,0,61804
160,272,62632,6,0,B|88:272|88:272,2,60,2|0|0
208,272,63253,2,0,B|280:272|280:272,1,60,0|2
464,272,64287,5,2
464,272,64494,1,0
464,272,64701,1,0
464,272,64908,2,0,B|432:144|432:144,1,120,0|2
376,232,65735,2,0,B|344:104|344:104,1,120,2|0
256,80,66563,6,0,B|168:80|168:80,2,60,2|0|0
304,80,67184,1,0
416,176,67804,1,0
416,128,68011,1,2
296,208,68632,1,0
296,256,68839,1,2
96,120,69873,5,2
136,96,70080,1,0
176,120,70287,1,0
216,96,70494,2,0,B|280:64|344:64|400:104|400:104,1,180
432,128,71321,2,0,B|432:320|432:320,1,180,2|0
432,308,72149,2,0,B|384:344|304:352|240:296|240:296,1,180,2|2
261,310,72977,2,0,B|72:192|256:72|256:72,1,300,2|0
120,120,74632,6,0,B|88:136|88:176|88:176,1,60,0|2
88,216,75046,2,0,B|88:256|120:264|120:264,1,60
256,192,76080,1,0
256,192,76287,1,2
256,192,76494,12,0,77528
400,136,77942,5,2
400,136,78149,2,0,B|432:200|392:272|392:272,2,120
368,48,79390,1,0
112,248,81253,5,2
112,248,81459,2,0,B|80:184|120:112|120:112,2,120
144,336,82701,1,0
256,128,84563,5,2
256,128,84770,1,0
328,192,85184,1,0
256,256,85597,1,0
184,192,86011,1,2
256,192,86218,12,2,88080
