osu file format v7

[General]
AudioFilename: My Soul, Your Beats!.mp3
AudioLeadIn: 0
PreviewTime: 53313
Countdown: 0
SampleSet: Soft
StackLeniency: 0.7
Mode: 0
LetterboxInBreaks: 1

[Editor]
DistanceSpacing: 1.20000004768372
BeatDivisor: 4
GridSize: 8

[Metadata]
Title:My Soul, Your Beats! (TV Size)
Artist:Lia
Creator:NatsumeRin
Version:Insane
Source:Angel Beats!
Tags:key aniplex g's magazine p.a.works maeda jun na-ga climbb65588

[Difficulty]
HPDrainRate:6
CircleSize:5
OverallDifficulty:8
SliderMultiplier:1.8
SliderTickRate:1

[Events]
//Background and Video events
Video,-350,"Angel Beats! 02.flv"
0,0,"Angel Beats!.jpg"
//Break Periods
//Storyboard Layer 0 (Background)
//Storyboard Layer 1 (Fail)
//Storyboard Layer 2 (Pass)
//Storyboard Layer 3 (Foreground)
//Storyboard Sound Samples
//Background Colour Transformations
3,100,163,162,255

[TimingPoints]
15253,413.793103448276,4,2,1,70,1,0
20218,-100,4,2,1,55,0,0
25080,-100,4,2,1,0,0,0
26528,-100,4,2,1,50,0,0
31701,-100,4,2,1,30,0,0
33149,-100,4,2,1,55,0,0
46597,-100,4,2,1,60,0,0
53321,-100,4,2,1,65,0,1
60046,-100,4,2,1,46,0,1
61701,-100,4,2,1,60,0,1
66666,-100,4,2,1,66,0,1
77942,-200,4,2,1,52,0,0

[Colours]
Combo1 : 255,255,106
Combo2 : 255,0,128
Combo3 : 149,149,255
Combo4 : 70,255,163

[HitObjects]
80,40,15253,1,2
96,144,15459,1,2
176,72,15666,1,2
192,176,15873,1,2
272,104,16080,2,0,C|376:144|376:144,2,90,2|2|2
272,104,16701,1,2
296,208,16908,1,8
48,352,17321,5,2
48,352,17528,1,8
448,184,18149,5,8
448,184,18356,1,0
184,64,18770,5,8
184,64,18977,1,2
184,280,19390,6,0,C|256:280|256:280,3,45,10|0|0|8
264,320,19804,2,0,C|320:320|320:320,1,45,0|2
352,352,20011,2,0,C|408:352|408:352,1,45,10|2
448,352,20218,5,0
488,256,20425,1,0
448,152,20632,1,0
488,56,20839,1,2
280,104,21252,2,0,C|360:48|360:48,2,90,0|2|2
232,200,21873,5,0
184,104,22080,1,2
172,104,22184,1,2
160,104,22287,1,2
64,152,22494,2,0,C|31:240|71:336|71:336,1,180
168,352,23115,1,2
272,320,23321,1,0
376,352,23528,5,0
416,256,23735,1,0
456,160,23942,1,0
496,56,24149,1,2
416,256,24563,1,0
312,216,24770,1,2
256,192,24977,12,0,26218
360,96,26632,5,0
408,192,26839,1,2
360,288,27046,1,0
360,288,27149,1,0
360,288,27252,1,2
408,192,27459,1,0
296,192,27666,2,0,L|200:192|200:192,1,90,2|0
248,288,28080,2,0,L|128:288|128:288,1,90,2|2
48,288,28494,5,0
128,88,28908,1,10
128,88,29115,1,0
336,152,29528,1,10
336,152,29735,2,0,L|351:174|416:248|416:248,1,90,0|0
464,304,30149,5,2
368,352,30356,1,0
272,304,30563,1,0
176,352,30770,1,2
80,304,30977,2,0,C|64:264|80:224|80:224,1,90,0|2
176,264,31390,2,0,C|192:224|176:184|176:184,1,90,0|2
256,192,31804,12,0,33046
96,264,33459,5,0
200,304,33666,2,0,C|240:320|288:304|288:304,1,90,0|2
384,264,34080,1,2
432,56,34494,2,0,C|328:56|328:56,2,90,0|2|2
432,168,35115,5,0
384,264,35321,1,0
408,312,35425,1,0
432,360,35528,1,2
384,264,35735,2,0,C|328:360|136:368,1,270,0|0
80,312,36563,1,0
176,264,36770,5,0
80,216,36977,2,0,C|48:192|80:160|80:160,1,90,0|2
176,112,37390,1,2
464,112,37804,1,0
376,56,38011,1,2
376,168,38218,1,0
464,232,38425,5,0
376,296,38632,1,2
376,296,38735,1,0
376,296,38839,1,8
161,223,39253,5,2
221,57,39459,1,0
48,88,39666,1,2
48,88,39873,1,0
48,88,40080,6,0,C|129:55|217:95|217:95,1,180,0|8
256,192,40701,1,0
304,288,40908,2,0,C|385:321|473:281|473:281,1,180,2|8
464,64,41735,5,0
360,104,41942,1,2
256,64,42149,1,0
152,24,42356,1,2
56,216,42770,1,0
152,272,42977,2,0,C|232:312|232:312,1,90,2|0
328,360,43390,5,2
432,320,43597,2,0,C|432:200|432:200,1,90,0|2
432,120,44011,1,2
352,48,44218,1,0
272,120,44425,1,2
352,192,44632,1,2
432,120,44839,1,0
352,192,45046,5,2
80,320,45459,1,2
464,192,45873,1,2
80,64,46287,2,0,C|120:48|168:64|168:64,1,90,0|0
264,104,46701,5,2
264,104,46908,1,0
368,64,47115,1,0
368,64,47321,1,2
416,272,47735,2,0,C|464:368|464:368,2,90,2|2|0
320,312,48356,5,0
160,280,48666,1,0
160,280,48770,2,0,C|64:304|64:304,1,90,0|0
128,152,49184,2,0,C|104:56|104:56,1,90,2|0
256,120,49597,2,0,C|352:96|352:96,1,90,2|0
448,136,50011,5,2
448,136,50218,1,0
448,248,50425,1,0
448,248,50632,1,0
88,320,51046,5,0
136,192,51253,1,2
88,64,51459,1,0
224,64,51666,5,2
360,64,51873,1,0
376,64,51977,1,0
392,64,52080,1,2
448,192,52287,1,2
344,280,52494,2,0,C|280:328|280:328,3,45,2|0|2|0
264,336,52908,1,2
216,360,53011,1,2
160,368,53115,1,2
104,360,53218,1,2
56,336,53321,6,0,C|40:296|56:256|56:256,1,90,2|0
80,208,53632,1,0
104,160,53735,1,0
160,64,53942,1,0
272,64,54149,2,0,C|312:40|352:72|352:72,1,90,2|0
344,176,54563,2,0,C|384:200|424:168|424:168,1,90,0|2
416,64,54977,5,0
416,176,55184,1,0
416,280,55390,1,0
336,352,55597,1,2
256,280,55804,1,0
256,176,56011,1,0
216,136,56115,1,0
176,104,56218,2,0,C|144:80|104:104|104:104,1,90,0|0
104,216,56632,6,0,C|104:320|104:320,1,90,2|0
200,256,57046,1,0
200,144,57253,1,0
296,200,57459,1,2
296,88,57666,1,0
384,32,57873,1,0
472,88,58080,1,2
472,200,58287,5,2
144,160,58701,1,0
88,304,58908,1,0
239,272,59115,1,2
239,272,59528,2,0,C|304:208|304:208,1,90,2|0
303,208,59942,1,0
256,192,60149,12,2,61597
208,296,62632,5,2
208,296,62839,2,0,C|144:232|144:232,1,90,0|0
72,152,63253,5,0
88,48,63459,1,2
192,24,63666,1,0
248,120,63873,1,0
176,200,64080,1,0
232,296,64287,1,2
288,304,64390,1,0
336,272,64494,1,0
344,168,64701,1,0
440,112,64908,5,2
296,40,65115,1,0
136,64,65321,1,0
56,208,65528,1,2
136,352,65735,1,0
296,360,65942,1,2
440,288,66149,2,0,C|464:200|440:112|440:112,1,180,0|2
336,104,66770,5,0
256,176,66977,2,0,C|288:208|248:240|248:240,1,90,0|0
160,176,67390,1,0
72,120,67597,1,2
160,176,67804,1,0
72,120,68011,1,2
72,232,68218,6,0,C|48:272|80:320|80:320,1,90,0|0
168,272,68632,1,0
280,272,68839,1,2
280,272,69046,1,0
392,272,69253,1,0
392,272,69356,1,2
392,272,69459,2,0,C|496:272,1,90,0|0
408,192,69873,6,0,C|408:80|408:80,1,90,2|0
296,192,70287,2,0,C|296:320|296:320,1,90,0|0
184,192,70701,2,0,C|184:64|184:64,1,90,2|0
72,192,71115,2,0,C|72:304|72:304,1,90,0|2
160,344,71528,5,2
256,288,71735,1,0
352,344,71942,1,0
448,288,72149,1,2
448,176,72356,1,0
352,232,72563,1,0
256,176,72770,1,2
352,120,72977,1,2
256,192,73184,12,0,74632
384,64,74839,6,0,C|424:48|480:72,2,90,2|0|0
256,192,75666,1,0
128,320,76080,2,0,C|88:336|32:312,1,90,0|2
256,192,76494,12,2,77942
256,192,78149,5,0
360,280,78563,2,0,C|400:304|440:280|440:280,2,90
256,192,79597,12,2,81253
256,192,81459,5,0
152,104,81873,2,0,C|112:80|72:104|72:104,2,90
256,192,82908,12,2,84563
256,160,84770,5,0
256,176,85184,1,0
256,192,85597,1,0
256,208,86011,1,0
256,192,86218,12,2,88080
