osu file format v7

[General]
AudioFilename: My Soul, Your Beats!.mp3
AudioLeadIn: 0
PreviewTime: 53313
Countdown: 0
SampleSet: Soft
StackLeniency: 0.7
Mode: 0
LetterboxInBreaks: 1

[Editor]
DistanceSpacing: 0.800000011920929
BeatDivisor: 4
GridSize: 8

[Metadata]
Title:My Soul, Your Beats! (TV Size)
Artist:Lia
Creator:NatsumeRin
Version:Easy
Source:Angel Beats!
Tags:key aniplex g's magazine p.a.works maeda jun na-ga climbb65588

[Difficulty]
HPDrainRate:3
CircleSize:3
OverallDifficulty:3
SliderMultiplier:1
SliderTickRate:2

[Events]
//Background and Video events
Video,-350,"Angel Beats! 02.flv"
0,0,"Angel Beats!.jpg"
//Break Periods
//Storyboard Layer 0 (Background)
//Storyboard Layer 1 (Fail)
//Storyboard Layer 2 (Pass)
//Storyboard Layer 3 (Foreground)
//Storyboard Sound Samples
//Background Colour Transformations
3,100,163,162,255

[TimingPoints]
15253,413.793103448276,4,2,1,45,1,0
20011,-100,4,2,1,55,0,0
46065,-100,4,2,1,60,0,0
53115,-100,4,2,1,65,0,0
53321,-100,4,2,1,66,0,1
77735,-100,4,2,1,60,0,0

[Colours]
Combo1 : 255,255,106
Combo2 : 255,0,128
Combo3 : 149,149,255
Combo4 : 70,255,163

[HitObjects]
104,288,15253,2,0,C|312:288|312:288,1,200
432,192,16908,2,0,C|432:32|432:32,2,150,2|0|0
256,192,18563,12,0,20218
144,112,21046,5,2
144,272,21873,2,0,C|96:296|48:264|48:264,2,100,0|2|0
304,272,23528,5,0
440,192,24356,1,0
440,192,24770,2,0,C|424:144|440:88|440:88,1,100,0|2
136,104,26839,6,0,C|136:224|136:224,2,100
216,104,28080,2,0,C|256:80|312:112|312:112,1,100,2|0
432,304,29735,5,0
432,304,30149,2,0,C|392:328|344:304|344:304,1,100
264,304,30977,2,0,C|224:328|176:304|176:304,1,100,2|2
256,192,31804,12,0,33046
144,192,33873,5,0
144,192,34287,1,0
232,56,35115,1,2
232,56,35528,1,2
232,56,35942,1,0
384,96,36770,6,0,B|440:192|376:296|376:296,2,200
256,192,39253,1,2
136,296,40080,6,0,B|136:192|136:192,1,100
216,192,40908,2,0,B|216:80|216:80,1,100,0|2
296,96,41735,1,0
400,312,42977,6,0,B|296:312|296:312,2,100,0|2|0
472,272,44218,1,0
400,232,44632,1,2
472,192,45046,1,2
256,96,46287,5,0
256,96,46701,2,0,B|160:96|160:192|160:192,2,150,2|0|2
256,96,48356,1,0
256,288,49597,5,0
256,288,50011,2,0,B|352:288|352:192|352:192,2,150,2|0|0
256,288,51666,1,2
136,120,53321,5,2
296,120,54149,1,0
376,264,54977,1,2
296,264,55390,1,0
216,264,55804,1,2
72,192,56632,6,0,B|72:88|72:88,2,100,2|0|0
208,280,58287,2,0,C|256:296|304:280|304:280,1,100,2|0
368,240,59115,1,2
432,192,59528,1,2
368,144,59942,6,0,B|272:40|144:64|48:184|184:288|184:288,1,400
368,296,62632,6,0,B|304:296|304:296,4,50,2|0|0|0|2
368,136,64287,2,0,B|424:136|424:136,2,50,2|0|0
328,136,64908,6,0,C|288:112|240:136|240:136,1,100
184,192,65735,2,0,C|144:216|96:192|96:192,1,100,2|0
96,272,66563,5,2
96,272,66977,1,0
96,272,67390,1,0
256,272,68218,2,0,C|368:272|368:272,1,100,2|0
440,272,69046,1,2
440,112,69873,5,2
368,80,70287,1,0
296,48,70701,1,0
136,48,71528,2,0,C|112:88|136:128|136:128,2,100,2|0|2
216,48,72770,1,2
216,48,73184,1,4
256,192,74839,12,2,78149
160,144,78563,6,0,C|160:256|160:256,2,100
256,192,79804,12,2,81459
352,240,81873,6,0,C|352:128|352:128,2,100
256,192,83115,12,0,84770
256,192,85184,5,0
256,192,85597,1,0
256,192,86011,1,2
256,192,86425,12,2,88080
