osu file format v12

[General]
AudioFilename: Lia - My Soul, Your Beats! (TV Size).mp3
AudioLeadIn: 0
PreviewTime: 53683
Countdown: 0
SampleSet: Soft
StackLeniency: 0.7
Mode: 3
LetterboxInBreaks: 1
SpecialStyle: 0
WidescreenStoryboard: 1

[Editor]
DistanceSpacing: 0.7
BeatDivisor: 4
GridSize: 8

[Metadata]
Title:My Soul, Your Beats! (TV Size)
TitleUnicode:My Soul, Your Beats! (TV Size)
Artist:Lia
ArtistUnicode:Lia
Creator:Fujimoto Ryouji
Version:4K HD
Source:Angel Beats!
Tags:Angel Beats! Angel Tachiba Kanade
BeatmapID:318419
BeatmapSetID:124743

[Difficulty]
HPDrainRate:9
CircleSize:4
OverallDifficulty:8
ApproachRate:5
SliderMultiplier:1.4
SliderTickRate:1

[Events]
//Background and Video events
0,0,"angel_beats_school_uniforms_tachibana_kanade_1680x1050_wallpaper_Art HD Wallpaper_2560x1600_www.animemay.com.jpg",0,0
Video,0,"Angel Beats! OP.flv"
//Break Periods
//Storyboard Layer 0 (Background)
//Storyboard Layer 1 (Fail)
//Storyboard Layer 2 (Pass)
//Storyboard Layer 3 (Foreground)
//Storyboard Sound Samples
//Background Colour Transformations
3,100,163,162,255

[TimingPoints]
15615,413.793103448276,4,2,0,100,1,0

[HitObjects]
192,192,511,1,0,0:0:0:0:
320,192,511,1,0,0:0:0:0:
448,192,511,128,0,3615:0:0:0:0:
320,192,718,128,0,925:0:0:0:0:
192,192,718,128,0,925:0:0:0:0:
320,192,1132,128,0,1339:0:0:0:0:
64,192,1132,128,0,1339:0:0:0:0:
64,192,1546,1,0,0:0:0:0:
320,192,1546,1,0,0:0:0:0:
192,192,1752,1,0,0:0:0:0:
64,192,1752,1,0,0:0:0:0:
64,192,1959,128,0,3615:0:0:0:0:
320,192,3821,1,0,0:0:0:0:
192,192,3821,1,0,0:0:0:0:
448,192,3821,128,0,6925:0:0:0:0:
64,192,4028,128,0,4235:0:0:0:0:
320,192,4028,128,0,4235:0:0:0:0:
64,192,4442,128,0,4649:0:0:0:0:
192,192,4442,128,0,4649:0:0:0:0:
192,192,4856,1,0,0:0:0:0:
320,192,4856,1,0,0:0:0:0:
64,192,5063,1,0,0:0:0:0:
192,192,5063,1,0,0:0:0:0:
64,192,5270,128,0,6925:0:0:0:0:
320,192,5270,128,0,6925:0:0:0:0:
320,192,7132,1,0,0:0:0:0:
448,192,7132,1,0,0:0:0:0:
192,192,7339,128,0,7546:0:0:0:0:
320,192,7339,128,0,7546:0:0:0:0:
64,192,7752,128,0,7959:0:0:0:0:
192,192,7752,128,0,7959:0:0:0:0:
192,192,8166,128,0,8373:0:0:0:0:
320,192,8166,128,0,8373:0:0:0:0:
320,192,8580,128,0,8787:0:0:0:0:
448,192,8580,128,0,8787:0:0:0:0:
448,192,8994,128,4,10235:2:0:0:0:
64,192,8994,128,4,10235:2:0:0:0:
192,192,8994,128,4,10235:2:0:0:0:
320,192,8994,128,4,10235:2:0:0:0:
448,192,10442,1,0,0:0:0:0:
320,192,10442,1,0,0:0:0:0:
192,192,10649,1,0,0:0:0:0:
320,192,10649,1,0,0:0:0:0:
448,192,10856,1,0,0:0:0:0:
320,192,10856,1,0,0:0:0:0:
192,192,11063,1,0,0:0:0:0:
64,192,11063,1,0,0:0:0:0:
320,192,11270,1,0,0:0:0:0:
192,192,11270,1,0,0:0:0:0:
64,192,11477,1,0,0:0:0:0:
192,192,11477,1,0,0:0:0:0:
192,192,11683,1,0,0:0:0:0:
320,192,11683,1,0,0:0:0:0:
64,192,11890,128,0,15201:0:0:0:0:
192,192,11890,128,0,13546:0:0:0:0:
192,192,13959,1,0,0:0:0:0:
448,192,13959,1,0,0:0:0:0:
320,192,14373,1,0,0:0:0:0:
192,192,14373,1,0,0:0:0:0:
192,192,14787,1,0,0:0:0:0:
448,192,14787,1,0,0:0:0:0:
448,192,15201,1,0,0:0:0:0:
320,192,15201,1,0,0:0:0:0:
64,192,15615,1,0,0:0:0:0:
448,192,15615,1,0,0:0:0:0:
192,192,15821,1,0,0:0:0:0:
320,192,15821,1,0,0:0:0:0:
64,192,16028,1,0,0:0:0:0:
448,192,16028,1,0,0:0:0:0:
192,192,16235,1,0,0:0:0:0:
320,192,16235,1,0,0:0:0:0:
192,192,16442,1,0,0:0:0:0:
320,192,16442,1,0,0:0:0:0:
64,192,16649,1,0,0:0:0:0:
448,192,16649,1,0,0:0:0:0:
320,192,16856,1,0,0:0:0:0:
192,192,16856,1,0,0:0:0:0:
64,192,17063,1,0,0:0:0:0:
448,192,17063,1,0,0:0:0:0:
320,192,17270,1,0,0:0:0:0:
64,192,17270,1,0,0:0:0:0:
448,192,17477,1,0,0:0:0:0:
192,192,17477,1,0,0:0:0:0:
64,192,17890,1,0,0:0:0:0:
192,192,17890,1,0,0:0:0:0:
320,192,18097,128,0,18304:0:0:0:0:
448,192,18097,128,0,18304:0:0:0:0:
192,192,18304,1,0,0:0:0:0:
192,192,18511,1,0,0:0:0:0:
64,192,18511,1,0,0:0:0:0:
448,192,18718,128,0,18925:0:0:0:0:
320,192,18718,128,0,18925:0:0:0:0:
64,192,18925,1,0,0:0:0:0:
448,192,19132,1,0,0:0:0:0:
320,192,19132,1,0,0:0:0:0:
192,192,19339,128,0,19546:0:0:0:0:
64,192,19339,128,0,19546:0:0:0:0:
320,192,19546,1,0,0:0:0:0:
448,192,19752,1,0,0:0:0:0:
320,192,19856,1,0,0:0:0:0:
192,192,19959,1,0,0:0:0:0:
64,192,20063,1,0,0:0:0:0:
64,192,20166,1,0,0:0:0:0:
192,192,20270,1,0,0:0:0:0:
320,192,20373,1,0,0:0:0:0:
448,192,20477,1,0,0:0:0:0:
192,192,20580,128,0,20787:0:0:0:0:
320,192,20787,1,0,0:0:0:0:
320,192,20994,1,0,0:0:0:0:
448,192,20994,1,0,0:0:0:0:
448,192,21201,128,0,21408:0:0:0:0:
320,192,21408,1,0,0:0:0:0:
64,192,21615,1,0,0:0:0:0:
320,192,21615,1,0,0:0:0:0:
64,192,21821,128,0,22028:0:0:0:0:
448,192,21821,128,0,22028:0:0:0:0:
192,192,22028,1,0,0:0:0:0:
192,192,22235,1,0,0:0:0:0:
64,192,22235,1,0,0:0:0:0:
320,192,22442,1,0,0:0:0:0:
192,192,22442,1,0,0:0:0:0:
448,192,22649,1,0,0:0:0:0:
320,192,22649,1,0,0:0:0:0:
64,192,22856,128,0,23477:0:0:0:0:
192,192,22856,1,0,0:0:0:0:
448,192,22856,1,0,0:0:0:0:
448,192,23063,1,0,0:0:0:0:
320,192,23063,128,0,23477:0:0:0:0:
448,192,23477,1,0,0:0:0:0:
64,192,23683,128,0,23890:0:0:0:0:
320,192,23683,128,0,23890:0:0:0:0:
192,192,23890,128,0,24097:0:0:0:0:
320,192,24097,1,0,0:0:0:0:
448,192,24304,1,0,0:0:0:0:
320,192,24511,128,0,24718:0:0:0:0:
192,192,24718,1,0,0:0:0:0:
64,192,24925,1,0,0:0:0:0:
448,192,25132,128,0,25959:0:0:0:0:
192,192,25132,1,0,0:0:0:0:
320,192,25132,1,0,0:0:0:0:
64,192,25339,128,0,25546:0:0:0:0:
192,192,25339,128,0,25546:0:0:0:0:
64,192,25752,1,0,0:0:0:0:
320,192,25752,1,0,0:0:0:0:
64,192,25959,128,0,26166:0:0:0:0:
192,192,25959,128,0,26166:0:0:0:0:
192,192,26373,1,0,0:0:0:0:
320,192,26373,1,0,0:0:0:0:
64,192,26580,128,0,26787:0:0:0:0:
320,192,26580,128,0,26787:0:0:0:0:
448,192,26787,1,0,0:0:0:0:
192,192,26994,1,0,0:0:0:0:
64,192,26994,1,0,0:0:0:0:
192,192,27201,128,0,27408:0:0:0:0:
64,192,27201,128,0,27408:0:0:0:0:
448,192,27408,1,0,0:0:0:0:
448,192,27615,128,0,27821:0:0:0:0:
192,192,27821,1,0,0:0:0:0:
448,192,28028,128,0,28649:0:0:0:0:
320,192,28028,1,0,0:0:0:0:
64,192,28442,1,0,0:0:0:0:
192,192,28649,1,0,0:0:0:0:
64,192,28856,128,0,29477:0:0:0:0:
320,192,28856,1,0,0:0:0:0:
448,192,29270,1,0,0:0:0:0:
192,192,29270,1,0,0:0:0:0:
320,192,29477,128,0,29683:0:0:0:0:
192,192,29890,1,0,0:0:0:0:
448,192,30097,1,0,0:0:0:0:
64,192,30097,128,0,30304:0:0:0:0:
320,192,30511,1,0,0:0:0:0:
192,192,30925,1,0,0:0:0:0:
320,192,31132,1,0,0:0:0:0:
64,192,31339,128,0,31546:0:0:0:0:
448,192,31339,1,0,0:0:0:0:
320,192,31546,1,0,0:0:0:0:
192,192,31752,128,0,32683:0:0:0:0:
448,192,32166,1,0,0:0:0:0:
320,192,32373,128,0,32580:0:0:0:0:
320,192,32787,1,0,0:0:0:0:
192,192,32994,128,0,33201:0:0:0:0:
320,192,33408,1,0,0:0:0:0:
192,192,33615,1,0,0:0:0:0:
64,192,33821,128,0,34028:0:0:0:0:
320,192,34028,1,0,0:0:0:0:
192,192,34235,1,0,0:0:0:0:
320,192,34442,128,0,34752:0:0:0:0:
192,192,34752,1,0,0:0:0:0:
64,192,34856,1,0,0:0:0:0:
192,192,35063,128,0,35270:0:0:0:0:
320,192,35270,1,0,0:0:0:0:
64,192,35477,1,0,0:0:0:0:
192,192,35477,1,0,0:0:0:0:
192,192,35683,1,0,0:0:0:0:
320,192,35683,1,0,0:0:0:0:
320,192,35890,1,0,0:0:0:0:
448,192,35890,1,0,0:0:0:0:
64,192,36097,128,0,36718:0:0:0:0:
192,192,36201,1,0,0:0:0:0:
320,192,36304,1,0,0:0:0:0:
448,192,36408,1,0,0:0:0:0:
320,192,36718,1,0,0:0:0:0:
448,192,36821,1,0,0:0:0:0:
192,192,36925,128,0,37339:0:0:0:0:
320,192,36925,128,0,37132:0:0:0:0:
64,192,37339,1,0,0:0:0:0:
320,192,37546,1,0,0:0:0:0:
64,192,37546,128,0,37752:0:0:0:0:
448,192,37752,128,0,38063:0:0:0:0:
192,192,38166,1,0,0:0:0:0:
320,192,38373,128,0,39201:0:0:0:0:
448,192,38580,1,0,0:0:0:0:
64,192,38787,1,0,0:0:0:0:
448,192,38787,128,0,38994:0:0:0:0:
192,192,38994,128,0,39201:0:0:0:0:
192,192,39615,1,0,0:0:0:0:
320,192,39615,1,0,0:0:0:0:
64,192,40235,1,0,0:0:0:0:
320,192,40235,1,0,0:0:0:0:
192,192,40442,128,0,40649:0:0:0:0:
448,192,40442,128,0,40649:0:0:0:0:
320,192,40856,128,0,41063:0:0:0:0:
448,192,40856,1,0,0:0:0:0:
192,192,41063,128,0,41270:0:0:0:0:
448,192,41063,128,0,41270:0:0:0:0:
64,192,41270,128,0,41890:0:0:0:0:
320,192,41477,1,0,0:0:0:0:
448,192,41477,1,0,0:0:0:0:
192,192,41683,128,0,41890:0:0:0:0:
448,192,41683,128,0,41890:0:0:0:0:
320,192,42097,128,0,43132:0:0:0:0:
64,192,42097,1,0,0:0:0:0:
448,192,42097,1,0,0:0:0:0:
192,192,42304,1,0,0:0:0:0:
448,192,42304,128,0,42511:0:0:0:0:
192,192,42718,128,0,43132:0:0:0:0:
448,192,42718,1,0,0:0:0:0:
448,192,42924,128,0,43131:0:0:0:0:
64,192,43339,1,0,0:0:0:0:
192,192,43339,1,0,0:0:0:0:
64,192,43752,128,0,43959:0:0:0:0:
192,192,43959,128,0,44166:0:0:0:0:
320,192,44166,128,0,44373:0:0:0:0:
320,192,44580,128,0,44787:0:0:0:0:
192,192,44580,128,0,44787:0:0:0:0:
448,192,44994,128,0,45201:0:0:0:0:
320,192,44994,128,0,45201:0:0:0:0:
448,192,45408,128,0,46235:0:0:0:0:
192,192,45615,1,0,0:0:0:0:
320,192,46235,1,0,0:0:0:0:
64,192,46546,128,0,46856:0:0:0:0:
192,192,46649,1,0,0:0:0:0:
320,192,46752,1,0,0:0:0:0:
448,192,46856,1,0,0:0:0:0:
448,192,47063,128,0,47477:0:0:0:0:
320,192,47063,1,0,0:0:0:0:
192,192,47270,1,0,0:0:0:0:
64,192,47477,1,0,0:0:0:0:
320,192,47683,128,0,47890:0:0:0:0:
192,192,47683,1,0,0:0:0:0:
448,192,47890,1,0,0:0:0:0:
192,192,48097,1,0,0:0:0:0:
192,192,48304,128,0,48511:0:0:0:0:
448,192,48304,1,0,0:0:0:0:
320,192,48511,1,0,0:0:0:0:
64,192,48718,128,0,49752:0:0:0:0:
192,192,48718,1,0,0:0:0:0:
320,192,48925,1,0,0:0:0:0:
448,192,49132,1,0,0:0:0:0:
320,192,49339,1,0,0:0:0:0:
192,192,49546,1,0,0:0:0:0:
320,192,49752,1,0,0:0:0:0:
192,192,49959,128,0,50166:0:0:0:0:
448,192,49959,1,0,0:0:0:0:
320,192,50166,1,0,0:0:0:0:
320,192,50373,128,0,50787:0:0:0:0:
64,192,50373,1,0,0:0:0:0:
192,192,50580,1,0,0:0:0:0:
64,192,50787,1,0,0:0:0:0:
64,192,50994,128,0,51201:0:0:0:0:
320,192,50994,1,0,0:0:0:0:
448,192,51201,1,0,0:0:0:0:
192,192,51408,1,0,0:0:0:0:
320,192,51615,128,0,52028:0:0:0:0:
64,192,51615,1,0,0:0:0:0:
192,192,51821,1,0,0:0:0:0:
448,192,52028,128,0,53270:0:0:0:0:
64,192,52028,1,0,0:0:0:0:
320,192,52235,1,0,0:0:0:0:
192,192,52442,1,0,0:0:0:0:
320,192,52649,1,0,0:0:0:0:
64,192,52856,1,0,0:0:0:0:
192,192,52856,1,0,0:0:0:0:
192,192,53063,1,0,0:0:0:0:
320,192,53063,1,0,0:0:0:0:
320,192,53270,1,0,0:0:0:0:
192,192,53270,1,0,0:0:0:0:
448,192,53477,1,0,0:0:0:0:
320,192,53477,1,0,0:0:0:0:
448,192,53683,1,0,0:0:0:0:
320,192,53683,1,0,0:0:0:0:
320,192,53890,1,0,0:0:0:0:
192,192,53890,1,0,0:0:0:0:
192,192,54097,1,0,0:0:0:0:
64,192,54097,1,0,0:0:0:0:
64,192,54304,128,0,54718:0:0:0:0:
320,192,54304,128,0,54718:0:0:0:0:
448,192,54511,1,0,0:0:0:0:
192,192,54511,1,0,0:0:0:0:
320,192,54821,1,0,0:0:0:0:
192,192,54925,1,0,0:0:0:0:
448,192,55132,128,0,55546:0:0:0:0:
192,192,55132,128,0,55546:0:0:0:0:
320,192,55339,1,0,0:0:0:0:
64,192,55339,1,0,0:0:0:0:
192,192,55649,128,0,55752:0:0:0:0:
320,192,55752,1,0,0:0:0:0:
448,192,55959,128,0,56580:0:0:0:0:
192,192,55959,128,0,56580:0:0:0:0:
320,192,56166,1,0,0:0:0:0:
64,192,56166,1,0,0:0:0:0:
320,192,56580,1,0,0:0:0:0:
64,192,56580,1,0,0:0:0:0:
448,192,56994,128,0,57201:0:0:0:0:
64,192,56994,128,0,57201:0:0:0:0:
192,192,56994,1,0,0:0:0:0:
320,192,56994,1,0,0:0:0:0:
320,192,57408,1,0,0:0:0:0:
192,192,57408,1,0,0:0:0:0:
192,192,57615,128,0,58028:0:0:0:0:
64,192,57615,128,0,58028:0:0:0:0:
320,192,57821,1,0,0:0:0:0:
448,192,57821,1,0,0:0:0:0:
192,192,58235,1,0,0:0:0:0:
320,192,58235,1,0,0:0:0:0:
448,192,58442,128,0,58856:0:0:0:0:
64,192,58442,128,0,58856:0:0:0:0:
320,192,58649,1,0,0:0:0:0:
192,192,58649,1,0,0:0:0:0:
320,192,59063,1,0,0:0:0:0:
192,192,59063,1,0,0:0:0:0:
448,192,59270,128,0,59683:0:0:0:0:
192,192,59270,128,0,59683:0:0:0:0:
320,192,59477,1,0,0:0:0:0:
64,192,59477,1,0,0:0:0:0:
320,192,59890,1,0,0:0:0:0:
64,192,59890,1,0,0:0:0:0:
448,192,60097,128,0,62787:0:0:0:0:
192,192,60097,128,0,62787:0:0:0:0:
320,192,60097,128,0,62787:0:0:0:0:
64,192,60097,128,0,62787:0:0:0:0:
320,192,62994,1,0,0:0:0:0:
448,192,62994,1,0,0:0:0:0:
192,192,63201,128,0,63408:0:0:0:0:
64,192,63201,128,0,63408:0:0:0:0:
320,192,63201,1,0,0:0:0:0:
320,192,63615,1,0,0:0:0:0:
448,192,63615,1,0,0:0:0:0:
448,192,63821,128,0,64442:0:0:0:0:
192,192,63821,128,0,64442:0:0:0:0:
64,192,64028,1,0,0:0:0:0:
320,192,64442,1,0,0:0:0:0:
320,192,64649,1,0,0:0:0:0:
448,192,64649,1,0,0:0:0:0:
192,192,64856,1,0,0:0:0:0:
320,192,64856,1,0,0:0:0:0:
64,192,65063,1,0,0:0:0:0:
192,192,65063,1,0,0:0:0:0:
192,192,65270,128,0,65477:0:0:0:0:
320,192,65270,128,0,65477:0:0:0:0:
320,192,65683,1,0,0:0:0:0:
192,192,65683,1,0,0:0:0:0:
448,192,66097,128,0,66304:0:0:0:0:
320,192,66097,128,0,66304:0:0:0:0:
64,192,66511,128,0,66718:0:0:0:0:
192,192,66511,128,0,66718:0:0:0:0:
320,192,66925,128,0,67132:0:0:0:0:
448,192,66925,128,0,67132:0:0:0:0:
192,192,67339,1,0,0:0:0:0:
320,192,67339,1,0,0:0:0:0:
64,192,67546,128,0,67959:0:0:0:0:
192,192,67546,128,0,67959:0:0:0:0:
192,192,68166,1,0,0:0:0:0:
320,192,68166,1,0,0:0:0:0:
320,192,68373,128,0,68787:0:0:0:0:
64,192,68373,128,0,68787:0:0:0:0:
320,192,68994,1,0,0:0:0:0:
64,192,68994,1,0,0:0:0:0:
448,192,69201,128,0,70028:0:0:0:0:
192,192,69201,128,0,70028:0:0:0:0:
320,192,69408,1,0,0:0:0:0:
64,192,69821,1,0,0:0:0:0:
320,192,70235,1,0,0:0:0:0:
448,192,70235,1,0,0:0:0:0:
192,192,70442,1,0,0:0:0:0:
320,192,70442,1,0,0:0:0:0:
64,192,70649,1,0,0:0:0:0:
192,192,70649,1,0,0:0:0:0:
64,192,70856,128,0,71270:0:0:0:0:
320,192,70856,128,0,71270:0:0:0:0:
448,192,71063,1,0,0:0:0:0:
192,192,71063,1,0,0:0:0:0:
192,192,71477,1,0,0:0:0:0:
64,192,71477,1,0,0:0:0:0:
320,192,71683,128,0,72097:0:0:0:0:
448,192,71683,128,0,72097:0:0:0:0:
192,192,72304,1,0,0:0:0:0:
320,192,72304,1,0,0:0:0:0:
448,192,72511,128,0,72925:0:0:0:0:
192,192,72511,128,0,72925:0:0:0:0:
320,192,73132,1,0,0:0:0:0:
64,192,73132,1,0,0:0:0:0:
64,192,73339,128,0,74580:0:0:0:0:
320,192,73339,128,0,74580:0:0:0:0:
192,192,73339,1,0,0:0:0:0:
448,192,73546,1,0,0:0:0:0:
192,192,73752,1,0,0:0:0:0:
448,192,73959,1,0,0:0:0:0:
192,192,74166,1,0,0:0:0:0:
448,192,74373,1,0,0:0:0:0:
192,192,74580,1,0,0:0:0:0:
64,192,74787,1,0,0:0:0:0:
448,192,74787,1,0,0:0:0:0:
320,192,74994,128,0,75408:0:0:0:0:
448,192,74994,128,0,75408:0:0:0:0:
192,192,75615,1,0,0:0:0:0:
320,192,75615,1,0,0:0:0:0:
64,192,75821,128,0,76235:0:0:0:0:
192,192,75821,128,0,76235:0:0:0:0:
192,192,76442,1,0,0:0:0:0:
320,192,76442,1,0,0:0:0:0:
320,192,76649,128,0,77994:0:0:0:0:
64,192,76649,128,0,77994:0:0:0:0:
448,192,76649,128,0,77994:0:0:0:0:
192,192,76856,1,0,0:0:0:0:
192,192,77270,1,0,0:0:0:0:
192,192,77683,1,0,0:0:0:0:
192,192,78097,1,0,0:0:0:0:
320,192,78304,1,0,0:0:0:0:
64,192,78304,1,0,0:0:0:0:
192,192,78511,128,0,78718:0:0:0:0:
448,192,78511,128,0,78718:0:0:0:0:
64,192,78925,1,0,0:0:0:0:
320,192,78925,1,0,0:0:0:0:
64,192,79339,128,0,79546:0:0:0:0:
192,192,79339,128,0,79546:0:0:0:0:
320,192,79752,128,0,80994:0:0:0:0:
64,192,79752,128,0,80994:0:0:0:0:
192,192,79752,1,0,0:0:0:0:
448,192,79752,1,0,0:0:0:0:
448,192,80166,1,0,0:0:0:0:
192,192,80580,1,0,0:0:0:0:
448,192,80994,1,0,0:0:0:0:
448,192,81615,1,0,0:0:0:0:
320,192,81615,1,0,0:0:0:0:
320,192,81821,128,0,82028:0:0:0:0:
192,192,81821,128,0,82028:0:0:0:0:
192,192,82235,1,0,0:0:0:0:
64,192,82235,1,0,0:0:0:0:
320,192,82649,128,0,82856:0:0:0:0:
192,192,82649,128,0,82856:0:0:0:0:
448,192,83063,128,0,84304:0:0:0:0:
192,192,83063,128,0,84304:0:0:0:0:
64,192,83063,128,0,84304:0:0:0:0:
320,192,83063,1,0,0:0:0:0:
320,192,83477,1,0,0:0:0:0:
320,192,83890,1,0,0:0:0:0:
320,192,84304,1,0,0:0:0:0:
320,192,84925,1,0,0:0:0:0:
448,192,84925,1,0,0:0:0:0:
192,192,85132,128,0,85339:0:0:0:0:
320,192,85132,128,0,85339:0:0:0:0:
64,192,85546,128,0,85752:0:0:0:0:
192,192,85546,128,0,85752:0:0:0:0:
192,192,85959,128,0,86166:0:0:0:0:
320,192,85959,128,0,86166:0:0:0:0:
64,192,86373,128,4,88442:2:0:0:0:
320,192,86373,128,4,88442:2:0:0:0:
448,192,86373,128,4,88442:2:0:0:0:
192,192,86373,128,4,88442:2:0:0:0:
