osu file format v14

[General]
AudioFilename: Angel_Beats.mp3
AudioLeadIn: 0
PreviewTime: 53518
Countdown: 0
SampleSet: Soft
StackLeniency: 0.7
Mode: 0
LetterboxInBreaks: 0
WidescreenStoryboard: 1

[Editor]
Bookmarks: 24210
DistanceSpacing: 1.6
BeatDivisor: 4
GridSize: 4
TimelineZoom: 1

[Metadata]
Title:My Soul, Your Beats! (TV Size)
TitleUnicode:My Soul, Your Beats! (TV Size)
Artist:Lia
ArtistUnicode:Lia
Creator:Dragontail
Version:Come on second remap!
Source:Angel Beats
Tags:Misure Hikan Asuka_- Kibbleru Yurippe Nakamura Tachibana Kanade Yuzuru Otonashi Hideki Hinata Takamatsu Noda Shiina Yusa TK Fujimaki Matsushita Oyama Takeyama Cha Ayato Naoi Iwasawa Yui Girls Dead Monster Opening
BeatmapID:1303149
BeatmapSetID:607572

[Difficulty]
HPDrainRate:5.4
CircleSize:4
OverallDifficulty:7.5
ApproachRate:7.5
SliderMultiplier:1.6
SliderTickRate:1

[Events]
//Background and Video events
Video,0,"Angel Beats! OP.flv"
0,0,"Angel BEats.jpg",0,0
//Break Periods
2,2169,3006
2,5479,6316
2,12100,13144
//Storyboard Layer 0 (Background)
//Storyboard Layer 1 (Fail)
//Storyboard Layer 2 (Pass)
//Storyboard Layer 3 (Foreground)
//Storyboard Sound Samples

[TimingPoints]
728,413.793103448276,4,2,0,40,1,0
728,-142.857142857143,4,2,0,40,0,0
15624,-111.111111111111,4,2,0,40,0,0
53693,-100,4,2,0,40,0,1
65279,-100,4,2,0,40,0,0
66934,-100,4,2,0,40,0,1
77900,-142.857142857143,4,2,0,40,0,0
88442,-100,4,2,0,40,0,0

[Colours]
Combo1 : 0,128,192
Combo2 : 192,192,192
Combo3 : 255,0,0
Combo4 : 0,255,64

[HitObjects]
72,176,521,5,0,0:0:0:0:
72,176,728,2,0,P|72:136|92:120,1,55.9999982910157
144,64,1141,2,0,P|176:44|200:44,1,55.9999982910157
193,43,1555,1,0,0:0:0:0:
284,44,1762,1,0,0:0:0:0:
348,104,1969,1,0,0:0:0:0:
440,188,3831,5,0,0:0:0:0:
440,188,4038,2,0,P|432:240|424:248,1,55.9999982910157
375,311,4452,2,0,P|343:331|311:335,1,55.9999982910157
325,334,4865,1,0,0:0:0:0:
236,344,5072,1,0,0:0:0:0:
172,284,5279,1,0,0:0:0:0:
52,192,7141,5,0,0:0:0:0:
52,192,7348,2,0,L|64:128,1,55.9999982910157
88,56,7762,2,0,L|136:0,1,55.9999982910157
212,28,8176,2,0,L|272:52,1,55.9999982910157
352,24,8590,2,0,L|348:92,1,55.9999982910157
344,168,9003,1,0,0:0:0:0:
336,296,10452,5,0,0:0:0:0:
336,296,10659,2,0,L|260:280,1,55.9999982910157
216,224,11072,2,0,L|164:168,1,55.9999982910157
124,108,11486,2,0,L|100:40,1,55.9999982910157
188,24,11900,1,0,0:0:0:0:
252,168,13969,6,0,L|252:228,1,55.9999982910157
256,316,14383,1,0,0:0:0:0:
280,308,14486,1,0,0:0:0:0:
304,304,14589,1,0,0:0:0:0:
329,308,14693,1,0,0:0:0:0:
354,310,14796,2,0,L|412:324,1,55.9999982910157
488,284,15210,2,0,L|548:248,1,55.9999982910157
448,160,15624,5,0,0:0:0:0:
448,160,15831,1,0,0:0:0:0:
448,160,16038,1,0,0:0:0:0:
448,160,16245,1,0,0:0:0:0:
448,160,16452,1,0,0:0:0:0:
448,160,16659,1,0,0:0:0:0:
448,160,16865,1,0,0:0:0:0:
448,160,17072,1,0,0:0:0:0:
372,72,17279,6,0,P|336:44|304:40,1,71.9999978027344
196,52,17693,1,0,0:0:0:0:
196,52,17796,1,0,0:0:0:0:
196,52,17900,2,0,P|140:68|96:140,1,143.999995605469
164,232,18521,1,0,0:0:0:0:
164,352,18728,1,0,0:0:0:0:
352,224,19141,5,0,0:0:0:0:
360,340,19348,1,0,0:0:0:0:
468,100,19762,1,0,0:0:0:0:
443,94,19865,1,0,0:0:0:0:
418,91,19968,1,0,0:0:0:0:
393,91,20072,1,0,0:0:0:0:
368,91,20175,1,0,0:0:0:0:
342,91,20279,1,0,0:0:0:0:
317,92,20382,1,0,0:0:0:0:
292,94,20486,1,0,0:0:0:0:
267,96,20590,6,0,P|204:104|188:112,1,71.9999978027344
80,100,21003,2,0,P|88:140|100:176,1,71.9999978027344
144,276,21417,1,0,0:0:0:0:
144,276,21624,2,0,P|176:304|236:312,1,71.9999978027344
320,312,22038,1,0,0:0:0:0:
320,312,22245,6,0,P|372:312|416:304,2,71.9999978027344
204,308,22865,1,0,0:0:0:0:
108,248,23072,1,0,0:0:0:0:
96,132,23279,1,0,0:0:0:0:
200,80,23486,1,0,0:0:0:0:
308,124,23693,1,0,0:0:0:0:
308,124,23900,6,0,P|360:144|376:152,1,71.9999978027344
448,240,24314,1,0,0:0:0:0:
448,240,24521,2,0,P|492:292|488:320,1,71.9999978027344
344,340,24934,1,0,0:0:0:0:
228,340,25141,1,0,0:0:0:0:
172,240,25348,1,0,0:0:0:0:
240,148,25555,5,0,0:0:0:0:
356,148,25762,1,0,0:0:0:0:
428,236,25969,2,0,P|468:220|472:188,1,71.9999978027344
476,120,26383,1,0,0:0:0:0:
476,120,26486,1,0,0:0:0:0:
476,120,26590,1,0,0:0:0:0:
476,120,26693,1,0,0:0:0:0:
476,120,26796,1,0,0:0:0:0:
376,168,27003,1,0,0:0:0:0:
376,168,27210,6,0,P|316:156|292:156,1,71.9999978027344
196,116,27624,2,0,P|184:172|196:196,1,71.9999978027344
152,296,28038,2,0,P|204:312|228:296,1,71.9999978027344
324,260,28452,1,0,0:0:0:0:
428,212,28659,1,0,0:0:0:0:
336,144,28865,6,0,L|276:84,1,71.9999978027344
196,20,29279,1,0,0:0:0:0:
92,68,29486,2,0,L|36:120,1,71.9999978027344
84,224,29900,1,0,0:0:0:0:
84,224,30107,2,0,P|148:252|168:252,1,71.9999978027344
252,308,30521,6,0,P|260:264|260:220,1,71.9999978027344
372,212,30934,1,0,0:0:0:0:
452,128,31141,1,0,0:0:0:0:
356,68,31348,2,0,P|300:72|256:72,1,71.9999978027344
180,16,31762,2,0,P|176:72|188:104,1,71.9999978027344
220,196,32176,5,0,0:0:0:0:
184,304,32383,2,0,P|228:316|260:292,1,71.9999978027344
356,224,32796,1,0,0:0:0:0:
392,332,33003,2,0,P|354:343|322:319,1,71.9999978027344
212,332,33417,1,0,0:0:0:0:
186,331,33520,1,0,0:0:0:0:
161,330,33623,1,0,0:0:0:0:
136,330,33727,1,0,0:0:0:0:
112,328,33831,6,0,L|32:328,2,71.9999978027344
152,220,34452,2,0,P|176:196|208:156,1,71.9999978027344
184,52,34865,1,0,0:0:0:0:
184,52,35072,2,0,P|224:48|268:48,1,71.9999978027344
352,112,35486,5,0,0:0:0:0:
448,48,35693,1,0,0:0:0:0:
448,48,35796,1,0,0:0:0:0:
448,48,35900,1,0,0:0:0:0:
456,164,36107,2,0,P|460:224|456:256,1,71.9999978027344
504,296,36521,2,0,P|456:308|408:292,1,71.9999978027344
332,352,36934,1,0,0:0:0:0:
232,292,37141,5,0,0:0:0:0:
232,292,37245,1,0,0:0:0:0:
232,292,37348,1,0,0:0:0:0:
120,324,37555,2,0,L|40:340,1,71.9999978027344
48,224,37969,2,0,L|64:136,1,71.9999978027344
80,40,38383,1,0,0:0:0:0:
196,40,38590,1,0,0:0:0:0:
272,128,38796,5,0,0:0:0:0:
204,224,39003,1,0,0:0:0:0:
88,228,39210,1,0,0:0:0:0:
20,136,39417,1,0,0:0:0:0:
20,136,39624,2,0,P|44:164|88:176,1,71.9999978027344
