osu file format v12

[General]
AudioFilename: bgm.mp3
AudioLeadIn: 0
PreviewTime: 54620
Countdown: 0
SampleSet: Soft
StackLeniency: 0.4
Mode: 3
LetterboxInBreaks: 0
SpecialStyle: 0
WidescreenStoryboard: 0

[Editor]
DistanceSpacing: 1
BeatDivisor: 4
GridSize: 8
TimelineZoom: 1

[Metadata]
Title:My Soul, Your Beats! (TV Size)
TitleUnicode:My Soul, Your Beats! (TV Size)
Artist:Lia
ArtistUnicode:Lia
Creator:DJPop
Version:6K SC
Source:Angel Beats!
Tags:Maeda Jun Key Sounds Label celas 44teru-k CREATION RECORDS
BeatmapID:382195
BeatmapSetID:136986

[Difficulty]
HPDrainRate:9
CircleSize:6
OverallDifficulty:8
ApproachRate:8
SliderMultiplier:0.64
SliderTickRate:1

[Events]
//Background and Video events
0,0,"My Soul Your Beats! (TV Size).jpg",0,0
Video,-260,"My Soul Your Beats! (TV Size).avi"
//Break Periods
//Storyboard Layer 0 (Background)
//Storyboard Layer 1 (Fail)
//Storyboard Layer 2 (Pass)
//Storyboard Layer 3 (Foreground)
//Storyboard Sound Samples
Sample,14172,0,"normal-hitclap8",100
Sample,14896,0,"normal-hitfinish51",100
Sample,15103,0,"soft-hitclap52",100
Sample,15310,0,"normal-hitfinish51",100
Sample,15517,0,"soft-hitclap52",100
Sample,15724,0,"normal-hitfinish51",100
Sample,15931,0,"soft-hitclap52",100
Sample,16137,0,"normal-hitfinish51",100
Sample,16344,0,"soft-hitclap52",100
Sample,20689,0,"normal-hitfinish51",100
Sample,24413,0,"drum-hitfinish23",100
Sample,24517,0,"drum-hitclap23",100
Sample,24620,0,"normal-hitwhistle24",100
Sample,27310,0,"normal-hitfinish24",100
Sample,27413,0,"normal-hitclap24",100
Sample,27517,0,"soft-hitwhistle24",100
Sample,27620,0,"soft-hitfinish24",100
Sample,27724,0,"soft-hitclap24",100
Sample,30724,0,"drum-hitwhistle24",100
Sample,30827,0,"drum-hitfinish24",100
Sample,30931,0,"drum-hitclap24",100
Sample,31034,0,"normal-hitwhistle25",100
Sample,33931,0,"normal-hitfinish24",100
Sample,34034,0,"normal-hitclap24",100
Sample,34137,0,"soft-hitwhistle24",100
Sample,34241,0,"soft-hitfinish24",100
Sample,34344,0,"soft-hitclap24",100
Sample,35586,0,"soft-hitclap21",100
Sample,35793,0,"drum-hitwhistle21",100
Sample,36206,0,"drum-hitfinish21",100
Sample,37344,0,"drum-hitwhistle24",100
Sample,37448,0,"drum-hitfinish24",100
Sample,37551,0,"drum-hitclap24",100
Sample,37655,0,"drum-hitclap21",100
Sample,37655,0,"normal-hitwhistle25",100
Sample,37862,0,"normal-hitwhistle22",100
Sample,38275,0,"normal-hitfinish22",100
Sample,39517,0,"normal-hitclap22",100
Sample,39931,0,"soft-hitwhistle22",100
Sample,40551,0,"soft-hitfinish22",100
Sample,41793,0,"soft-hitclap22",100
Sample,42000,0,"drum-hitwhistle22",100
Sample,42206,0,"normal-hitfinish25",100
Sample,42310,0,"normal-hitclap25",100
Sample,42413,0,"drum-hitfinish22",100
Sample,42413,0,"soft-hitwhistle25",100
Sample,42620,0,"drum-hitclap22",100
Sample,43034,0,"normal-hitwhistle23",100
Sample,43655,0,"normal-hitfinish23",100
Sample,44275,0,"normal-hitclap23",100
Sample,44896,0,"soft-hitwhistle23",100
Sample,46137,0,"soft-hitfinish23",100
Sample,46551,0,"soft-hitclap23",100
Sample,47172,0,"drum-hitwhistle23",100
Sample,47586,0,"soft-hitfinish25",100
Sample,47689,0,"soft-hitclap25",100
Sample,47793,0,"drum-hitwhistle25",100
Sample,47896,0,"drum-hitfinish25",100
Sample,47948,0,"drum-hitclap25",100
Sample,48000,0,"drum-hitwhistle27",100
Sample,48000,0,"normal-hitwhistle29",100
Sample,48000,0,"normal-hitfinish51",100
Sample,48413,0,"normal-hitfinish51",100
Sample,48827,0,"normal-hitfinish51",100
Sample,49241,0,"normal-hitfinish51",100
Sample,49655,0,"drum-hitfinish27",100
Sample,49655,0,"normal-hitfinish29",100
Sample,49655,0,"normal-hitfinish51",100
Sample,50068,0,"normal-hitfinish51",100
Sample,50482,0,"normal-hitfinish51",100
Sample,50896,0,"normal-hitfinish51",100
Sample,51310,0,"drum-hitclap27",100
Sample,51310,0,"normal-hitclap29",100
Sample,51310,0,"normal-hitfinish51",100
Sample,51724,0,"normal-hitfinish51",100
Sample,52137,0,"normal-hitfinish51",100
Sample,52551,0,"normal-hitfinish51",100
Sample,52965,0,"normal-hitwhistle28",100
Sample,52965,0,"soft-hitwhistle29",100
Sample,52965,0,"normal-hitfinish51",100
Sample,53379,0,"normal-hitfinish51",100
Sample,54620,0,"normal-hitfinish51",100
Sample,55034,0,"soft-hitfinish43",100
Sample,55034,0,"normal-hitfinish51",100
Sample,55448,0,"normal-hitfinish51",100
Sample,55655,0,"soft-hitclap43",100
Sample,55862,0,"normal-hitfinish51",100
Sample,56275,0,"drum-hitwhistle43",100
Sample,56275,0,"normal-hitfinish51",100
Sample,56689,0,"normal-hitfinish51",100
Sample,57103,0,"normal-hitfinish51",100
Sample,57517,0,"normal-hitfinish51",100
Sample,57931,0,"drum-hitfinish43",100
Sample,57931,0,"normal-hitfinish51",100
Sample,58344,0,"normal-hitfinish51",100
Sample,58551,0,"drum-hitclap43",100
Sample,58758,0,"normal-hitfinish51",100
Sample,59172,0,"normal-hitfinish51",100
Sample,59586,0,"normal-hitfinish51",100
Sample,60000,0,"normal-hitfinish51",100
Sample,60413,0,"normal-hitfinish51",100
Sample,60827,0,"normal-hitfinish51",100
Sample,61241,0,"normal-hitfinish51",100
Sample,61655,0,"normal-hitwhistle44",100
Sample,61655,0,"normal-hitfinish51",100
Sample,62068,0,"normal-hitfinish51",100
Sample,62275,0,"normal-hitfinish44",100
Sample,62482,0,"normal-hitfinish51",100
Sample,62896,0,"normal-hitfinish51",100
Sample,63103,0,"normal-hitclap44",100
Sample,63310,0,"normal-hitfinish51",100
Sample,63724,0,"normal-hitfinish51",100
Sample,64137,0,"normal-hitfinish51",100
Sample,64551,0,"normal-hitfinish51",100
Sample,64965,0,"soft-hitwhistle44",100
Sample,64965,0,"normal-hitfinish51",100
Sample,65379,0,"normal-hitfinish51",100
Sample,65793,0,"normal-hitfinish51",100
Sample,66206,0,"normal-hitfinish51",100
Sample,66413,0,"soft-hitfinish44",100
Sample,66620,0,"normal-hitfinish51",100
Sample,67034,0,"soft-hitclap44",100
Sample,67034,0,"normal-hitfinish51",100
Sample,67448,0,"normal-hitfinish51",100
Sample,67862,0,"normal-hitfinish51",100
Sample,68275,0,"drum-hitwhistle44",100
Sample,68275,0,"normal-hitfinish51",100
Sample,68689,0,"normal-hitfinish51",100
Sample,68896,0,"drum-hitfinish44",100
Sample,69103,0,"normal-hitfinish51",100
Sample,69517,0,"drum-hitclap44",100
Sample,69517,0,"normal-hitfinish51",100
Sample,69931,0,"normal-hitfinish51",100
Sample,70137,0,"normal-hitwhistle45",100
Sample,70344,0,"normal-hitfinish51",100
Sample,70758,0,"normal-hitfinish51",100
Sample,71172,0,"normal-hitfinish51",100
Sample,71586,0,"normal-hitfinish51",100
Sample,72000,0,"normal-hitfinish51",100
Sample,72206,0,"normal-hitfinish45",100
Sample,72413,0,"normal-hitfinish51",100
Sample,72827,0,"normal-hitclap45",100
Sample,72827,0,"normal-hitfinish51",100
Sample,73241,0,"normal-hitfinish51",100
Sample,73448,0,"soft-hitwhistle45",100
Sample,73655,0,"normal-hitfinish51",100
Sample,74068,0,"normal-hitfinish51",100
Sample,74482,0,"normal-hitfinish51",100
Sample,74896,0,"soft-hitfinish45",100
Sample,74896,0,"normal-hitfinish51",100
Sample,75310,0,"normal-hitfinish51",100
Sample,75517,0,"soft-hitclap45",100
Sample,75724,0,"normal-hitfinish51",100
Sample,76137,0,"normal-hitfinish51",100
Sample,76344,0,"drum-hitwhistle45",100
Sample,76551,0,"normal-hitfinish51",100
Sample,76965,0,"normal-hitfinish51",100
Sample,77379,0,"normal-hitfinish51",100
Sample,77793,0,"normal-hitfinish51",100
Sample,78206,0,"drum-hitfinish45",100
Sample,78206,0,"normal-hitfinish51",100
Sample,78620,0,"normal-hitfinish51",100
Sample,79034,0,"normal-hitfinish51",100
Sample,79241,0,"drum-hitfinish41",100
Sample,79241,0,"normal-hitfinish51",100
Sample,79448,0,"drum-hitclap41",100
Sample,79448,0,"drum-hitwhistle52",100
Sample,79655,0,"soft-hitclap52",100
Sample,79862,0,"normal-hitwhistle42",100
Sample,79862,0,"normal-hitclap51",100
Sample,80068,0,"soft-hitclap52",100
Sample,80275,0,"normal-hitfinish42",100
Sample,80275,0,"drum-hitwhistle52",100
Sample,80482,0,"soft-hitclap52",100
Sample,80689,0,"normal-hitclap51",100
Sample,80689,0,"drum-hitwhistle52",100
Sample,80689,0,"normal-hitclap42",100
Sample,80896,0,"soft-hitclap52",100
Sample,81103,0,"normal-hitfinish51",100
Sample,81517,0,"normal-hitfinish51",100
Sample,81931,0,"normal-hitfinish51",100
Sample,82344,0,"normal-hitfinish51",100
Sample,82551,0,"soft-hitwhistle42",100
Sample,82758,0,"soft-hitfinish42",100
Sample,82758,0,"drum-hitwhistle52",100
Sample,82965,0,"soft-hitclap52",100
Sample,83172,0,"soft-hitclap42",100
Sample,83172,0,"normal-hitclap51",100
Sample,83379,0,"soft-hitclap52",100
Sample,83586,0,"drum-hitwhistle42",100
Sample,83586,0,"drum-hitwhistle52",100
Sample,83793,0,"soft-hitclap52",100
Sample,84000,0,"normal-hitclap51",100
Sample,84000,0,"drum-hitwhistle52",100
Sample,84000,0,"drum-hitfinish42",100
Sample,84206,0,"soft-hitclap52",100
Sample,84413,0,"normal-hitfinish51",100
Sample,84827,0,"normal-hitfinish51",100
Sample,85241,0,"normal-hitfinish51",100
Sample,85655,0,"normal-hitfinish51",100
Sample,85862,0,"drum-hitclap42",100
Sample,86068,0,"normal-hitwhistle43",100
Sample,86068,0,"drum-hitwhistle52",100
Sample,86275,0,"soft-hitclap52",100
Sample,86482,0,"normal-hitfinish43",100
Sample,86482,0,"normal-hitclap51",100
Sample,86689,0,"soft-hitclap52",100
Sample,86896,0,"normal-hitclap43",100
Sample,86896,0,"drum-hitwhistle52",100
Sample,87103,0,"soft-hitclap52",100
Sample,87310,0,"soft-hitwhistle43",100
Sample,87724,0,"normal-hitfinish51",100
Sample,88137,0,"normal-hitfinish51",100
Sample,88137,0,"normal-hitclap51",100
Sample,88551,0,"normal-hitfinish51",100
Sample,88965,0,"normal-hitfinish51",100
Sample,88965,0,"normal-hitclap51",100
//Background Colour Transformations
3,100,0,0,0

[TimingPoints]
0,413.79310345,4,2,2,100,1,0
54620,-100,4,2,2,100,0,1
89379,-100,4,2,2,100,0,0

[HitObjects]
469,192,1448,5,2,1:0:2:0:
128,192,1655,1,4,2:0:4:0:
384,192,1655,1,4,1:0:2:0:
213,192,1862,1,8,2:0:4:0:
42,192,2068,1,2,3:0:4:0:
298,192,2068,1,8,1:0:2:0:
128,192,2275,1,4,3:0:4:0:
213,192,2482,1,8,3:0:4:0:
384,192,2482,1,2,2:0:2:0:
469,192,2689,1,2,1:0:5:0:
42,192,2896,128,4,4758:1:0:5:0:
298,192,2896,128,4,4758:2:0:2:0:
469,192,4758,1,8,2:0:2:0:
128,192,4965,1,8,1:0:5:0:
384,192,4965,1,2,3:0:2:0:
213,192,5172,1,2,2:0:5:0:
42,192,5379,1,4,2:0:5:0:
298,192,5379,1,4,3:0:2:0:
128,192,5586,1,8,2:0:5:0:
213,192,5793,1,2,3:0:5:0:
384,192,5793,1,8,3:0:2:0:
469,192,6000,1,4,3:0:5:0:
42,192,6206,128,8,8068:3:0:5:0:
298,192,6206,128,2,8068:1:0:3:0:
469,192,8068,1,4,1:0:3:0:
128,192,8275,1,2,1:0:6:0:
384,192,8275,1,8,1:0:3:0:
213,192,8482,1,4,1:0:6:0:
128,192,8689,1,8,1:0:6:0:
298,192,8689,1,2,2:0:3:0:
42,192,8896,1,2,2:0:6:0:
128,192,9103,1,4,2:0:6:0:
384,192,9103,1,4,2:0:3:0:
213,192,9310,1,8,2:0:6:0:
469,192,9517,1,8,2:0:3:0:
213,192,9931,128,2,11379:3:0:3:0:
469,192,9931,128,2,11379:2:0:4:0:
384,192,11379,1,4,3:0:3:0:
128,192,11586,1,2,3:0:6:0:
298,192,11586,1,8,3:0:3:0:
213,192,11793,1,4,3:0:6:0:
128,192,12000,1,8,3:0:6:0:
384,192,12000,1,2,1:0:4:0:
469,192,12206,1,2,1:0:7:0:
42,192,12413,1,4,1:0:7:0:
298,192,12413,1,4,1:0:4:0:
128,192,12827,128,8,16551:1:0:7:0:
384,192,12827,128,8,16551:1:0:4:0:
42,192,14896,128,2,15103:2:0:8:0:
213,192,14896,128,2,15103:2:0:7:0:
298,192,15103,128,4,15310:2:0:7:0:
469,192,15103,128,4,15310:2:0:8:0:
42,192,15310,128,8,15517:2:0:8:0:
213,192,15310,128,8,15517:2:0:7:0:
298,192,15517,128,2,15724:3:0:7:0:
469,192,15517,128,2,15724:3:0:8:0:
42,192,15724,128,4,15931:3:0:8:0:
213,192,15724,128,4,15931:3:0:7:0:
298,192,15931,128,8,16137:3:0:7:0:
469,192,15931,128,8,16137:3:0:8:0:
42,192,16137,128,2,16344:1:0:9:0:
213,192,16137,128,2,16344:1:0:8:0:
298,192,16344,128,4,16551:1:0:8:0:
469,192,16344,128,4,16551:1:0:9:0:
42,192,16551,1,4,1:0:51:0:
213,192,16551,1,8,1:0:9:0:
213,192,16758,1,2,2:0:9:0:
42,192,16965,1,4,1:0:51:0:
298,192,16965,1,8,3:0:10:0:
469,192,16965,1,4,2:0:9:0:
298,192,17172,1,2,1:0:11:0:
469,192,17172,1,8,2:0:9:0:
128,192,17379,1,4,1:0:11:0:
213,192,17379,1,4,1:0:51:0:
384,192,17379,1,2,3:0:9:0:
128,192,17586,1,8,1:0:11:0:
384,192,17586,1,4,3:0:9:0:
42,192,17793,1,2,2:0:11:0:
298,192,17793,1,4,1:0:51:0:
469,192,17793,1,8,3:0:9:0:
128,192,18000,1,4,2:0:11:0:
469,192,18000,1,2,1:0:10:0:
42,192,18206,1,4,1:0:51:0:
213,192,18206,1,8,2:0:11:0:
384,192,18206,1,4,1:0:10:0:
469,192,18413,1,8,1:0:10:0:
128,192,18517,1,4,1:0:12:0:
42,192,18620,1,4,1:0:51:0:
384,192,18724,1,8,1:0:12:0:
213,192,18827,1,2,3:0:11:0:
298,192,18827,1,2,2:0:10:0:
42,192,19034,1,4,1:0:51:0:
213,192,19034,1,4,3:0:11:0:
128,192,19448,1,4,1:0:51:0:
213,192,19448,1,8,3:0:11:0:
298,192,19448,1,4,2:0:10:0:
384,192,19655,1,8,2:0:10:0:
42,192,19862,1,4,1:0:51:0:
128,192,20068,1,2,1:0:12:0:
298,192,20068,1,2,3:0:10:0:
384,192,20275,1,4,1:0:51:0:
469,192,20275,1,4,3:0:10:0:
213,192,20586,1,8,2:0:51:0:
128,192,20689,1,2,3:0:51:0:
469,192,20689,1,2,2:0:12:0:
42,192,20793,1,4,3:0:51:0:
384,192,20793,1,4,2:0:12:0:
128,192,20896,1,8,3:0:51:0:
298,192,20896,1,8,2:0:12:0:
213,192,21000,1,2,1:0:52:0:
384,192,21000,1,2,3:0:12:0:
128,192,21103,1,4,1:0:52:0:
469,192,21103,1,4,3:0:12:0:
42,192,21206,1,8,1:0:52:0:
384,192,21206,128,8,21517:3:0:12:0:
128,192,21310,1,2,2:0:52:0:
213,192,21413,1,4,2:0:52:0:
42,192,21517,1,4,1:0:51:0:
298,192,21724,1,8,2:0:52:0:
42,192,21931,1,4,1:0:51:0:
213,192,21931,1,4,1:0:19:0:
469,192,21931,1,2,1:0:13:0:
128,192,22137,1,8,1:0:19:0:
298,192,22137,1,8,2:0:52:0:
384,192,22137,1,4,1:0:13:0:
42,192,22344,1,4,1:0:51:0:
128,192,22551,1,2,2:0:19:0:
298,192,22551,1,8,2:0:52:0:
469,192,22551,1,8,1:0:13:0:
42,192,22758,1,4,1:0:51:0:
213,192,22758,1,2,2:0:13:0:
298,192,22965,1,8,2:0:52:0:
384,192,23172,1,4,1:0:51:0:
213,192,23379,1,8,2:0:52:0:
384,192,23586,1,4,1:0:51:0:
42,192,23793,1,4,2:0:19:0:
128,192,23793,1,4,2:0:13:0:
298,192,23793,1,8,2:0:52:0:
213,192,24000,1,8,2:0:13:0:
384,192,24000,1,4,1:0:51:0:
128,192,24206,1,8,2:0:19:0:
298,192,24206,1,2,3:0:13:0:
469,192,24206,1,8,2:0:52:0:
384,192,24413,1,4,1:0:51:0:
42,192,24620,1,8,2:0:52:0:
128,192,24827,1,4,1:0:51:0:
384,192,24827,1,2,3:0:19:0:
469,192,24827,1,4,3:0:13:0:
298,192,25034,1,8,2:0:52:0:
128,192,25241,1,4,1:0:51:0:
213,192,25448,1,8,2:0:52:0:
128,192,25655,1,4,1:0:51:0:
298,192,25862,1,8,2:0:52:0:
42,192,26068,1,4,3:0:19:0:
128,192,26068,1,4,1:0:51:0:
469,192,26068,1,8,3:0:13:0:
213,192,26275,1,8,3:0:19:0:
298,192,26275,1,8,2:0:52:0:
384,192,26275,1,2,1:0:14:0:
469,192,26482,1,4,1:0:51:0:
42,192,26689,1,2,1:0:20:0:
213,192,26689,1,8,2:0:52:0:
384,192,26689,1,4,1:0:14:0:
128,192,26896,1,4,1:0:20:0:
298,192,26896,1,8,1:0:14:0:
469,192,26896,1,4,1:0:51:0:
384,192,27103,1,8,2:0:52:0:
42,192,27310,1,8,1:0:20:0:
213,192,27310,1,2,2:0:14:0:
469,192,27310,1,4,1:0:51:0:
128,192,27517,1,4,2:0:14:0:
298,192,27517,1,8,2:0:52:0:
469,192,27724,1,4,1:0:51:0:
128,192,27931,1,8,2:0:14:0:
298,192,27931,1,2,2:0:20:0:
384,192,27931,1,8,2:0:52:0:
42,192,28137,1,2,3:0:14:0:
213,192,28137,1,4,1:0:51:0:
469,192,28344,1,8,2:0:52:0:
213,192,28551,1,4,1:0:51:0:
128,192,28758,1,8,2:0:52:0:
213,192,28965,1,4,1:0:51:0:
384,192,29172,1,8,2:0:52:0:
213,192,29379,1,4,1:0:51:0:
42,192,29586,1,8,2:0:52:0:
298,192,29793,1,4,1:0:51:0:
128,192,30000,1,8,2:0:52:0:
213,192,30206,1,4,2:0:20:0:
298,192,30206,1,4,1:0:51:0:
469,192,30206,1,4,3:0:14:0:
42,192,30413,1,8,2:0:20:0:
128,192,30413,1,8,2:0:52:0:
384,192,30413,1,8,3:0:14:0:
298,192,30620,1,4,1:0:51:0:
128,192,30827,1,2,3:0:20:0:
213,192,30827,1,2,1:0:15:0:
469,192,30827,1,8,2:0:52:0:
42,192,31034,1,4,1:0:15:0:
298,192,31034,1,4,1:0:51:0:
384,192,31241,1,8,2:0:52:0:
128,192,31448,1,4,1:0:51:0:
469,192,31655,1,8,2:0:52:0:
128,192,31862,1,4,1:0:51:0:
42,192,32068,1,4,3:0:20:0:
213,192,32068,1,8,2:0:52:0:
298,192,32068,1,8,1:0:15:0:
128,192,32275,1,4,1:0:51:0:
384,192,32275,1,2,2:0:15:0:
42,192,32482,1,8,3:0:20:0:
213,192,32482,1,8,2:0:52:0:
469,192,32482,1,4,2:0:15:0:
128,192,32689,1,4,1:0:51:0:
298,192,32896,1,8,2:0:52:0:
213,192,33103,1,2,1:0:21:0:
384,192,33103,1,4,1:0:51:0:
469,192,33103,1,8,2:0:15:0:
42,192,33310,1,4,1:0:21:0:
128,192,33310,1,2,3:0:15:0:
298,192,33310,1,8,2:0:52:0:
384,192,33517,1,4,1:0:51:0:
128,192,33724,1,8,1:0:21:0:
298,192,33724,1,8,2:0:52:0:
469,192,33724,1,4,3:0:15:0:
42,192,33931,1,2,2:0:21:0:
213,192,33931,1,8,3:0:15:0:
384,192,33931,1,4,1:0:51:0:
298,192,34137,1,8,2:0:52:0:
42,192,34344,1,4,2:0:21:0:
213,192,34344,1,2,1:0:16:0:
384,192,34344,1,4,1:0:51:0:
128,192,34551,1,8,2:0:52:0:
469,192,34551,1,4,1:0:16:0:
42,192,34758,1,4,1:0:51:0:
384,192,34758,128,8,37862:3:0:26:0:
298,192,34965,1,8,2:0:52:0:
42,192,35172,1,4,1:0:51:0:
469,192,35379,1,8,2:0:52:0:
42,192,35586,1,4,1:0:51:0:
213,192,35586,1,8,1:0:16:0:
128,192,35793,1,8,2:0:52:0:
298,192,35793,1,2,2:0:16:0:
42,192,36000,1,4,1:0:51:0:
213,192,36206,1,8,2:0:52:0:
469,192,36206,1,4,2:0:16:0:
42,192,36413,1,4,1:0:51:0:
298,192,36620,1,8,2:0:52:0:
42,192,36827,1,4,1:0:51:0:
128,192,37034,1,8,2:0:52:0:
42,192,37241,1,4,1:0:51:0:
298,192,37448,1,8,2:0:52:0:
42,192,37655,1,4,1:0:51:0:
469,192,37655,1,8,2:0:16:0:
128,192,37862,1,8,2:0:52:0:
213,192,37862,1,2,3:0:16:0:
42,192,38068,1,4,1:0:51:0:
384,192,38068,128,2,40137:1:0:27:0:
213,192,38275,1,8,2:0:52:0:
298,192,38275,1,4,3:0:16:0:
42,192,38482,1,4,1:0:51:0:
128,192,38482,1,8,3:0:16:0:
469,192,38689,1,8,2:0:52:0:
42,192,38896,1,4,1:0:51:0:
298,192,39103,1,8,2:0:52:0:
42,192,39310,1,4,1:0:51:0:
128,192,39517,1,2,1:0:17:0:
469,192,39517,1,8,2:0:52:0:
42,192,39724,1,4,1:0:51:0:
213,192,39724,1,4,1:0:17:0:
128,192,39931,1,8,2:0:52:0:
298,192,39931,1,8,1:0:17:0:
42,192,40137,1,4,1:0:51:0:
469,192,40137,128,4,40344:1:0:27:0:
213,192,40344,1,8,2:0:52:0:
298,192,40344,128,8,40758:1:0:27:0:
42,192,40551,1,4,1:0:51:0:
384,192,40551,1,2,2:0:17:0:
128,192,40758,128,2,43655:2:0:27:0:
469,192,40758,1,8,2:0:52:0:
42,192,40965,1,4,1:0:51:0:
213,192,41172,1,8,2:0:52:0:
42,192,41379,1,4,1:0:51:0:
384,192,41586,1,8,2:0:52:0:
42,192,41793,1,4,1:0:51:0:
469,192,41793,1,4,2:0:17:0:
213,192,42000,1,8,2:0:52:0:
298,192,42000,1,8,2:0:17:0:
42,192,42206,1,4,1:0:51:0:
384,192,42413,128,8,42931:2:0:52:0:
469,192,42413,1,2,3:0:17:0:
42,192,42620,1,4,1:0:51:0:
213,192,42620,1,4,3:0:17:0:
42,192,43034,1,4,1:0:51:0:
298,192,43034,1,8,3:0:17:0:
213,192,43241,1,2,1:0:18:0:
384,192,43241,1,8,2:0:52:0:
42,192,43448,1,4,1:0:51:0:
213,192,43655,128,4,46344:2:0:27:0:
298,192,43655,1,8,2:0:52:0:
469,192,43655,1,4,1:0:18:0:
42,192,43862,1,4,1:0:51:0:
384,192,44068,1,8,2:0:52:0:
42,192,44275,1,4,1:0:51:0:
469,192,44275,1,8,1:0:18:0:
128,192,44482,1,8,2:0:52:0:
298,192,44482,1,2,2:0:18:0:
42,192,44689,1,4,1:0:51:0:
384,192,44896,1,4,2:0:18:0:
469,192,44896,1,8,2:0:52:0:
42,192,45103,1,4,1:0:51:0:
128,192,45103,1,8,2:0:18:0:
469,192,45310,1,8,2:0:52:0:
42,192,45517,1,4,1:0:51:0:
298,192,45724,1,8,2:0:52:0:
42,192,45931,1,4,1:0:51:0:
128,192,46137,1,2,3:0:18:0:
384,192,46137,1,8,2:0:52:0:
42,192,46344,1,4,1:0:51:0:
298,192,46344,1,4,3:0:18:0:
469,192,46344,128,8,48000:2:0:27:0:
128,192,46551,1,8,2:0:52:0:
384,192,46551,1,8,3:0:18:0:
42,192,46758,1,4,1:0:51:0:
213,192,46965,1,8,2:0:52:0:
42,192,47172,1,4,1:0:51:0:
384,192,47172,1,2,1:0:19:0:
298,192,47379,1,8,2:0:52:0:
42,192,47586,1,4,1:0:51:0:
384,192,47793,1,8,2:0:52:0:
128,192,47896,1,4,2:0:29:0:
213,192,48000,1,8,2:0:29:0:
298,192,48000,1,2,1:0:26:0:
213,192,48206,1,2,3:0:29:0:
298,192,48206,1,2,1:0:26:0:
213,192,48413,1,4,3:0:29:0:
298,192,48413,1,2,1:0:26:0:
213,192,48620,1,8,3:0:29:0:
298,192,48620,1,2,1:0:26:0:
213,192,48827,1,2,1:0:30:0:
298,192,48827,1,2,1:0:26:0:
213,192,49034,1,4,1:0:30:0:
298,192,49034,1,2,1:0:26:0:
213,192,49241,1,8,1:0:30:0:
298,192,49241,1,2,1:0:26:0:
213,192,49448,1,2,2:0:30:0:
298,192,49448,1,4,1:0:26:0:
128,192,49655,1,4,2:0:30:0:
384,192,49655,1,8,1:0:26:0:
128,192,49862,1,8,2:0:30:0:
384,192,49862,1,8,1:0:26:0:
128,192,50068,1,2,3:0:30:0:
384,192,50068,1,8,1:0:26:0:
128,192,50275,1,4,3:0:30:0:
384,192,50275,1,8,1:0:26:0:
128,192,50482,1,8,3:0:30:0:
384,192,50482,1,8,1:0:26:0:
128,192,50689,1,2,1:0:31:0:
384,192,50689,1,8,1:0:26:0:
128,192,50896,1,4,1:0:31:0:
384,192,50896,1,2,2:0:26:0:
298,192,51034,1,4,2:0:26:0:
128,192,51103,1,8,1:0:31:0:
384,192,51172,1,8,2:0:26:0:
42,192,51310,1,2,2:0:31:0:
469,192,51310,1,2,3:0:26:0:
42,192,51517,1,4,2:0:31:0:
469,192,51517,1,2,3:0:26:0:
42,192,51724,1,8,2:0:31:0:
469,192,51724,1,2,3:0:26:0:
42,192,51931,1,2,3:0:31:0:
469,192,51931,1,2,3:0:26:0:
42,192,52137,1,4,3:0:31:0:
469,192,52137,1,2,3:0:26:0:
42,192,52344,1,8,3:0:31:0:
469,192,52344,1,2,3:0:26:0:
42,192,52551,1,2,1:0:32:0:
469,192,52551,1,2,3:0:26:0:
42,192,52758,1,4,1:0:32:0:
469,192,52758,1,2,3:0:26:0:
128,192,52965,1,8,1:0:32:0:
384,192,52965,1,4,3:0:26:0:
128,192,53172,1,2,2:0:32:0:
384,192,53172,1,4,3:0:26:0:
128,192,53379,1,4,2:0:32:0:
384,192,53379,1,4,3:0:26:0:
128,192,53586,1,8,2:0:32:0:
384,192,53586,1,4,3:0:26:0:
42,192,53793,1,2,3:0:32:0:
128,192,53793,1,8,2:0:28:0:
213,192,53793,1,4,1:0:28:0:
128,192,54000,1,4,3:0:32:0:
213,192,54000,1,2,3:0:28:0:
298,192,54000,1,8,1:0:28:0:
213,192,54206,1,8,3:0:32:0:
298,192,54206,1,4,3:0:28:0:
384,192,54206,1,2,2:0:28:0:
298,192,54413,1,2,1:0:33:0:
384,192,54413,1,8,3:0:28:0:
469,192,54413,1,4,2:0:28:0:
42,192,54620,128,4,56275:1:0:48:0:
128,192,54620,1,2,3:0:52:0:
213,192,54620,1,4,2:0:51:0:
298,192,54827,1,8,2:0:52:0:
128,192,55034,1,2,3:0:52:0:
384,192,55034,1,4,1:0:33:0:
213,192,55241,1,8,2:0:52:0:
128,192,55448,1,2,3:0:52:0:
298,192,55448,1,8,1:0:33:0:
213,192,55655,1,8,2:0:52:0:
469,192,55655,1,2,2:0:33:0:
128,192,55862,1,2,3:0:52:0:
384,192,56068,1,8,2:0:52:0:
128,192,56275,1,2,3:0:52:0:
298,192,56275,1,4,2:0:33:0:
469,192,56275,128,8,57103:1:0:48:0:
42,192,56482,1,8,2:0:52:0:
213,192,56482,1,8,2:0:33:0:
384,192,56689,1,2,3:0:52:0:
128,192,56896,1,8,2:0:52:0:
213,192,57103,1,2,3:0:52:0:
384,192,57103,128,2,57931:2:0:48:0:
298,192,57310,1,8,2:0:52:0:
42,192,57517,1,2,3:0:52:0:
128,192,57724,1,8,2:0:52:0:
42,192,57931,1,2,3:0:52:0:
213,192,57931,1,2,3:0:33:0:
298,192,57931,128,4,59586:2:0:48:0:
128,192,58137,1,4,3:0:33:0:
384,192,58137,1,8,2:0:52:0:
213,192,58344,1,2,3:0:52:0:
469,192,58344,1,8,3:0:33:0:
42,192,58551,1,8,2:0:52:0:
384,192,58551,1,2,1:0:34:0:
213,192,58758,1,2,3:0:52:0:
128,192,58965,1,8,2:0:52:0:
384,192,58965,1,4,1:0:34:0:
469,192,59172,1,2,3:0:52:0:
42,192,59379,1,8,2:0:52:0:
213,192,59586,128,8,60413:2:0:48:0:
469,192,59586,1,2,3:0:52:0:
128,192,59793,1,8,2:0:52:0:
298,192,59793,1,8,1:0:34:0:
469,192,60000,1,2,3:0:52:0:
42,192,60206,1,8,2:0:52:0:
384,192,60206,1,2,2:0:34:0:
42,192,60413,1,2,3:0:52:0:
128,192,60413,128,2,61241:3:0:48:0:
298,192,60620,1,8,2:0:52:0:
469,192,60620,1,4,2:0:34:0:
213,192,60827,1,2,3:0:52:0:
384,192,61034,1,8,2:0:52:0:
42,192,61241,128,4,62068:3:0:48:0:
469,192,61241,1,2,3:0:52:0:
213,192,61448,1,8,2:0:52:0:
384,192,61655,1,2,3:0:52:0:
469,192,61655,1,8,2:0:34:0:
213,192,61862,1,8,2:0:52:0:
298,192,61862,1,2,3:0:34:0:
128,192,62068,128,8,64551:3:0:48:0:
298,192,62068,1,2,3:0:52:0:
384,192,62068,1,4,3:0:34:0:
42,192,62275,1,8,2:0:52:0:
213,192,62275,1,8,3:0:34:0:
469,192,62482,1,2,3:0:52:0:
42,192,62689,1,8,2:0:52:0:
213,192,62689,1,2,1:0:35:0:
384,192,62896,1,2,3:0:52:0:
298,192,63103,1,4,1:0:35:0:
469,192,63103,1,8,2:0:52:0:
384,192,63310,1,2,3:0:52:0:
42,192,63517,1,8,2:0:52:0:
213,192,63517,1,8,1:0:35:0:
298,192,63724,1,2,2:0:35:0:
469,192,63724,1,2,3:0:52:0:
384,192,63931,1,8,2:0:52:0:
42,192,64137,1,2,3:0:52:0:
213,192,64137,1,4,2:0:35:0:
384,192,64344,1,8,2:0:52:0:
213,192,64551,128,2,66206:1:0:49:0:
469,192,64551,1,2,3:0:52:0:
42,192,64758,1,8,2:0:52:0:
128,192,64965,1,2,3:0:52:0:
298,192,64965,1,8,2:0:35:0:
128,192,65172,1,8,2:0:52:0:
298,192,65172,1,2,3:0:35:0:
384,192,65379,1,2,3:0:52:0:
469,192,65379,1,4,3:0:35:0:
128,192,65586,1,8,2:0:52:0:
298,192,65586,1,8,3:0:35:0:
42,192,65793,1,2,3:0:52:0:
128,192,66000,1,8,2:0:52:0:
384,192,66000,1,2,1:0:36:0:
42,192,66206,1,2,3:0:52:0:
298,192,66206,128,4,67034:1:0:49:0:
128,192,66413,1,8,2:0:52:0:
384,192,66413,1,4,1:0:36:0:
469,192,66620,1,2,3:0:52:0:
42,192,66827,1,8,2:0:52:0:
128,192,67034,1,2,3:0:52:0:
213,192,67034,1,8,1:0:36:0:
384,192,67034,128,8,67862:1:0:49:0:
469,192,67241,1,8,2:0:52:0:
42,192,67448,1,4,2:0:51:0:
128,192,67448,1,2,2:0:36:0:
298,192,67448,1,2,3:0:52:0:
213,192,67655,1,8,2:0:52:0:
42,192,67862,1,2,2:0:51:0:
298,192,67862,1,2,3:0:52:0:
469,192,67862,128,2,69517:2:0:49:0:
128,192,68068,1,8,2:0:52:0:
213,192,68275,1,2,3:0:52:0:
298,192,68275,1,4,2:0:36:0:
384,192,68482,1,8,2:0:52:0:
42,192,68689,1,2,3:0:52:0:
128,192,68689,1,8,2:0:36:0:
298,192,68896,1,8,2:0:52:0:
384,192,68896,1,2,3:0:36:0:
213,192,69103,1,2,3:0:52:0:
128,192,69310,1,8,2:0:52:0:
42,192,69517,1,2,3:0:52:0:
213,192,69517,1,4,3:0:36:0:
384,192,69517,128,4,70344:2:0:49:0:
128,192,69724,1,8,2:0:52:0:
298,192,69724,1,8,3:0:36:0:
213,192,69931,1,2,3:0:52:0:
469,192,69931,1,2,1:0:37:0:
42,192,70137,1,8,2:0:52:0:
128,192,70137,1,4,1:0:37:0:
213,192,70344,1,2,3:0:52:0:
298,192,70344,128,8,71172:2:0:49:0:
469,192,70344,1,8,1:0:37:0:
42,192,70551,1,8,2:0:52:0:
128,192,70551,1,2,2:0:37:0:
213,192,70758,1,2,3:0:52:0:
469,192,70758,1,4,2:0:37:0:
128,192,70965,1,8,2:0:52:0:
384,192,70965,1,8,2:0:37:0:
42,192,71172,1,2,3:0:52:0:
128,192,71172,1,2,3:0:37:0:
213,192,71172,128,2,72827:3:0:49:0:
384,192,71379,1,8,2:0:52:0:
298,192,71586,1,2,3:0:52:0:
469,192,71586,1,4,3:0:37:0:
42,192,71793,1,8,2:0:52:0:
128,192,71793,1,8,3:0:37:0:
384,192,72000,1,2,3:0:52:0:
42,192,72206,1,8,2:0:52:0:
128,192,72206,1,2,1:0:38:0:
469,192,72413,1,2,3:0:52:0:
298,192,72620,1,8,2:0:52:0:
42,192,72827,128,4,74482:3:0:49:0:
128,192,72827,1,4,1:0:38:0:
384,192,72827,1,2,3:0:52:0:
298,192,73034,1,8,2:0:52:0:
213,192,73241,1,2,3:0:52:0:
384,192,73241,1,8,1:0:38:0:
128,192,73448,1,8,2:0:52:0:
469,192,73448,1,2,2:0:38:0:
213,192,73655,1,2,3:0:52:0:
298,192,73862,1,8,2:0:52:0:
384,192,73862,1,4,2:0:38:0:
128,192,74068,1,2,3:0:52:0:
213,192,74275,1,8,2:0:52:0:
128,192,74482,128,8,76137:3:0:49:0:
298,192,74482,1,2,3:0:52:0:
384,192,74482,1,4,2:0:51:0:
213,192,74689,1,8,2:0:52:0:
384,192,74896,1,2,3:0:52:0:
469,192,74896,1,8,2:0:38:0:
42,192,75103,1,8,2:0:52:0:
213,192,75103,1,2,3:0:38:0:
213,192,75310,1,2,3:0:52:0:
298,192,75310,1,4,3:0:38:0:
298,192,75517,1,8,2:0:52:0:
469,192,75517,1,8,3:0:38:0:
42,192,75724,1,2,3:0:52:0:
213,192,75931,1,8,2:0:52:0:
298,192,76137,1,2,3:0:52:0:
384,192,76137,128,2,77793:1:0:50:0:
42,192,76344,1,8,2:0:52:0:
213,192,76344,1,2,1:0:39:0:
213,192,76551,1,2,3:0:52:0:
298,192,76551,1,4,1:0:39:0:
128,192,76758,1,8,2:0:52:0:
469,192,76758,1,8,1:0:39:0:
42,192,76965,1,2,3:0:52:0:
213,192,76965,1,2,2:0:39:0:
128,192,77172,1,8,2:0:52:0:
298,192,77172,1,4,2:0:39:0:
42,192,77379,1,2,3:0:52:0:
213,192,77379,1,8,2:0:39:0:
128,192,77586,1,2,3:0:39:0:
298,192,77586,1,8,2:0:52:0:
213,192,77793,128,4,79448:1:0:50:0:
469,192,77793,1,2,3:0:52:0:
42,192,78000,1,8,2:0:52:0:
128,192,78206,1,2,3:0:52:0:
384,192,78206,1,4,3:0:39:0:
42,192,78413,1,8,2:0:52:0:
298,192,78620,1,2,3:0:52:0:
469,192,78620,1,8,3:0:39:0:
128,192,78827,1,8,2:0:52:0:
384,192,78827,1,2,1:0:40:0:
42,192,79034,1,8,1:0:51:0:
42,192,79241,1,8,1:0:51:0:
469,192,79241,1,4,1:0:40:0:
128,192,79448,1,8,3:0:45:0:
298,192,79448,1,4,2:0:51:0:
384,192,79448,1,8,1:0:40:0:
213,192,79655,1,2,1:0:46:0:
42,192,79862,1,4,1:0:46:0:
298,192,79862,1,2,2:0:40:0:
469,192,79862,1,2,2:0:51:0:
128,192,80068,1,8,1:0:46:0:
213,192,80275,1,2,2:0:46:0:
384,192,80275,1,4,2:0:40:0:
469,192,80482,1,4,2:0:46:0:
42,192,80689,128,8,82551:2:0:46:0:
298,192,80689,128,8,82551:2:0:40:0:
384,192,81103,1,2,3:0:52:0:
213,192,81310,1,8,2:0:52:0:
384,192,81517,1,2,3:0:52:0:
469,192,81517,1,8,1:0:51:0:
213,192,81724,1,8,2:0:52:0:
384,192,81931,1,2,3:0:52:0:
213,192,82137,1,8,2:0:52:0:
384,192,82344,1,2,3:0:52:0:
469,192,82344,1,8,1:0:51:0:
213,192,82551,1,8,2:0:52:0:
469,192,82551,1,2,3:0:40:0:
128,192,82758,1,2,3:0:46:0:
298,192,82758,1,4,2:0:51:0:
384,192,82758,1,4,3:0:40:0:
213,192,82965,1,4,3:0:46:0:
42,192,83172,1,8,3:0:46:0:
298,192,83172,1,8,3:0:40:0:
469,192,83172,1,2,2:0:51:0:
128,192,83379,1,2,1:0:47:0:
213,192,83586,1,4,1:0:47:0:
384,192,83586,1,2,1:0:41:0:
469,192,83793,1,8,1:0:47:0:
42,192,84000,128,2,85862:2:0:47:0:
298,192,84000,128,4,85862:1:0:41:0:
469,192,84413,1,2,3:0:52:0:
213,192,84620,1,8,2:0:52:0:
384,192,84827,1,8,1:0:51:0:
469,192,84827,1,2,3:0:52:0:
213,192,85034,1,8,2:0:52:0:
469,192,85241,1,2,3:0:52:0:
213,192,85448,1,8,2:0:52:0:
384,192,85655,1,8,1:0:51:0:
469,192,85655,1,2,3:0:52:0:
213,192,85862,1,8,2:0:52:0:
469,192,85862,1,8,1:0:41:0:
128,192,86068,1,4,2:0:47:0:
298,192,86068,1,4,2:0:51:0:
384,192,86068,1,2,2:0:41:0:
213,192,86275,1,8,2:0:47:0:
42,192,86482,1,2,3:0:47:0:
298,192,86482,1,4,2:0:41:0:
469,192,86482,1,2,2:0:51:0:
128,192,86689,1,4,3:0:47:0:
42,192,86896,1,8,3:0:47:0:
213,192,86896,1,8,2:0:41:0:
42,192,87310,1,8,1:0:51:0:
128,192,87310,128,2,89172:1:0:48:0:
384,192,87310,128,2,89172:3:0:41:0:
469,192,87310,1,2,2:0:51:0:
213,192,87724,1,2,3:0:52:0:
298,192,87724,1,8,1:0:50:0:
42,192,87931,1,8,2:0:52:0:
469,192,87931,1,2,2:0:50:0:
213,192,88137,1,2,3:0:52:0:
298,192,88137,1,4,2:0:50:0:
42,192,88344,1,8,2:0:52:0:
469,192,88344,1,8,2:0:50:0:
213,192,88551,1,2,3:0:52:0:
298,192,88551,1,2,3:0:50:0:
42,192,88758,1,8,2:0:52:0:
469,192,88758,1,4,3:0:50:0:
213,192,88965,1,2,3:0:52:0:
298,192,88965,1,8,3:0:50:0:
42,192,89172,1,8,2:0:52:0:
469,192,89172,1,2,1:0:51:0:
