osu file format v12

[General]
AudioFilename: bgm.mp3
AudioLeadIn: 0
PreviewTime: 54620
Countdown: 0
SampleSet: Soft
StackLeniency: 0.4
Mode: 3
LetterboxInBreaks: 0
SpecialStyle: 0
WidescreenStoryboard: 0

[Editor]
DistanceSpacing: 1
BeatDivisor: 4
GridSize: 8
TimelineZoom: 1

[Metadata]
Title:My Soul, Your Beats! (TV Size)
TitleUnicode:My Soul, Your Beats! (TV Size)
Artist:Lia
ArtistUnicode:Lia
Creator:DJPop
Version:5K NM
Source:Angel Beats!
Tags:Maeda Jun Key Sounds Label celas 44teru-k CREATION RECORDS
BeatmapID:365270
BeatmapSetID:136986

[Difficulty]
HPDrainRate:6
CircleSize:5
OverallDifficulty:8
ApproachRate:8
SliderMultiplier:0.64
SliderTickRate:1

[Events]
//Background and Video events
0,0,"My Soul Your Beats! (TV Size).jpg",0,0
Video,-260,"My Soul Your Beats! (TV Size).avi"
//Break Periods
//Storyboard Layer 0 (Background)
//Storyboard Layer 1 (Fail)
//Storyboard Layer 2 (Pass)
//Storyboard Layer 3 (Foreground)
//Storyboard Sound Samples
Sample,1655,0,"soft-hitfinish4",100
Sample,1862,0,"soft-hitclap4",100
Sample,2068,0,"drum-hitwhistle4",100
Sample,2275,0,"drum-hitfinish4",100
Sample,2482,0,"drum-hitclap4",100
Sample,2689,0,"normal-hitwhistle5",100
Sample,2896,0,"normal-hitfinish5",100
Sample,4965,0,"normal-hitclap5",100
Sample,5172,0,"soft-hitwhistle5",100
Sample,5379,0,"soft-hitfinish5",100
Sample,5586,0,"soft-hitclap5",100
Sample,5793,0,"drum-hitwhistle5",100
Sample,6000,0,"drum-hitfinish5",100
Sample,6206,0,"drum-hitclap5",100
Sample,8275,0,"normal-hitwhistle6",100
Sample,8482,0,"normal-hitfinish6",100
Sample,8689,0,"normal-hitclap6",100
Sample,8896,0,"soft-hitwhistle6",100
Sample,9103,0,"soft-hitfinish6",100
Sample,9310,0,"soft-hitclap6",100
Sample,9931,0,"drum-hitwhistle3",100
Sample,11586,0,"drum-hitwhistle6",100
Sample,11793,0,"drum-hitfinish6",100
Sample,12000,0,"drum-hitclap6",100
Sample,12206,0,"normal-hitwhistle7",100
Sample,12413,0,"normal-hitfinish7",100
Sample,12827,0,"normal-hitclap7",100
Sample,14172,0,"normal-hitclap8",100
Sample,14896,0,"soft-hitwhistle8",100
Sample,14896,0,"soft-hitwhistle7",100
Sample,14896,0,"normal-hitfinish51",100
Sample,15103,0,"soft-hitclap52",100
Sample,15103,0,"soft-hitfinish7",100
Sample,15103,0,"soft-hitfinish8",100
Sample,15310,0,"soft-hitclap8",100
Sample,15310,0,"soft-hitclap7",100
Sample,15310,0,"normal-hitfinish51",100
Sample,15517,0,"soft-hitclap52",100
Sample,15517,0,"drum-hitwhistle7",100
Sample,15517,0,"drum-hitwhistle8",100
Sample,15724,0,"drum-hitfinish8",100
Sample,15724,0,"drum-hitfinish7",100
Sample,15724,0,"normal-hitfinish51",100
Sample,15931,0,"soft-hitclap52",100
Sample,15931,0,"drum-hitclap7",100
Sample,15931,0,"drum-hitclap8",100
Sample,16137,0,"normal-hitwhistle9",100
Sample,16137,0,"normal-hitwhistle8",100
Sample,16137,0,"normal-hitfinish51",100
Sample,16344,0,"soft-hitclap52",100
Sample,16344,0,"normal-hitfinish8",100
Sample,16344,0,"normal-hitfinish9",100
Sample,16551,0,"normal-hitfinish51",100
Sample,16965,0,"drum-hitclap10",100
Sample,16965,0,"normal-hitfinish51",100
Sample,17172,0,"normal-hitwhistle11",100
Sample,17379,0,"normal-hitfinish51",100
Sample,17379,0,"normal-hitfinish11",100
Sample,17586,0,"normal-hitclap11",100
Sample,17793,0,"soft-hitwhistle11",100
Sample,17793,0,"normal-hitfinish51",100
Sample,18000,0,"soft-hitfinish11",100
Sample,18206,0,"normal-hitfinish51",100
Sample,18206,0,"soft-hitclap11",100
Sample,18517,0,"normal-hitfinish12",100
Sample,18620,0,"normal-hitfinish51",100
Sample,18724,0,"normal-hitclap12",100
Sample,18827,0,"drum-hitwhistle11",100
Sample,19034,0,"normal-hitfinish51",100
Sample,19034,0,"drum-hitfinish11",100
Sample,19448,0,"normal-hitfinish51",100
Sample,19448,0,"drum-hitclap11",100
Sample,19862,0,"normal-hitfinish51",100
Sample,20068,0,"normal-hitwhistle12",100
Sample,20275,0,"normal-hitfinish51",100
Sample,20586,0,"soft-hitclap51",100
Sample,20689,0,"drum-hitwhistle51",100
Sample,20689,0,"soft-hitwhistle12",100
Sample,20793,0,"drum-hitfinish51",100
Sample,20793,0,"soft-hitfinish12",100
Sample,20896,0,"drum-hitclap51",100
Sample,20896,0,"soft-hitclap12",100
Sample,21000,0,"normal-hitwhistle52",100
Sample,21000,0,"drum-hitwhistle12",100
Sample,21103,0,"normal-hitfinish52",100
Sample,21103,0,"drum-hitfinish12",100
Sample,21206,0,"normal-hitclap52",100
Sample,21206,0,"drum-hitclap12",100
Sample,21310,0,"soft-hitwhistle52",100
Sample,21413,0,"soft-hitfinish52",100
Sample,21517,0,"normal-hitfinish51",100
Sample,21724,0,"soft-hitclap52",100
Sample,21931,0,"normal-hitfinish51",100
Sample,21931,0,"normal-hitfinish19",100
Sample,22137,0,"soft-hitclap52",100
Sample,22137,0,"normal-hitclap19",100
Sample,22344,0,"normal-hitfinish51",100
Sample,22551,0,"soft-hitwhistle19",100
Sample,22551,0,"soft-hitclap52",100
Sample,22758,0,"normal-hitfinish51",100
Sample,22965,0,"soft-hitclap52",100
Sample,23172,0,"normal-hitfinish51",100
Sample,23379,0,"soft-hitclap52",100
Sample,23586,0,"normal-hitfinish51",100
Sample,23793,0,"soft-hitclap52",100
Sample,23793,0,"soft-hitfinish19",100
Sample,24000,0,"normal-hitfinish51",100
Sample,24206,0,"soft-hitclap19",100
Sample,24206,0,"soft-hitclap52",100
Sample,24413,0,"drum-hitfinish23",100
Sample,24413,0,"normal-hitfinish51",100
Sample,24517,0,"drum-hitclap23",100
Sample,24620,0,"soft-hitclap52",100
Sample,24620,0,"normal-hitwhistle24",100
Sample,24827,0,"normal-hitfinish51",100
Sample,24827,0,"drum-hitwhistle19",100
Sample,25034,0,"soft-hitclap52",100
Sample,25241,0,"normal-hitfinish51",100
Sample,25448,0,"soft-hitclap52",100
Sample,25655,0,"normal-hitfinish51",100
Sample,25862,0,"soft-hitclap52",100
Sample,26068,0,"drum-hitfinish19",100
Sample,26068,0,"normal-hitfinish51",100
Sample,26275,0,"drum-hitclap19",100
Sample,26275,0,"soft-hitclap52",100
Sample,26482,0,"normal-hitfinish51",100
Sample,26689,0,"soft-hitclap52",100
Sample,26689,0,"normal-hitwhistle20",100
Sample,26896,0,"normal-hitfinish51",100
Sample,26896,0,"normal-hitfinish20",100
Sample,27103,0,"soft-hitclap52",100
Sample,27310,0,"normal-hitfinish51",100
Sample,27310,0,"normal-hitclap20",100
Sample,27310,0,"normal-hitfinish24",100
Sample,27413,0,"normal-hitclap24",100
Sample,27517,0,"soft-hitwhistle24",100
Sample,27517,0,"soft-hitclap52",100
Sample,27620,0,"soft-hitfinish24",100
Sample,27724,0,"normal-hitfinish51",100
Sample,27724,0,"soft-hitclap24",100
Sample,27931,0,"soft-hitclap52",100
Sample,27931,0,"soft-hitwhistle20",100
Sample,28137,0,"normal-hitfinish51",100
Sample,28344,0,"soft-hitclap52",100
Sample,28551,0,"normal-hitfinish51",100
Sample,28758,0,"soft-hitclap52",100
Sample,28965,0,"normal-hitfinish51",100
Sample,29172,0,"soft-hitclap52",100
Sample,29379,0,"normal-hitfinish51",100
Sample,29586,0,"soft-hitclap52",100
Sample,29793,0,"normal-hitfinish51",100
Sample,30000,0,"soft-hitclap52",100
Sample,30206,0,"normal-hitfinish51",100
Sample,30206,0,"soft-hitfinish20",100
Sample,30413,0,"soft-hitclap52",100
Sample,30413,0,"soft-hitclap20",100
Sample,30620,0,"normal-hitfinish51",100
Sample,30724,0,"drum-hitwhistle24",100
Sample,30827,0,"drum-hitfinish24",100
Sample,30827,0,"drum-hitwhistle20",100
Sample,30827,0,"soft-hitclap52",100
Sample,30931,0,"drum-hitclap24",100
Sample,31034,0,"normal-hitfinish51",100
Sample,31034,0,"normal-hitwhistle25",100
Sample,31241,0,"soft-hitclap52",100
Sample,31448,0,"normal-hitfinish51",100
Sample,31655,0,"soft-hitclap52",100
Sample,31862,0,"normal-hitfinish51",100
Sample,32068,0,"soft-hitclap52",100
Sample,32068,0,"drum-hitfinish20",100
Sample,32275,0,"normal-hitfinish51",100
Sample,32482,0,"drum-hitclap20",100
Sample,32482,0,"soft-hitclap52",100
Sample,32689,0,"normal-hitfinish51",100
Sample,32896,0,"soft-hitclap52",100
Sample,33103,0,"normal-hitwhistle21",100
Sample,33103,0,"normal-hitfinish51",100
Sample,33310,0,"normal-hitfinish21",100
Sample,33310,0,"soft-hitclap52",100
Sample,33517,0,"normal-hitfinish51",100
Sample,33724,0,"soft-hitclap52",100
Sample,33724,0,"normal-hitclap21",100
Sample,33931,0,"normal-hitfinish24",100
Sample,33931,0,"soft-hitwhistle21",100
Sample,33931,0,"normal-hitfinish51",100
Sample,34034,0,"normal-hitclap24",100
Sample,34137,0,"soft-hitclap52",100
Sample,34137,0,"soft-hitwhistle24",100
Sample,34241,0,"soft-hitfinish24",100
Sample,34344,0,"normal-hitfinish51",100
Sample,34344,0,"soft-hitfinish21",100
Sample,34344,0,"soft-hitclap24",100
Sample,34551,0,"soft-hitclap52",100
Sample,34758,0,"drum-hitclap26",100
Sample,34758,0,"normal-hitfinish51",100
Sample,34965,0,"soft-hitclap52",100
Sample,35172,0,"normal-hitfinish51",100
Sample,35379,0,"soft-hitclap52",100
Sample,35586,0,"normal-hitfinish51",100
Sample,35586,0,"soft-hitclap21",100
Sample,35793,0,"soft-hitclap52",100
Sample,35793,0,"drum-hitwhistle21",100
Sample,36000,0,"normal-hitfinish51",100
Sample,36206,0,"drum-hitfinish21",100
Sample,36206,0,"soft-hitclap52",100
Sample,36413,0,"normal-hitfinish51",100
Sample,36620,0,"soft-hitclap52",100
Sample,36827,0,"normal-hitfinish51",100
Sample,37034,0,"soft-hitclap52",100
Sample,37241,0,"normal-hitfinish51",100
Sample,37344,0,"drum-hitwhistle24",100
Sample,37448,0,"drum-hitfinish24",100
Sample,37448,0,"soft-hitclap52",100
Sample,37551,0,"drum-hitclap24",100
Sample,37655,0,"normal-hitwhistle25",100
Sample,37655,0,"drum-hitclap21",100
Sample,37655,0,"normal-hitfinish51",100
Sample,37862,0,"normal-hitwhistle22",100
Sample,37862,0,"soft-hitclap52",100
Sample,38068,0,"normal-hitwhistle27",100
Sample,38068,0,"normal-hitfinish51",100
Sample,38275,0,"normal-hitfinish22",100
Sample,38275,0,"soft-hitclap52",100
Sample,38482,0,"normal-hitfinish51",100
Sample,38689,0,"soft-hitclap52",100
Sample,38896,0,"normal-hitfinish51",100
Sample,39103,0,"soft-hitclap52",100
Sample,39310,0,"normal-hitfinish51",100
Sample,39517,0,"soft-hitclap52",100
Sample,39517,0,"normal-hitclap22",100
Sample,39724,0,"normal-hitfinish51",100
Sample,39931,0,"soft-hitwhistle22",100
Sample,39931,0,"soft-hitclap52",100
Sample,40137,0,"normal-hitfinish27",100
Sample,40137,0,"normal-hitfinish51",100
Sample,40344,0,"normal-hitclap27",100
Sample,40344,0,"soft-hitclap52",100
Sample,40551,0,"soft-hitfinish22",100
Sample,40551,0,"normal-hitfinish51",100
Sample,40758,0,"soft-hitwhistle27",100
Sample,40758,0,"soft-hitclap52",100
Sample,40965,0,"normal-hitfinish51",100
Sample,41172,0,"soft-hitclap52",100
Sample,41379,0,"normal-hitfinish51",100
Sample,41586,0,"soft-hitclap52",100
Sample,41793,0,"soft-hitclap22",100
Sample,41793,0,"normal-hitfinish51",100
Sample,42000,0,"drum-hitwhistle22",100
Sample,42000,0,"soft-hitclap52",100
Sample,42206,0,"normal-hitfinish25",100
Sample,42206,0,"normal-hitfinish51",100
Sample,42310,0,"normal-hitclap25",100
Sample,42413,0,"soft-hitwhistle25",100
Sample,42413,0,"drum-hitfinish22",100
Sample,42413,0,"soft-hitclap52",100
Sample,42620,0,"drum-hitclap22",100
Sample,42620,0,"normal-hitfinish51",100
Sample,43034,0,"normal-hitwhistle23",100
Sample,43034,0,"normal-hitfinish51",100
Sample,43241,0,"soft-hitclap52",100
Sample,43448,0,"normal-hitfinish51",100
Sample,43655,0,"soft-hitclap52",100
Sample,43655,0,"normal-hitfinish23",100
Sample,43655,0,"soft-hitfinish27",100
Sample,43862,0,"normal-hitfinish51",100
Sample,44068,0,"soft-hitclap52",100
Sample,44275,0,"normal-hitfinish51",100
Sample,44275,0,"normal-hitclap23",100
Sample,44482,0,"soft-hitclap52",100
Sample,44689,0,"normal-hitfinish51",100
Sample,44896,0,"soft-hitclap52",100
Sample,44896,0,"soft-hitwhistle23",100
Sample,45103,0,"normal-hitfinish51",100
Sample,45310,0,"soft-hitclap52",100
Sample,45517,0,"normal-hitfinish51",100
Sample,45724,0,"soft-hitclap52",100
Sample,45931,0,"normal-hitfinish51",100
Sample,46137,0,"soft-hitfinish23",100
Sample,46137,0,"soft-hitclap52",100
Sample,46344,0,"soft-hitclap27",100
Sample,46344,0,"normal-hitfinish51",100
Sample,46551,0,"soft-hitclap23",100
Sample,46551,0,"soft-hitclap52",100
Sample,46758,0,"normal-hitfinish51",100
Sample,46965,0,"soft-hitclap52",100
Sample,47172,0,"drum-hitwhistle23",100
Sample,47172,0,"normal-hitfinish51",100
Sample,47379,0,"soft-hitclap52",100
Sample,47586,0,"normal-hitfinish51",100
Sample,47586,0,"soft-hitfinish25",100
Sample,47689,0,"soft-hitclap25",100
Sample,47793,0,"drum-hitwhistle25",100
Sample,47793,0,"soft-hitclap52",100
Sample,47896,0,"drum-hitfinish25",100
Sample,47896,0,"soft-hitfinish29",100
Sample,47948,0,"drum-hitclap25",100
Sample,48000,0,"normal-hitwhistle29",100
Sample,48000,0,"normal-hitfinish51",100
Sample,48000,0,"soft-hitclap29",100
Sample,48000,0,"normal-hitwhistle26",100
Sample,48206,0,"drum-hitwhistle29",100
Sample,48206,0,"normal-hitwhistle26",100
Sample,48413,0,"drum-hitfinish29",100
Sample,48413,0,"normal-hitwhistle26",100
Sample,48413,0,"normal-hitfinish51",100
Sample,48620,0,"normal-hitwhistle26",100
Sample,48620,0,"drum-hitclap29",100
Sample,48827,0,"normal-hitfinish51",100
Sample,48827,0,"normal-hitwhistle26",100
Sample,48827,0,"normal-hitwhistle30",100
Sample,49034,0,"normal-hitfinish30",100
Sample,49034,0,"normal-hitwhistle26",100
Sample,49241,0,"normal-hitclap30",100
Sample,49241,0,"normal-hitwhistle26",100
Sample,49241,0,"normal-hitfinish51",100
Sample,49448,0,"normal-hitfinish26",100
Sample,49448,0,"soft-hitwhistle30",100
Sample,49655,0,"soft-hitfinish30",100
Sample,49655,0,"normal-hitclap26",100
Sample,49655,0,"normal-hitfinish29",100
Sample,49655,0,"normal-hitfinish51",100
Sample,49862,0,"normal-hitclap26",100
Sample,49862,0,"soft-hitclap30",100
Sample,50068,0,"normal-hitfinish51",100
Sample,50068,0,"normal-hitclap26",100
Sample,50068,0,"drum-hitwhistle30",100
Sample,50275,0,"drum-hitfinish30",100
Sample,50275,0,"normal-hitclap26",100
Sample,50482,0,"drum-hitclap30",100
Sample,50482,0,"normal-hitclap26",100
Sample,50482,0,"normal-hitfinish51",100
Sample,50689,0,"normal-hitclap26",100
Sample,50689,0,"normal-hitwhistle31",100
Sample,50896,0,"normal-hitfinish51",100
Sample,50896,0,"soft-hitwhistle26",100
Sample,50896,0,"normal-hitfinish31",100
Sample,51034,0,"soft-hitfinish26",100
Sample,51103,0,"normal-hitclap31",100
Sample,51172,0,"soft-hitclap26",100
Sample,51310,0,"soft-hitwhistle31",100
Sample,51310,0,"drum-hitwhistle26",100
Sample,51310,0,"normal-hitclap29",100
Sample,51310,0,"normal-hitfinish51",100
Sample,51517,0,"drum-hitwhistle26",100
Sample,51517,0,"soft-hitfinish31",100
Sample,51724,0,"normal-hitfinish51",100
Sample,51724,0,"drum-hitwhistle26",100
Sample,51724,0,"soft-hitclap31",100
Sample,51931,0,"drum-hitwhistle31",100
Sample,51931,0,"drum-hitwhistle26",100
Sample,52137,0,"drum-hitfinish31",100
Sample,52137,0,"drum-hitwhistle26",100
Sample,52137,0,"normal-hitfinish51",100
Sample,52344,0,"drum-hitwhistle26",100
Sample,52344,0,"drum-hitclap31",100
Sample,52551,0,"normal-hitfinish51",100
Sample,52551,0,"drum-hitwhistle26",100
Sample,52551,0,"normal-hitwhistle32",100
Sample,52758,0,"normal-hitfinish32",100
Sample,52758,0,"drum-hitwhistle26",100
Sample,52965,0,"soft-hitwhistle29",100
Sample,52965,0,"normal-hitfinish51",100
Sample,52965,0,"normal-hitclap32",100
Sample,52965,0,"drum-hitfinish26",100
Sample,53172,0,"soft-hitwhistle32",100
Sample,53172,0,"drum-hitfinish26",100
Sample,53379,0,"soft-hitfinish32",100
Sample,53379,0,"drum-hitfinish26",100
Sample,53379,0,"normal-hitfinish51",100
Sample,53586,0,"drum-hitfinish26",100
Sample,53586,0,"soft-hitclap32",100
Sample,53793,0,"soft-hitclap28",100
Sample,53793,0,"drum-hitwhistle32",100
Sample,54000,0,"drum-hitwhistle28",100
Sample,54000,0,"drum-hitfinish32",100
Sample,54206,0,"drum-hitfinish28",100
Sample,54206,0,"drum-hitclap32",100
Sample,54413,0,"drum-hitclap28",100
Sample,54413,0,"normal-hitwhistle33",100
Sample,54620,0,"drum-hitwhistle52",100
Sample,54620,0,"normal-hitfinish51",100
Sample,54620,0,"soft-hitfinish51",100
Sample,54827,0,"soft-hitclap52",100
Sample,55034,0,"normal-hitfinish51",100
Sample,55034,0,"normal-hitfinish33",100
Sample,55034,0,"soft-hitfinish43",100
Sample,55034,0,"drum-hitwhistle52",100
Sample,55241,0,"soft-hitclap52",100
Sample,55448,0,"normal-hitfinish51",100
Sample,55448,0,"normal-hitclap33",100
Sample,55448,0,"drum-hitwhistle52",100
Sample,55655,0,"soft-hitclap52",100
Sample,55655,0,"soft-hitwhistle33",100
Sample,55655,0,"soft-hitclap43",100
Sample,55862,0,"drum-hitwhistle52",100
Sample,55862,0,"normal-hitfinish51",100
Sample,56068,0,"soft-hitclap52",100
Sample,56275,0,"normal-hitfinish51",100
Sample,56275,0,"soft-hitfinish33",100
Sample,56275,0,"drum-hitwhistle43",100
Sample,56275,0,"drum-hitwhistle52",100
Sample,56482,0,"soft-hitclap33",100
Sample,56482,0,"soft-hitclap52",100
Sample,56689,0,"normal-hitfinish51",100
Sample,56689,0,"drum-hitwhistle52",100
Sample,56896,0,"soft-hitclap52",100
Sample,57103,0,"drum-hitwhistle52",100
Sample,57103,0,"normal-hitfinish51",100
Sample,57310,0,"soft-hitclap52",100
Sample,57517,0,"normal-hitfinish51",100
Sample,57517,0,"drum-hitwhistle52",100
Sample,57724,0,"soft-hitclap52",100
Sample,57931,0,"drum-hitfinish43",100
Sample,57931,0,"drum-hitwhistle52",100
Sample,57931,0,"normal-hitfinish51",100
Sample,57931,0,"drum-hitwhistle33",100
Sample,58137,0,"soft-hitclap52",100
Sample,58137,0,"drum-hitfinish33",100
Sample,58344,0,"normal-hitfinish51",100
Sample,58344,0,"drum-hitclap33",100
Sample,58344,0,"drum-hitwhistle52",100
Sample,58551,0,"soft-hitclap52",100
Sample,58551,0,"normal-hitwhistle34",100
Sample,58551,0,"drum-hitclap43",100
Sample,58758,0,"drum-hitwhistle52",100
Sample,58758,0,"normal-hitfinish51",100
Sample,58965,0,"soft-hitclap52",100
Sample,58965,0,"normal-hitfinish34",100
Sample,59172,0,"drum-hitwhistle52",100
Sample,59172,0,"normal-hitfinish51",100
Sample,59379,0,"soft-hitclap52",100
Sample,59586,0,"normal-hitfinish51",100
Sample,59586,0,"drum-hitwhistle52",100
Sample,59793,0,"normal-hitclap34",100
Sample,59793,0,"soft-hitclap52",100
Sample,60000,0,"normal-hitfinish51",100
Sample,60000,0,"drum-hitwhistle52",100
Sample,60206,0,"soft-hitwhistle34",100
Sample,60206,0,"soft-hitclap52",100
Sample,60413,0,"normal-hitfinish51",100
Sample,60413,0,"drum-hitwhistle52",100
Sample,60620,0,"soft-hitfinish34",100
Sample,60620,0,"soft-hitclap52",100
Sample,60827,0,"normal-hitfinish51",100
Sample,60827,0,"drum-hitwhistle52",100
Sample,61034,0,"soft-hitclap52",100
Sample,61241,0,"drum-hitwhistle52",100
Sample,61241,0,"normal-hitfinish51",100
Sample,61448,0,"soft-hitclap52",100
Sample,61655,0,"normal-hitfinish51",100
Sample,61655,0,"soft-hitclap34",100
Sample,61655,0,"normal-hitwhistle44",100
Sample,61655,0,"drum-hitwhistle52",100
Sample,61862,0,"drum-hitwhistle34",100
Sample,61862,0,"soft-hitclap52",100
Sample,62068,0,"drum-hitwhistle52",100
Sample,62068,0,"drum-hitfinish34",100
Sample,62068,0,"normal-hitfinish51",100
Sample,62275,0,"normal-hitfinish44",100
Sample,62275,0,"drum-hitclap34",100
Sample,62275,0,"soft-hitclap52",100
Sample,62482,0,"normal-hitfinish51",100
Sample,62482,0,"drum-hitwhistle52",100
Sample,62689,0,"normal-hitwhistle35",100
Sample,62689,0,"soft-hitclap52",100
Sample,62896,0,"normal-hitfinish51",100
Sample,62896,0,"drum-hitwhistle52",100
Sample,63103,0,"soft-hitclap52",100
Sample,63103,0,"normal-hitfinish35",100
Sample,63103,0,"normal-hitclap44",100
Sample,63310,0,"drum-hitwhistle52",100
Sample,63310,0,"normal-hitfinish51",100
Sample,63517,0,"soft-hitclap52",100
Sample,63517,0,"normal-hitclap35",100
Sample,63724,0,"normal-hitfinish51",100
Sample,63724,0,"soft-hitwhistle35",100
Sample,63724,0,"drum-hitwhistle52",100
Sample,63931,0,"soft-hitclap52",100
Sample,64137,0,"normal-hitfinish51",100
Sample,64137,0,"soft-hitfinish35",100
Sample,64137,0,"drum-hitwhistle52",100
Sample,64344,0,"soft-hitclap52",100
Sample,64551,0,"drum-hitwhistle52",100
Sample,64551,0,"normal-hitfinish51",100
Sample,64758,0,"soft-hitclap52",100
Sample,64965,0,"normal-hitfinish51",100
Sample,64965,0,"soft-hitclap35",100
Sample,64965,0,"soft-hitwhistle44",100
Sample,64965,0,"drum-hitwhistle52",100
Sample,65172,0,"drum-hitwhistle35",100
Sample,65172,0,"soft-hitclap52",100
Sample,65379,0,"drum-hitwhistle52",100
Sample,65379,0,"drum-hitfinish35",100
Sample,65379,0,"normal-hitfinish51",100
Sample,65586,0,"soft-hitclap52",100
Sample,65586,0,"drum-hitclap35",100
Sample,65793,0,"drum-hitwhistle52",100
Sample,65793,0,"normal-hitfinish51",100
Sample,66000,0,"soft-hitclap52",100
Sample,66000,0,"normal-hitwhistle36",100
Sample,66206,0,"drum-hitwhistle52",100
Sample,66206,0,"normal-hitfinish51",100
Sample,66413,0,"soft-hitfinish44",100
Sample,66413,0,"normal-hitfinish36",100
Sample,66413,0,"soft-hitclap52",100
Sample,66620,0,"normal-hitfinish51",100
Sample,66620,0,"drum-hitwhistle52",100
Sample,66827,0,"soft-hitclap52",100
Sample,67034,0,"soft-hitclap44",100
Sample,67034,0,"drum-hitwhistle52",100
Sample,67034,0,"normal-hitfinish51",100
Sample,67034,0,"normal-hitclap36",100
Sample,67241,0,"soft-hitclap52",100
Sample,67448,0,"soft-hitfinish51",100
Sample,67448,0,"soft-hitwhistle36",100
Sample,67448,0,"normal-hitfinish51",100
Sample,67448,0,"drum-hitwhistle52",100
Sample,67655,0,"soft-hitclap52",100
Sample,67862,0,"soft-hitwhistle51",100
Sample,67862,0,"normal-hitfinish51",100
Sample,67862,0,"drum-hitwhistle52",100
Sample,68068,0,"soft-hitclap52",100
Sample,68275,0,"drum-hitwhistle44",100
Sample,68275,0,"drum-hitwhistle52",100
Sample,68275,0,"normal-hitfinish51",100
Sample,68275,0,"soft-hitfinish36",100
Sample,68482,0,"soft-hitclap52",100
Sample,68689,0,"drum-hitwhistle52",100
Sample,68689,0,"soft-hitclap36",100
Sample,68689,0,"normal-hitfinish51",100
Sample,68896,0,"drum-hitfinish44",100
Sample,68896,0,"drum-hitwhistle36",100
Sample,68896,0,"soft-hitclap52",100
Sample,69103,0,"normal-hitfinish51",100
Sample,69103,0,"drum-hitwhistle52",100
Sample,69310,0,"soft-hitclap52",100
Sample,69517,0,"drum-hitclap44",100
Sample,69517,0,"drum-hitwhistle52",100
Sample,69517,0,"normal-hitfinish51",100
Sample,69517,0,"drum-hitfinish36",100
Sample,69724,0,"soft-hitclap52",100
Sample,69724,0,"drum-hitclap36",100
Sample,69931,0,"normal-hitfinish51",100
Sample,69931,0,"normal-hitwhistle37",100
Sample,69931,0,"drum-hitwhistle52",100
Sample,70137,0,"soft-hitclap52",100
Sample,70137,0,"normal-hitfinish37",100
Sample,70137,0,"normal-hitwhistle45",100
Sample,70344,0,"normal-hitfinish51",100
Sample,70344,0,"normal-hitclap37",100
Sample,70344,0,"drum-hitwhistle52",100
Sample,70551,0,"soft-hitwhistle37",100
Sample,70551,0,"soft-hitclap52",100
Sample,70758,0,"drum-hitwhistle52",100
Sample,70758,0,"soft-hitfinish37",100
Sample,70758,0,"normal-hitfinish51",100
Sample,70965,0,"soft-hitclap52",100
Sample,70965,0,"soft-hitclap37",100
Sample,71172,0,"normal-hitfinish51",100
Sample,71172,0,"drum-hitwhistle37",100
Sample,71172,0,"drum-hitwhistle52",100
Sample,71379,0,"soft-hitclap52",100
Sample,71586,0,"normal-hitfinish51",100
Sample,71586,0,"drum-hitfinish37",100
Sample,71586,0,"drum-hitwhistle52",100
Sample,71793,0,"drum-hitclap37",100
Sample,71793,0,"soft-hitclap52",100
Sample,72000,0,"normal-hitfinish51",100
Sample,72000,0,"drum-hitwhistle52",100
Sample,72206,0,"soft-hitclap52",100
Sample,72206,0,"normal-hitwhistle38",100
Sample,72206,0,"normal-hitfinish45",100
Sample,72413,0,"drum-hitwhistle52",100
Sample,72413,0,"normal-hitfinish51",100
Sample,72620,0,"soft-hitclap52",100
Sample,72827,0,"normal-hitfinish51",100
Sample,72827,0,"normal-hitfinish38",100
Sample,72827,0,"normal-hitclap45",100
Sample,72827,0,"drum-hitwhistle52",100
Sample,73034,0,"soft-hitclap52",100
Sample,73241,0,"normal-hitfinish51",100
Sample,73241,0,"normal-hitclap38",100
Sample,73241,0,"drum-hitwhistle52",100
Sample,73448,0,"soft-hitclap52",100
Sample,73448,0,"soft-hitwhistle38",100
Sample,73448,0,"soft-hitwhistle45",100
Sample,73655,0,"drum-hitwhistle52",100
Sample,73655,0,"normal-hitfinish51",100
Sample,73862,0,"soft-hitclap52",100
Sample,73862,0,"soft-hitfinish38",100
Sample,74068,0,"drum-hitwhistle52",100
Sample,74068,0,"normal-hitfinish51",100
Sample,74275,0,"soft-hitclap52",100
Sample,74482,0,"drum-hitwhistle52",100
Sample,74482,0,"normal-hitfinish51",100
Sample,74482,0,"soft-hitfinish51",100
Sample,74689,0,"soft-hitclap52",100
Sample,74896,0,"normal-hitfinish51",100
Sample,74896,0,"soft-hitclap38",100
Sample,74896,0,"soft-hitfinish45",100
Sample,74896,0,"drum-hitwhistle52",100
Sample,75103,0,"drum-hitwhistle38",100
Sample,75103,0,"soft-hitclap52",100
Sample,75310,0,"drum-hitwhistle52",100
Sample,75310,0,"drum-hitfinish38",100
Sample,75310,0,"normal-hitfinish51",100
Sample,75517,0,"soft-hitclap45",100
Sample,75517,0,"drum-hitclap38",100
Sample,75517,0,"soft-hitclap52",100
Sample,75724,0,"normal-hitfinish51",100
Sample,75724,0,"drum-hitwhistle52",100
Sample,75931,0,"soft-hitclap52",100
Sample,76137,0,"drum-hitwhistle52",100
Sample,76137,0,"normal-hitfinish51",100
Sample,76344,0,"drum-hitwhistle45",100
Sample,76344,0,"normal-hitwhistle39",100
Sample,76344,0,"soft-hitclap52",100
Sample,76551,0,"drum-hitwhistle52",100
Sample,76551,0,"normal-hitfinish39",100
Sample,76551,0,"normal-hitfinish51",100
Sample,76758,0,"soft-hitclap52",100
Sample,76758,0,"normal-hitclap39",100
Sample,76965,0,"normal-hitfinish51",100
Sample,76965,0,"soft-hitwhistle39",100
Sample,76965,0,"drum-hitwhistle52",100
Sample,77172,0,"soft-hitfinish39",100
Sample,77172,0,"soft-hitclap52",100
Sample,77379,0,"drum-hitwhistle52",100
Sample,77379,0,"soft-hitclap39",100
Sample,77379,0,"normal-hitfinish51",100
Sample,77586,0,"soft-hitclap52",100
Sample,77586,0,"drum-hitwhistle39",100
Sample,77793,0,"drum-hitwhistle52",100
Sample,77793,0,"normal-hitfinish51",100
Sample,78000,0,"soft-hitclap52",100
Sample,78206,0,"normal-hitfinish51",100
Sample,78206,0,"drum-hitfinish39",100
Sample,78206,0,"drum-hitfinish45",100
Sample,78206,0,"drum-hitwhistle52",100
Sample,78413,0,"soft-hitclap52",100
Sample,78620,0,"normal-hitfinish51",100
Sample,78620,0,"drum-hitclap39",100
Sample,78620,0,"drum-hitwhistle52",100
Sample,78827,0,"normal-hitwhistle40",100
Sample,78827,0,"soft-hitclap52",100
Sample,79034,0,"normal-hitfinish51",100
Sample,79034,0,"normal-hitclap51",100
Sample,79241,0,"normal-hitclap51",100
Sample,79241,0,"drum-hitfinish41",100
Sample,79241,0,"normal-hitfinish51",100
Sample,79448,0,"drum-hitclap45",100
Sample,79448,0,"drum-hitwhistle52",100
Sample,79448,0,"soft-hitfinish51",100
Sample,79448,0,"drum-hitclap41",100
Sample,79655,0,"soft-hitclap52",100
Sample,79655,0,"normal-hitwhistle46",100
Sample,79862,0,"normal-hitfinish46",100
Sample,79862,0,"soft-hitwhistle51",100
Sample,79862,0,"normal-hitclap51",100
Sample,79862,0,"normal-hitwhistle42",100
Sample,80068,0,"soft-hitclap52",100
Sample,80068,0,"normal-hitclap46",100
Sample,80275,0,"soft-hitwhistle46",100
Sample,80275,0,"normal-hitfinish42",100
Sample,80275,0,"drum-hitwhistle52",100
Sample,80482,0,"soft-hitfinish46",100
Sample,80482,0,"soft-hitclap52",100
Sample,80689,0,"normal-hitclap51",100
Sample,80689,0,"normal-hitclap42",100
Sample,80689,0,"soft-hitclap46",100
Sample,80689,0,"drum-hitwhistle52",100
Sample,80896,0,"soft-hitclap52",100
Sample,81103,0,"drum-hitwhistle52",100
Sample,81103,0,"normal-hitfinish51",100
Sample,81310,0,"soft-hitclap52",100
Sample,81517,0,"drum-hitwhistle52",100
Sample,81517,0,"normal-hitfinish51",100
Sample,81517,0,"normal-hitclap51",100
Sample,81724,0,"soft-hitclap52",100
Sample,81931,0,"normal-hitfinish51",100
Sample,81931,0,"drum-hitwhistle52",100
Sample,82137,0,"soft-hitclap52",100
Sample,82344,0,"normal-hitclap51",100
Sample,82344,0,"normal-hitfinish51",100
Sample,82344,0,"drum-hitwhistle52",100
Sample,82551,0,"soft-hitwhistle42",100
Sample,82551,0,"soft-hitclap52",100
Sample,82758,0,"soft-hitfinish51",100
Sample,82758,0,"soft-hitfinish42",100
Sample,82758,0,"drum-hitwhistle46",100
Sample,82758,0,"drum-hitwhistle52",100
Sample,82965,0,"drum-hitfinish46",100
Sample,82965,0,"soft-hitclap52",100
Sample,83172,0,"normal-hitclap51",100
Sample,83172,0,"soft-hitclap42",100
Sample,83172,0,"drum-hitclap46",100
Sample,83172,0,"soft-hitwhistle51",100
Sample,83379,0,"normal-hitwhistle47",100
Sample,83379,0,"soft-hitclap52",100
Sample,83586,0,"drum-hitwhistle52",100
Sample,83586,0,"drum-hitwhistle42",100
Sample,83586,0,"normal-hitfinish47",100
Sample,83793,0,"soft-hitclap52",100
Sample,83793,0,"normal-hitclap47",100
Sample,84000,0,"soft-hitwhistle47",100
Sample,84000,0,"drum-hitwhistle52",100
Sample,84000,0,"normal-hitclap51",100
Sample,84000,0,"drum-hitfinish42",100
Sample,84206,0,"soft-hitclap52",100
Sample,84413,0,"normal-hitfinish51",100
Sample,84413,0,"drum-hitwhistle52",100
Sample,84620,0,"soft-hitclap52",100
Sample,84827,0,"normal-hitclap51",100
Sample,84827,0,"normal-hitfinish51",100
Sample,84827,0,"drum-hitwhistle52",100
Sample,85034,0,"soft-hitclap52",100
Sample,85241,0,"drum-hitwhistle52",100
Sample,85241,0,"normal-hitfinish51",100
Sample,85448,0,"soft-hitclap52",100
Sample,85655,0,"drum-hitwhistle52",100
Sample,85655,0,"normal-hitfinish51",100
Sample,85655,0,"normal-hitclap51",100
Sample,85862,0,"soft-hitclap52",100
Sample,85862,0,"drum-hitclap42",100
Sample,86068,0,"soft-hitfinish47",100
Sample,86068,0,"drum-hitwhistle52",100
Sample,86068,0,"soft-hitfinish51",100
Sample,86068,0,"normal-hitwhistle43",100
Sample,86275,0,"soft-hitclap52",100
Sample,86275,0,"soft-hitclap47",100
Sample,86482,0,"drum-hitwhistle47",100
Sample,86482,0,"soft-hitwhistle51",100
Sample,86482,0,"normal-hitclap51",100
Sample,86482,0,"normal-hitfinish43",100
Sample,86689,0,"soft-hitclap52",100
Sample,86689,0,"drum-hitfinish47",100
Sample,86896,0,"drum-hitclap47",100
Sample,86896,0,"normal-hitclap43",100
Sample,86896,0,"drum-hitwhistle52",100
Sample,87103,0,"soft-hitclap52",100
Sample,87310,0,"normal-hitwhistle48",100
Sample,87310,0,"soft-hitwhistle51",100
Sample,87310,0,"normal-hitclap51",100
Sample,87310,0,"soft-hitwhistle43",100
Sample,87724,0,"normal-hitfinish51",100
Sample,87724,0,"normal-hitclap50",100
Sample,87724,0,"drum-hitwhistle52",100
Sample,87931,0,"soft-hitwhistle50",100
Sample,87931,0,"soft-hitclap52",100
Sample,88137,0,"normal-hitclap51",100
Sample,88137,0,"soft-hitfinish50",100
Sample,88137,0,"normal-hitfinish51",100
Sample,88137,0,"drum-hitwhistle52",100
Sample,88344,0,"soft-hitclap50",100
Sample,88344,0,"soft-hitclap52",100
Sample,88551,0,"drum-hitwhistle52",100
Sample,88551,0,"drum-hitwhistle50",100
Sample,88551,0,"normal-hitfinish51",100
Sample,88758,0,"soft-hitclap52",100
Sample,88758,0,"drum-hitfinish50",100
Sample,88965,0,"normal-hitfinish51",100
Sample,88965,0,"drum-hitwhistle52",100
Sample,88965,0,"normal-hitclap51",100
Sample,88965,0,"drum-hitclap50",100
Sample,89172,0,"soft-hitclap52",100
Sample,89172,0,"normal-hitwhistle51",100
//Background Colour Transformations
3,100,0,0,0

[TimingPoints]
0,413.79310345,4,2,2,100,1,0
54620,-100,4,2,2,100,0,1
89379,-100,4,2,2,100,0,0

[HitObjects]
460,192,1448,5,2,1:0:2:0:
358,192,1655,1,4,1:0:2:0:
256,192,2068,1,8,1:0:2:0:
153,192,2482,1,2,2:0:2:0:
51,192,2896,128,4,4758:2:0:2:0:
460,192,4758,1,8,2:0:2:0:
358,192,4965,1,2,3:0:2:0:
256,192,5379,1,4,3:0:2:0:
153,192,5793,1,8,3:0:2:0:
51,192,6206,128,2,8068:1:0:3:0:
358,192,8068,1,4,1:0:3:0:
256,192,8275,1,8,1:0:3:0:
153,192,8689,1,2,2:0:3:0:
256,192,9103,1,4,2:0:3:0:
358,192,9517,1,8,2:0:3:0:
460,192,9931,128,2,11379:2:0:4:0:
358,192,11379,1,4,3:0:3:0:
256,192,11586,1,8,3:0:3:0:
153,192,12000,1,2,1:0:4:0:
51,192,12413,1,4,1:0:4:0:
256,192,12827,128,8,16551:1:0:4:0:
51,192,16551,1,8,1:0:9:0:
51,192,16758,1,2,2:0:9:0:
153,192,16965,1,4,2:0:9:0:
153,192,17172,1,8,2:0:9:0:
358,192,17379,1,2,3:0:9:0:
358,192,17586,1,4,3:0:9:0:
460,192,17793,1,8,3:0:9:0:
460,192,18000,1,2,1:0:10:0:
256,192,18206,1,4,1:0:10:0:
358,192,18413,1,8,1:0:10:0:
153,192,18827,1,2,2:0:10:0:
51,192,19448,1,4,2:0:10:0:
153,192,19655,1,8,2:0:10:0:
358,192,20068,1,2,3:0:10:0:
460,192,20275,1,4,3:0:10:0:
256,192,20689,128,4,21517:1:0:51:0:
460,192,21931,1,2,1:0:13:0:
153,192,22137,1,4,1:0:13:0:
358,192,22551,1,8,1:0:13:0:
51,192,22758,1,2,2:0:13:0:
51,192,23793,1,4,2:0:13:0:
153,192,24000,1,8,2:0:13:0:
256,192,24206,1,2,3:0:13:0:
358,192,24827,1,4,3:0:13:0:
460,192,26068,1,8,3:0:13:0:
256,192,26275,1,2,1:0:14:0:
358,192,26689,1,4,1:0:14:0:
153,192,26896,1,8,1:0:14:0:
256,192,27310,1,2,2:0:14:0:
51,192,27517,1,4,2:0:14:0:
460,192,27931,1,8,2:0:14:0:
51,192,28137,1,2,3:0:14:0:
460,192,30206,1,4,3:0:14:0:
153,192,30413,1,8,3:0:14:0:
358,192,30827,1,2,1:0:15:0:
51,192,31034,1,4,1:0:15:0:
153,192,32068,1,8,1:0:15:0:
256,192,32275,1,2,2:0:15:0:
358,192,32482,1,4,2:0:15:0:
460,192,33103,1,8,2:0:15:0:
256,192,33310,1,2,3:0:15:0:
358,192,33724,1,4,3:0:15:0:
153,192,33931,1,8,3:0:15:0:
51,192,34344,1,2,1:0:16:0:
256,192,34551,1,4,1:0:16:0:
153,192,35586,1,8,1:0:16:0:
256,192,35793,1,2,2:0:16:0:
358,192,36206,1,4,2:0:16:0:
460,192,37655,1,8,2:0:16:0:
153,192,37862,1,2,3:0:16:0:
358,192,38275,1,4,3:0:16:0:
51,192,38482,1,8,3:0:16:0:
51,192,39517,1,2,1:0:17:0:
153,192,39724,1,4,1:0:17:0:
256,192,39931,1,8,1:0:17:0:
358,192,40551,1,2,2:0:17:0:
460,192,41793,1,4,2:0:17:0:
256,192,42000,1,8,2:0:17:0:
358,192,42413,1,2,3:0:17:0:
153,192,42620,1,4,3:0:17:0:
256,192,43034,1,8,3:0:17:0:
51,192,43241,1,2,1:0:18:0:
358,192,43655,1,4,1:0:18:0:
460,192,44275,1,8,1:0:18:0:
153,192,44482,1,2,2:0:18:0:
358,192,44896,1,4,2:0:18:0:
51,192,45103,1,8,2:0:18:0:
153,192,46137,1,2,3:0:18:0:
256,192,46344,1,4,3:0:18:0:
358,192,46551,1,8,3:0:18:0:
460,192,47172,1,2,1:0:19:0:
460,192,48000,128,2,49655:3:0:27:0:
256,192,49655,128,4,51310:3:0:27:0:
51,192,51310,128,8,52965:3:0:27:0:
460,192,52965,128,2,53793:1:0:28:0:
153,192,53793,1,4,1:0:28:0:
256,192,54000,1,8,1:0:28:0:
358,192,54206,1,2,2:0:28:0:
460,192,54413,1,4,2:0:28:0:
51,192,54620,128,4,56275:1:0:48:0:
460,192,56275,128,8,57103:1:0:48:0:
358,192,57103,128,2,57931:2:0:48:0:
256,192,57931,128,4,59586:2:0:48:0:
358,192,59586,128,8,60413:2:0:48:0:
153,192,60413,128,2,61241:3:0:48:0:
51,192,61241,128,4,62068:3:0:48:0:
358,192,62068,128,8,64551:3:0:48:0:
153,192,64551,128,2,66206:1:0:49:0:
256,192,66206,128,4,67034:1:0:49:0:
358,192,67034,128,8,67862:1:0:49:0:
460,192,67862,128,2,69517:2:0:49:0:
358,192,69517,128,4,70344:2:0:49:0:
256,192,70344,128,8,71172:2:0:49:0:
153,192,71172,128,2,72827:3:0:49:0:
51,192,72827,128,4,74482:3:0:49:0:
256,192,74482,128,8,76137:3:0:49:0:
460,192,76137,128,2,77793:1:0:50:0:
256,192,77793,128,4,79241:1:0:50:0:
460,192,79241,1,4,1:0:40:0:
358,192,79448,1,8,1:0:40:0:
256,192,79862,1,2,2:0:40:0:
153,192,80275,1,4,2:0:40:0:
51,192,80689,128,8,82551:2:0:40:0:
460,192,82551,1,2,3:0:40:0:
358,192,82758,1,4,3:0:40:0:
256,192,83172,1,8,3:0:40:0:
153,192,83586,1,2,1:0:41:0:
51,192,84000,128,4,85862:1:0:41:0:
460,192,85862,1,8,1:0:41:0:
358,192,86068,1,2,2:0:41:0:
153,192,86482,1,4,2:0:41:0:
51,192,86896,1,8,2:0:41:0:
256,192,87310,128,2,89172:3:0:41:0:
