osu file format v9

[General]
AudioFilename: Angel_Beats.mp3
AudioLeadIn: 0
PreviewTime: 53683
Countdown: 0
SampleSet: Soft
StackLeniency: 0.7
Mode: 0
LetterboxInBreaks: 0

[Editor]
DistanceSpacing: 0.8
BeatDivisor: 2
GridSize: 4

[Metadata]
Title:My Soul, Your Beats! (TV Size)
Artist:Lia
Creator:Chewin
Version:Insane
Source:Angel Beats
Tags:Hinacle Leader -kevincela- Yurippe Nakamura Tachibana Kanade Yuzuru Otonashi Hideki Hinata Takamatsu Noda Shiina Yusa TK Fujimaki Matsushita Oyama Takeyama Cha Ayato Naoi Iwasawa Yui Girls Dead Monster Opening

[Difficulty]
HPDrainRate:7
CircleSize:4
OverallDifficulty:7
ApproachRate:8
SliderMultiplier:1.9
SliderTickRate:1

[Events]
//Background and Video events
Video,0,"Angel Beats! OP.flv"
0,0,"Konachan.png"
//Break Periods
//Storyboard Layer 0 (Background)
//Storyboard Layer 1 (Fail)
//Storyboard Layer 2 (Pass)
//Storyboard Layer 3 (Foreground)
//Storyboard Sound Samples
//Background Colour Transformations
3,100,163,162,255

[TimingPoints]
15615,413.793103448276,4,2,0,40,1,0
52028,-100,4,2,0,20,0,0
52339,-100,4,2,0,25,0,0
52752,-100,4,2,0,30,0,0
53166,-100,4,2,0,35,0,0
53683,-100,4,2,0,50,0,1
62580,-100,4,2,0,50,0,0
66304,-100,4,2,0,30,0,0
66615,-100,4,2,0,40,0,0
66925,-100,4,2,0,50,0,1
77890,-100,4,2,0,50,0,0
88442,-100,4,2,0,30,0,0

[Colours]
Combo1 : 211,65,102
Combo2 : 0,222,240
Combo3 : 248,186,44
Combo4 : 146,36,255

[HitObjects]
88,52,15615,2,0,B|72:104|92:172,1,95,2|2
204,336,16028,2,0,B|220:284|200:216,1,95,0|2
380,96,16442,2,0,B|328:80|260:100,1,95,2|2
192,100,16856,1,0
116,288,17063,1,2
348,240,17270,1,4
404,288,17477,6,0,B|448:328,2,47.5,0|0|0
348,240,17890,2,0,B|260:288|144:232,1,190,4|0
256,36,18511,1,4
168,164,18718,2,0,B|263:210|351:162,1,190,2|4
256,36,19339,1,2
256,200,19752,5,0
256,212,19856,1,0
256,224,19959,1,0
256,236,20063,1,0
256,248,20166,1,0
256,260,20270,1,0
256,276,20373,1,0
256,288,20477,1,0
256,300,20580,6,0,B|212:320|140:292,1,95,4|0
108,352,20994,1,2
68,288,21201,2,0,B|104:224|36:164|84:96,1,190,0|2
32,44,21821,1,0
144,152,22028,1,0
256,44,22235,5,2
256,44,22339,1,0
256,44,22442,1,0
360,152,22649,1,0
316,216,22856,2,0,B|384:244|456:200|424:104,1,190
484,68,23477,1,2
360,152,23683,6,0,B|292:128|232:176|148:136,1,190,0|2
132,80,24304,1,0
180,232,24511,2,0,B|184:296|148:340|76:344|32:312,1,190
88,240,25132,5,0
88,240,25235,1,0
88,240,25339,1,2
256,192,25546,1,0
424,240,25752,1,0
424,240,25855,1,0
424,240,25959,1,2
256,352,26166,1,0
256,240,26373,5,4
256,232,26477,1,0
256,224,26580,1,2
256,216,26683,1,0
256,208,26787,1,0
256,200,26890,1,0
256,192,26994,6,0,B|256:88,1,95,0|2
32,192,27615,1,0
256,352,28028,1,2
476,192,28442,1,0
256,32,28856,2,0,B|256:132,1,95,0|2
156,260,29270,5,0
156,260,29373,1,0
156,260,29477,1,0
256,192,29683,1,2
356,260,29890,1,0
356,260,29993,1,0
356,260,30097,1,0
468,60,30511,6,0,B|388:112|388:112|284:112,1,190,0|2
256,32,31132,1,0
44,60,31339,2,0,B|124:112|124:112|228:112,1,190,0|2
256,32,31959,1,0
148,264,32166,6,0,B|80:292,2,47.5,2|0|0
256,156,32580,1,0
364,264,32787,2,0,B|432:292,2,47.5,2|0|0
356,260,33097,5,0
348,256,33201,1,0
340,252,33304,1,0
332,248,33408,1,2
324,244,33511,1,0
316,240,33614,1,0
308,236,33718,1,0
300,232,33821,6,4,B|204:264|108:232,1,190,4|0
88,304,34442,2,0,B|177:316|204:236|168:180,1,190
114,233,35063,1,0
20,120,35270,1,2
152,52,35477,5,0
256,160,35683,1,0
360,52,35890,1,2
342,182,36097,2,0,B|308:236|334:316|424:304,1,190,0|2
404,232,36718,1,2
404,232,36925,6,0,B|320:288,1,95,0|4
264,240,37339,1,0
264,240,37546,1,0
228,308,37752,2,0,B|168:336|100:336|24:300,1,190,2|0
100,248,38373,2,0,B|48:244|32:188,1,95,2|0
112,168,38787,5,0
208,48,38994,1,2
112,168,39201,2,0,B|208:196|328:164,1,190,0|4
440,48,39821,1,0
440,48,40028,1,0
408,148,40235,6,0,B|380:200|420:256,1,95,2|0
240,305,40649,1,0
304,352,40856,2,0,B|336:300|292:240,1,95,2|0
480,192,41270,1,0
256,32,41683,1,0
24,192,42097,1,2
24,192,42304,2,0,B|72:168|164:224|240:176,1,190,0|2
420,284,43339,6,0,B|460:192|420:96,2,190,2|0|2
92,284,44580,2,0,B|52:192|92:96,2,190,2|0|2
144,340,45615,1,0
188,280,45821,1,2
236,340,46028,1,0
280,280,46235,1,0
420,84,46649,6,0,B|460:48,2,47.5
412,92,46959,1,0
404,100,47063,2,0,B|308:140|212:96,1,190,2|0
32,152,47683,2,0,B|128:137|209:202,1,190,2|0
168,320,48304,1,2
236,272,48511,1,2
236,272,48718,2,0,B|336:320|436:264,1,190
468,332,49339,1,0
420,272,49546,1,2
460,124,49959,6,2,B|368:136|368:136|296:64,1,190
224,52,50580,1,0
52,260,50994,2,0,B|144:248|144:248|216:320,1,190,0|2
288,332,51615,1,0
480,192,52028,5,2
472,192,52132,1,0
464,192,52235,1,0
456,192,52339,1,0
448,192,52442,1,0
440,192,52546,1,0
432,192,52649,1,2
424,192,52752,1,0
416,192,52856,5,0
408,192,52959,1,0
400,192,53063,1,0
392,192,53166,1,0
384,192,53270,1,0
376,192,53373,1,0
368,192,53477,1,2
360,192,53580,1,0
352,192,53683,6,0,B|300:216|244:184,1,95,4|2
304,124,54097,1,0
256,40,54304,2,0,B|188:108|188:108|80:108,1,190
28,192,54925,1,0
94,276,55132,2,0,B|188:276|188:276|256:344,1,190,2|0
360,192,55752,1,2
268,184,55959,2,0,B|268:100|372:48|440:100|456:160|456:204,1,285
60,352,56994,6,0,B|128:352|144:272,1,95,2|0
48,256,57408,1,0
256,316,57615,2,0,B|348:336|348:336|456:272,1,190,2|0
480,192,58235,1,2
430,96,58442,2,0,B|348:48|348:48|256:68,1,190,0|2
136,192,59063,1,0
88,108,59270,2,0,B|44:192|44:192|88:292,1,190,2|0
136,192,59890,1,2
256,192,60097,12,0,62580
256,48,62994,5,0
168,152,63201,1,2
256,48,63408,1,0
344,152,63615,1,0
440,260,63821,2,0,B|256:356|64:256,1,380,2|0
32,192,64856,1,0
32,192,65063,1,2
32,192,65270,5,4
256,32,65683,1,4
480,192,66097,1,4
396,192,66304,1,2
384,192,66408,1,0
372,192,66511,1,0
360,192,66615,1,0
348,192,66718,1,0
336,192,66821,1,0
324,192,66925,6,4,B|236:220|236:220|124:192,1,190,4|0
48,136,67546,2,4,B|136:108|136:108|248:136,1,190,2|0
368,60,68166,1,2
468,44,68373,2,0,B|432:132|432:132|312:152,1,190,0|2
152,192,68994,1,0
57,199,69201,2,0,B|56:224|72:284|140:336|244:284|244:200,1,285,0|0
452,32,70235,6,0,B|384:32|368:112,1,95
464,128,70649,1,2
256,40,70856,2,0,B|204:112|204:112|76:112,1,190,0|2
32,192,71476,1,0
256,344,71683,2,0,B|204:272|204:272|76:272,1,190,0|2
32,192,72304,1,0
32,192,72511,2,0,B|108:188|184:208|256:188,1,190,0|2
296,192,73131,1,0
256,192,73338,12,0,74580
256,236,74994,6,0,B|256:344,2,95,2|0|0
164,88,75615,2,0,B|256:56|256:56|348:92,1,190,2|0
256,144,76235,1,0
256,144,76442,1,0
256,192,76649,12,0,77890
256,24,78304,6,0,B|256:128,1,95,0|4
256,352,78925,1,4
32,192,79339,1,4
468,192,79752,2,0,B|348:192,1,95,4|2
256,120,80166,1,0
128,192,80373,2,0,B|28:192,2,95,0|2|0
256,120,80994,1,0
256,120,81201,2,0,B|256:228,1,95,0|2
256,352,81615,1,0
256,352,81821,5,4
480,192,82236,1,4
256,32,82650,1,4
44,192,83063,2,0,B|164:192,1,95,4|2
256,264,83477,1,0
384,192,83684,2,0,B|484:192,2,95,0|2|0
256,264,84304,1,0
256,264,84511,2,2,B|256:148,1,95
256,92,84925,1,0
256,92,85132,5,4
120,300,85546,1,4
392,300,85959,1,4
256,224,86373,1,4
256,192,86477,12,4,88442
