osu file format v7

[General]
AudioFilename: My Soul, Your Beats!.mp3
AudioLeadIn: 0
PreviewTime: 53321
Countdown: 1
SampleSet: Soft
StackLeniency: 0.7
Mode: 0
LetterboxInBreaks: 1

[Editor]
DistanceSpacing: 0
BeatDivisor: 2
GridSize: 8

[Metadata]
Title:My Soul, Your Beats! (TV Size)
Artist:Lia
Creator:Ashikabi
Version:Hard
Source:Angel Beats!
Tags:Angel Beats keys aniplex yuri tenshi kanade tachibana otonashi lia

[Difficulty]
HPDrainRate:7
CircleSize:6
OverallDifficulty:7
SliderMultiplier:1.4
SliderTickRate:1

[Events]
//Background and Video events
0,0,"wall309.jpg"
Video,0,"Angel Beats! 02.flv"
//Break Periods
//Storyboard Layer 0 (Background)
//Storyboard Layer 1 (Fail)
//Storyboard Layer 2 (Pass)
//Storyboard Layer 3 (Foreground)
//Storyboard Sound Samples
//Background Colour Transformations
3,100,163,162,255

[TimingPoints]
15253,413.793103448276,4,2,0,100,1,0

[Colours]
Combo1 : 213,0,213
Combo2 : 26,255,123
Combo3 : 81,138,234
Combo4 : 252,101,101
Combo5 : 255,245,53

[HitObjects]
256,192,13184,12,0,14839
96,72,15253,5,2
80,120,15459,1,2
96,168,15666,1,2
144,176,15873,1,2
144,176,16080,1,2
192,160,16287,1,2
208,112,16494,1,2
208,112,16701,1,2
192,64,16908,1,2
152,8,17321,1,2
208,8,17528,1,8
304,80,18149,2,8,B|336:120|296:152,1,70
224,144,18770,2,4,B|192:104|232:72,1,70
144,80,20218,6,0,B|104:120|168:152,1,70
146,138,20632,1,2
184,176,20839,1,0
256,192,21253,1,0
304,176,21459,1,2
328,128,21666,1,0
344,136,21873,2,8,B|384:104|432:152,1,70,8|0
416,168,22287,1,2
432,216,22494,1,4
352,328,23528,6,8,B|288:288|384:272,2,70,8|8|8
392,296,24149,1,2
336,248,24563,1,2
336,248,24770,1,2
264,248,25184,1,8
208,208,25597,1,8
152,248,26011,1,8
112,216,26218,1,8
152,152,26632,5,4
192,120,26839,2,2,B|296:24,1,140
361,25,27666,2,2,B|464:120,1,140
464,120,28494,1,8
408,168,28908,1,8
464,216,29321,1,8
464,288,29735,5,4
464,360,30149,2,2,B|400:424|336:344,1,140
328,288,30977,2,4,B|265:225|209:296,1,140
144,272,31804,1,8
104,216,32218,1,8
72,280,32632,2,2,B|32:304|-8:272,1,70
112,80,33459,5,2
152,112,33666,1,2
192,144,33873,1,2
232,176,34080,1,2
232,248,34494,1,8
232,248,34701,2,8,B|304:272|280:176,1,70
288,176,35115,2,8,B|288:128|248:128,1,70
232,176,35528,2,8,B|192:176|192:240,1,70
432,256,36770,5,2
432,256,36977,1,2
392,224,37184,1,2
360,264,37390,1,2
312,320,37804,1,8
272,288,38011,1,8
256,216,38425,2,8,B|224:136|120:144,1,140
80,136,39253,1,8
32,152,39459,1,8
8,232,39873,5,2
48,272,40080,1,2
96,328,40494,1,8
144,272,40908,1,8
144,272,41321,1,8
144,272,41735,1,8
96,216,42149,1,8
168,200,42563,1,8
200,240,42770,1,8
200,240,42977,5,4
168,312,43390,2,0,B|264:320|264:224,1,140
256,152,44218,2,8,B|256:56|384:80,1,140
349,75,45046,1,8
408,120,45459,1,2
368,184,45873,1,2
408,152,46080,1,2
368,184,46287,5,4
328,248,46701,2,2,B|296:288|248:232,1,70
240,184,47321,1,2
296,136,47735,1,8
320,120,47942,1,8
368,184,48356,1,2
368,184,48770,1,2
384,112,49184,2,8,B|432:112|440:176,1,70
434,151,49597,5,4
368,184,50011,1,8
320,160,50218,1,8
264,208,50632,1,2
264,208,51046,1,4
264,208,51253,1,4
208,160,51666,1,8
208,160,52080,1,8
144,192,52494,2,4,B|96:152|168:104,1,70
184,136,52908,2,4,B|224:176|160:208,1,70
152,224,53321,6,2,B|288:336,1,140
304,344,53942,1,8
384,288,54563,2,8,B|320:240,1,70
232,248,55390,2,4,B|168:304,1,70
128,248,56011,1,2
104,224,56218,1,2
80,200,56425,1,2
56,176,56632,6,8,B|160:80,1,140
158,81,57253,1,8
256,80,57873,1,2
296,112,58080,1,2
392,104,58701,1,8
352,72,58908,1,8
456,64,59528,1,4
496,96,59735,1,4
448,192,60356,5,8
448,192,60770,1,8
448,192,60977,1,8
400,192,61184,2,0,B|208:192,2,140
448,192,62218,1,2
448,112,62632,5,8
448,64,62839,2,2,B|384:64|400:144,1,70
400,152,63253,2,2,B|400:208|312:200,1,70
256,88,64287,5,2
256,136,64494,2,8,B|256:200|152:200,1,70
184,152,64908,1,8
184,152,65321,1,2
184,152,65735,1,2
184,152,66149,1,4
112,152,66563,6,2,B|40:216,1,70
96,232,66977,2,2,B|148:185,1,70
256,192,67804,2,8,B|256:256|360:232,1,70
392,224,68632,2,8,B|392:160|288:184,1,70
349,178,69046,1,4
312,208,69253,1,4
272,176,69459,1,4
240,136,69666,1,4
200,160,69873,5,2
176,176,70080,1,2
160,208,70287,1,2
176,232,70494,1,2
272,280,71115,2,8,B|328:280|320:208,1,70
320,136,71942,1,8
320,136,72149,1,8
416,136,72770,2,4,B|464:136|464:216,1,70
416,240,73597,1,2
416,240,74011,1,2
416,240,74218,1,2
368,296,74632,5,8
336,336,74839,1,8
304,296,75046,1,8
336,256,75253,2,8,B|336:184|224:192,2,140
336,256,76287,1,2
368,296,76494,1,2
336,336,76701,1,2
304,296,76908,1,2
336,256,77115,1,4
136,192,77942,5,8
96,160,78149,2,2,B|136:48|184:168,1,140
179,227,78977,2,2,B|136:336|96:224,1,140
96,160,79804,1,8
144,104,80218,1,8
144,104,80632,1,4
144,104,80839,1,4
216,88,81253,5,2
256,56,81459,1,2
336,56,81873,1,8
336,56,82287,1,8
336,56,82701,1,8
392,104,83115,1,2
336,152,83528,1,2
392,200,83942,1,8
392,200,84149,1,8
392,280,84563,5,0
344,280,84770,2,2,B|192:280,1,140
136,280,85597,2,2,B|136:184|288:184,1,140
296,184,86425,1,8
256,240,86839,1,8
256,192,87046,1,8
256,192,87666,12,0,89115
