osu file format v7

[General]
AudioFilename: My Soul, Your Beats!.mp3
AudioLeadIn: 0
PreviewTime: 53321
Countdown: 1
SampleSet: Soft
StackLeniency: 0.7
Mode: 0
LetterboxInBreaks: 1

[Editor]
DistanceSpacing: 0
BeatDivisor: 2
GridSize: 8

[Metadata]
Title:My Soul, Your Beats! (TV Size)
Artist:Lia
Creator:Ashikabi
Version:Easy
Source:Angel Beats!
Tags:Angel Beats keys aniplex yuri tenshi kanade tachibana otonashi lia

[Difficulty]
HPDrainRate:2
CircleSize:4
OverallDifficulty:3
SliderMultiplier:1.4
SliderTickRate:1

[Events]
//Background and Video events
0,0,"wall309.jpg"
Video,0,"Angel Beats! 02.flv"
//Break Periods
2,51866,61192
//Storyboard Layer 0 (Background)
//Storyboard Layer 1 (Fail)
//Storyboard Layer 2 (Pass)
//Storyboard Layer 3 (Foreground)
//Storyboard Sound Samples
//Background Colour Transformations
3,100,163,162,255

[TimingPoints]
15253,413.793103448276,4,2,0,100,1,0

[Colours]
Combo1 : 213,0,213
Combo2 : 26,255,123
Combo3 : 81,138,234
Combo4 : 252,101,101
Combo5 : 255,245,53

[HitObjects]
80,96,15253,1,2
136,184,15666,1,2
192,96,16080,1,2
248,184,16494,1,2
296,96,16908,1,2
352,184,17321,1,4
88,88,20218,6,2,B|192:144|56:216,1,140
56,248,20839,1,4
120,328,21253,1,0
120,328,21459,1,0
224,312,21873,2,2,B|296:288|312:160|184:136,1,210
64,168,23528,2,2,B|96:64|232:24|400:64|408:176,1,420
80,136,26632,5,2
8,136,26839,2,8,B|32:0|448:0|512:136,1,560
256,192,29735,5,8
256,88,30149,2,4,B|400:80|448:184|408:264|344:336|208:288,1,420
128,320,33459,6,0,B|-72:280|0:96|152:104,2,350,2|2|2
192,320,35735,1,8
368,320,36770,6,8,B|568:280|496:96|344:104,1,350
312,104,38011,1,4
80,88,40080,5,2
160,160,40494,1,2
80,224,40908,1,2
160,296,41321,1,8
248,232,41735,1,8
440,64,42977,5,2
368,136,43390,1,2
296,208,43804,1,2
192,208,44218,1,2
120,136,44631,1,2
56,64,45045,1,8
168,312,46287,6,0,B|216:96|296:360|296:360,1,210,2|2
376,312,47321,1,0
456,256,47735,1,8
456,256,47942,1,8
376,192,48356,1,2
56,192,49597,6,0,B|8:72|152:40|360:40|504:88|448:200,1,560,2|2
360,200,51666,1,4
256,128,62632,5,2
184,128,62839,2,0,B|176:88|224:32|320:64|352:112|312:160,1,210,2|2
256,248,64287,5,8
184,248,64494,2,8,B|192:392|328:392|368:304|320:208|312:192,2,280
184,152,66563,5,2
248,72,66977,2,8,B|312:112|224:160,1,70
392,72,67804,1,2
392,72,68011,1,2
392,208,68632,2,4,B|392:264|304:256,1,70,4|4
144,200,69873,6,2,B|144:120|240:104,1,140
296,104,70494,1,2
376,208,71115,1,2
376,208,71321,1,2
448,88,71942,2,8,B|504:128|416:160,1,70
456,296,72770,1,2
456,296,72977,1,2
256,192,74632,5,2
304,144,74839,2,2,B|320:144|336:200|336:280|216:272|216:272,1,140
112,256,76080,2,2,B|88:248|96:192,1,70,4|4
424,80,77942,5,0
352,80,78149,2,0,B|184:80,1,140,2|2
120,80,78977,1,8
24,80,79390,1,8
64,304,81253,5,4
120,256,81459,2,0,B|232:160,1,140,2|2
304,104,82287,1,8
384,40,82701,1,8
256,192,84356,12,4,88080
