osu file format v7

[General]
AudioFilename: My Soul, Your Beats!.mp3
AudioLeadIn: 0
PreviewTime: 46116
Countdown: 0
SampleSet: Soft
StackLeniency: 0.3
Mode: 0
LetterboxInBreaks: 0

[Editor]
Bookmarks: 20254,33495,46736,53357,66598,77978,89771,103012,116254,122874,136116,147495,159288,172529,190736,203978,217219,230460,241840,253426
DistanceSpacing: 0.829999983310699
BeatDivisor: 4
GridSize: 16

[Metadata]
Title:My Soul, Your Beats!
Artist:Lia
Creator:DJPop
Version:Hard
Source:Angel Beats!
Tags:

[Difficulty]
HPDrainRate:5
CircleSize:4
OverallDifficulty:7
SliderMultiplier:1.92
SliderTickRate:2

[Events]
//Background and Video events
0,0,"My Soul Your Beats!.png"
//Break Periods
2,88109,88871
2,157626,158388
2,189281,189836
//Storyboard Layer 0 (Background)
//Storyboard Layer 1 (Fail)
//Storyboard Layer 2 (Pass)
//Storyboard Layer 3 (Foreground)
//Storyboard Sound Samples
//Background Colour Transformations
3,100,255,255,255

[TimingPoints]
392,413.793103448276,4,2,1,50,1,0
52633,-100,4,2,1,55,0,0
52840,-100,4,2,1,60,0,0
53047,-100,4,2,1,65,0,0
53254,-100,4,2,1,70,0,0
53357,-100,4,2,1,70,0,1
56460,-200,4,2,1,70,0,0
57185,-100,4,2,1,70,0,1
60288,-100,4,1,1,70,0,1
60495,-100,4,2,1,70,0,1
61116,-100,4,1,1,70,0,1
61323,-100,4,2,1,70,0,1
61943,-100,4,1,1,70,0,1
62150,-100,4,2,1,70,0,1
63702,-100,4,1,1,70,0,1
63805,-100,4,2,1,70,0,1
73529,-100,4,1,1,70,0,1
73736,-100,4,2,1,70,0,1
76840,-100,4,1,1,70,0,1
77047,-100,4,2,1,70,0,1
88116,-100,4,2,1,50,0,0
101357,-100,4,1,1,0,0,0
102702,-100,4,2,1,50,0,0
122150,-100,4,2,1,55,0,0
122357,-100,4,2,1,60,0,0
122564,-100,4,2,1,65,0,0
122771,-100,4,2,1,70,0,0
122874,-200,4,2,1,70,0,1
149667,-200,4,1,1,70,0,1
149874,-200,4,2,1,70,0,1
152978,-200,4,1,1,70,0,1
153185,-200,4,2,1,70,0,1
156288,-200,4,1,1,70,0,1
156495,-200,4,2,1,70,0,1
157633,-100,4,2,1,60,0,0
185771,-100,4,1,1,0,0,0
189909,-100,4,2,1,70,0,0
190736,-200,4,2,1,70,0,1
216805,-200,4,2,1,70,0,0
217219,-100,4,2,1,70,0,1
250012,-100,4,1,1,0,0,1
251978,-100,4,1,1,0,0,0

[Colours]
Combo1 : 0,255,0
Combo2 : 0,255,255
Combo3 : 255,0,255
Combo4 : 255,255,0

[HitObjects]
32,32,20254,5,0
96,80,20460,1,0
96,160,20667,1,2
32,208,20874,2,0,B|32:303|112:320|160:272,1,192,2|2
224,224,21495,2,0,B|272:176|352:192|352:288,1,192,2|0
400,352,22116,1,0
480,352,22323,1,0
480,272,22529,2,0,B|480:192|400:160|392:112|400:64|464:32|480:32,1,288,2|2
479,32,23357,1,2
320,32,23771,5,0
256,80,23978,1,0
192,32,24185,2,0,B|160:40|112:48|112:80|112:112|64:120|31:128,1,192
32,208,24805,2,0,B|64:227|112:240|144:224|160:184|176:144|208:128|256:142|289:160,1,288,2|2
360,192,25633,1,2
480,304,26047,1,2
480,304,26254,1,2
320,352,26667,5,2
240,352,26874,1,2
80,352,27288,1,0
208,256,27702,1,0
48,256,28116,1,0
176,160,28529,2,0,B|144:160|70:172|48:112|32:64,1,192,0|2
112,32,29150,2,0,B|144:32|218:20|240:80|256:128,1,192,2|2
272,208,29771,1,2
304,48,30185,5,0
464,48,30598,1,0
320,128,31012,1,2
480,128,31426,2,0,C|480:320,1,192,0|2
480,320,32047,1,2
320,320,32460,2,0,C|320:224,1,96,2|2
160,224,33081,2,0,C|160:320,1,96,2|2
80,352,33495,5,0
32,288,33702,1,0
32,208,33909,1,0
80,144,34116,2,0,B|64:96|86:47|112:32|160:32|192:32|192:32,1,192,0|2
272,32,34736,1,0
272,112,34943,1,2
344,72,35150,1,0
416,32,35357,1,0
416,112,35564,1,2
480,160,35771,2,0,B|480:192|488:256|448:280|413:274|376:280|336:256|344:192|344:160,1,288,2|2
343,160,36598,1,2
176,160,37012,5,2
96,160,37219,1,2
32,208,37426,2,0,B|32:240|20:311|96:352|128:352,1,192
208,352,38047,2,0,B|240:352|320:352|344:312|368:272|448:272|481:272,2,288,0|2|2
256,112,39909,5,0
256,112,40116,1,0
112,192,40529,1,2
256,272,40943,1,0
400,192,41357,1,2
240,192,41771,2,0,B|199:178|156:140|154:91|174:23|236:-2|312:12|334:63|336:96|336:144,1,384,2|2
256,288,43012,5,2
104,352,43426,1,0
208,224,43840,1,2
56,288,44254,1,0
160,160,44667,1,0
64,32,45081,2,0,C|448:32,1,384,2|2
448,32,46323,5,0
448,192,46736,1,2
448,192,46943,1,0
448,352,47357,1,0
288,352,47771,1,0
288,352,47978,1,0
128,352,48392,2,0,B|80:360|22:332|24:272|32:224,2,192,2|0|0
224,224,49633,5,0
144,80,50047,1,2
144,80,50254,1,0
304,80,50667,1,0
464,80,51081,1,0
464,80,51288,1,0
384,224,51702,2,0,B|360:256|336:272|304:284|272:272|248:256|224:224,1,192,2|0
64,208,52529,2,0,C|32:304,1,96,2|2
97,347,52943,2,0,C|128:256,1,96,2|2
192,304,53357,5,4
256,352,53564,1,0
320,304,53771,1,8
384,352,53978,2,0,B|432:352|496:336|512:272|496:208|432:192|383:192,1,288,0|8
384,272,54805,2,0,B|336:272|272:256|256:192|272:128|336:112|385:112,1,288,0|8
384,192,55633,2,0,B|432:192|496:176|512:112|496:48|432:32|383:32,1,288,0|8
224,112,56667,6,0,C|128:112,1,96,0|8
128,32,57288,2,0,B|80:32|16:48|0:112|16:176|80:192|129:192,1,288,0|8
128,112,58116,2,0,B|176:112|240:128|256:192|240:256|176:272|127:272,1,288,0|8
128,192,58943,2,0,B|80:192|16:208|0:272|16:336|80:352|129:352,1,288,0|8
208,352,59771,2,0,C|480:288|208:192|480:112|207:32,1,1152
32,32,62667,5,0
32,112,62874,1,8
32,192,63081,1,0
32,272,63288,1,0
32,352,63495,2,0,C|320:352,1,288
400,352,64323,5,0
480,352,64529,1,8
480,272,64736,1,0
480,192,64943,1,0
256,32,65357,1,8
32,192,65771,1,0
256,352,66185,1,12
256,32,66598,6,0,C|256:224,1,192,4|8
336,224,67219,2,0,B|336:160|313:32|416:32|480:32,1,288,0|8
478,112,68047,2,0,B|478:176|501:304|398:304|336:304,1,288,0|8
256,304,68874,2,0,B|208:304|160:304|160:368|33:343|32:256|32:224,1,288,0|8
32,32,69909,5,0
96,80,70116,1,0
32,128,70323,1,8
96,176,70529,2,0,B|144:176|176:176|224:112|208:104|192:96|240:32|272:32|322:32,1,288,0|8
384,80,71357,2,0,B|384:128|384:160|320:208|312:192|304:176|240:224|240:256|240:306,1,288,0|8
304,352,72184,2,0,B|368:352|474:345|480:240|480:176,1,288,0|8
480,96,73012,2,0,C|416:40|336:96|256:39|176:96|96:40|31:97,1,576
32,256,74667,5,0
80,320,74874,1,0
144,272,75081,1,0
192,336,75288,2,0,B|272:336|288:320|256:240|272:224|336:199|400:224|416:256|384:320|400:336|481:336,1,384,8|8
480,256,76323,2,0,B|448:192|400:128|352:104|304:96|256:89|208:96|160:104|112:128|64:192|32:257,1,576
96,32,77978,5,0
96,32,78185,1,0
256,32,78598,1,12
416,32,79012,1,0
432,192,79426,2,0,B|368:240|320:264|256:277|192:264|144:240|80:192,2,384,8|8|8
416,112,81288,5,0
416,112,81495,1,0
256,112,81909,1,12
96,112,82323,1,0
80,272,82736,2,0,B|144:320|192:344|256:357|320:344|368:320|432:272,2,384,8|8|8
96,192,84598,5,0
96,192,84805,1,0
256,192,85219,1,12
416,192,85633,1,0
432,32,86047,2,0,B|368:80|320:104|256:117|192:104|144:80|80:32,2,384,12|8|8
432,32,87909,1,8
480,352,89771,5,0
432,288,89978,1,0
432,208,90185,1,0
480,144,90392,1,0
368,32,90805,1,0
368,32,91012,1,0
256,144,91426,1,0
304,208,91633,1,0
304,288,91840,1,0
256,352,92047,2,0,B|208:352|176:320|208:288|192:272|144:248|96:272|80:288|112:320|80:352|31:352,1,288
31,351,92874,1,0
32,192,93288,5,0
32,112,93495,1,0
32,32,93702,1,0
192,32,94116,1,0
256,80,94323,2,0,L|256:272,4,192
320,32,96185,5,0
320,32,96392,1,0
480,192,96805,1,0
320,352,97219,1,0
160,192,97633,1,0
320,32,98047,2,0,B|312:64|296:96|256:115|216:96|200:64|192:32,2,192
192,32,99288,5,0
32,192,99702,1,0
192,352,100116,1,0
352,192,100529,1,0
192,32,100943,1,0
256,192,101357,12,0,102598
480,32,103012,5,0
416,80,103219,1,0
416,160,103426,1,2
480,208,103633,1,2
368,328,104047,1,2
368,328,104254,1,2
256,208,104667,1,0
320,160,104874,1,0
320,80,105081,1,0
256,32,105288,2,0,B|208:32|128:32|144:88|144:96|144:104|160:160|80:160|31:160,1,288,2|0
32,240,106116,5,0
112,224,106323,1,2
80,296,106529,1,0
160,280,106736,1,0
128,352,106943,1,0
288,352,107357,1,0
368,352,107564,2,0,L|464:352,1,96,2|2
464,192,108185,2,0,L|368:192,1,96,2|2
368,32,108805,2,0,L|464:32,1,96,2|2
256,32,109426,5,2
256,32,109633,1,2
256,192,110047,1,0
160,64,110460,1,2
160,224,110874,1,0
64,96,111288,2,0,B|40:128|24:152|29:184|24:216|40:240|64:272,1,192,0|2
63,271,111909,1,2
208,352,112323,1,2
208,352,112529,1,2
352,272,112943,5,0
352,112,113357,1,0
480,208,113771,1,0
480,48,114185,1,0
400,192,114598,1,2
320,192,114805,2,0,L|32:192,1,288,2|2
32,192,115840,5,0
32,32,116254,1,2
32,32,116460,1,0
192,32,116874,1,0
352,32,117288,1,0
352,32,117495,1,0
480,128,117909,2,0,B|448:136|416:152|397:192|416:232|448:248|480:256,2,192,2|0|0
479,255,119150,5,0
352,352,119564,1,2
352,352,119771,1,0
192,352,120185,1,0
32,352,120598,1,0
32,352,120805,1,0
32,192,121219,2,0,L|224:192,1,192,2|0
384,152,122047,2,0,L|480:152,1,96,2|2
384,232,122460,2,0,L|480:232,1,96,2|2
464,320,122874,5,4
384,336,123081,1,0
304,352,123288,1,8
224,336,123495,2,0,L|80:336,1,144,0|8
80,192,124323,2,0,L|224:192,1,144,0|8
224,48,125150,2,0,L|80:48,1,144,0|8
224,192,126185,5,0
288,144,126392,1,0
352,96,126598,1,8
416,48,126805,2,0,B|447:54|484:77|487:118|480:160|480:160,1,144,0|8
368,224,127633,2,0,B|367:223|409:230|464:228|473:190|480:160|480:160,1,144,0|8
368,224,128460,2,0,B|328:216|284:220|264:256|256:288|256:288,1,144,0|8
192,352,129288,2,0,B|208:352|241:337|248:312|256:288|256:288,1,96
195,355,129909,5,8
112,352,130116,2,0,B|104:336|88:328|72:326|56:328|40:336|32:352,4,96
176,192,132185,5,0
104,152,132392,1,8
32,112,132598,1,0
104,72,132805,1,0
176,32,133012,2,0,L|320:32,1,144
416,48,133840,5,0
480,96,134047,1,8
416,144,134254,1,0
480,192,134460,1,0
256,352,134874,1,8
48,192,135288,1,0
256,32,135702,1,12
256,352,136116,5,4
256,272,136323,1,0
256,192,136529,1,8
256,112,136736,2,0,L|112:112,1,144,0|8
256,112,137564,2,0,L|400:112,1,144,0|8
256,112,138392,2,0,L|256:256,1,144,0|8
176,112,139426,5,0
216,40,139633,1,0
296,40,139840,1,8
336,112,140047,2,0,L|456:192,1,144,0|8
272,192,140874,2,0,L|392:272,1,144,0|8
208,272,141702,2,0,L|328:352,1,144,0|8
144,352,142529,2,0,L|96:352,1,48,0|4
80,272,142943,2,0,L|32:272,1,48,0|8
32,112,143564,5,0
32,112,143771,1,0
176,32,144185,1,0
216,104,144392,1,0
296,104,144598,1,0
336,32,144805,2,0,L|432:32,1,96,8|0
480,192,145633,1,8
400,192,145840,2,0,L|256:192,1,144,0|8
112,192,146874,1,0
32,192,147081,1,0
96,336,147495,5,0
96,336,147702,1,0
256,336,148116,1,12
416,336,148529,1,0
352,192,148943,2,0,B|352:128|320:96|280:104|248:128|224:160|256:192|288:224|264:256|232:280|192:288|160:256|160:191,1,384,8|8
112,128,150805,5,0
112,128,151012,1,0
256,48,151426,1,12
400,128,151840,1,0
352,288,152254,2,0,B|352:352|320:384|280:376|248:352|224:320|256:288|288:256|264:224|232:200|192:192|160:224|160:289,1,384,8|8
96,344,154116,5,0
96,344,154323,1,0
32,192,154736,1,12
96,40,155150,1,0
160,192,155564,2,0,B|192:240|232:248|264:232|272:192|280:152|288:152|320:193|352:152|360:152|368:192|376:232|408:248|448:240|480:192,1,384,12|8
479,193,157426,1,8
136,32,159288,5,0
216,32,159495,1,0
296,32,159702,1,0
376,32,159909,1,0
256,144,160323,1,0
96,112,160736,2,0,B|72:232|96:304|128:344|176:360|257:355|336:360|384:344|416:304|440:232|416:112|416:112,1,672
256,144,162598,5,0
192,192,162805,1,0
256,240,163012,1,0
320,192,163219,1,0
256,32,163633,1,0
416,32,164047,2,0,B|480:128|496:192|488:282|464:352|384:352|256:352|64:352|64:352,1,672
32,192,165909,5,0
104,152,166116,1,0
104,72,166323,1,0
32,32,166529,1,0
176,112,166943,1,0
320,32,167357,2,0,B|368:32|432:48|464:112|432:176|368:192|320:192|320:192,1,288
192,288,168392,6,0,C|128:288,2,64
320,288,169012,1,0
320,288,169219,2,0,B|336:320|368:336|400:339|432:336|464:320|480:288,3,192
480,128,170874,5,2
352,32,171288,1,2
224,128,171702,1,2
96,32,172116,1,2
32,176,172529,5,0
96,224,172736,1,0
96,304,172943,1,0
32,352,173150,1,0
192,352,173564,1,0
352,352,173978,2,0,B|352:320|336:296|304:272|272:248|256:224|256:191,1,192
360,80,174805,1,2
296,32,175012,1,2
216,32,175219,1,2
152,80,175426,1,2
256,192,175840,5,0
216,264,176047,1,0
296,264,176254,1,0
256,336,176460,1,0
256,192,176874,1,0
416,192,177288,2,0,B|448:208|472:224|491:264|472:304|448:320|416:336|416:336|416:336,1,192
416,192,178116,5,0
368,128,178323,2,0,C|480:32,2,144
320,64,179150,1,0
240,64,179357,1,0
80,64,179771,1,0
208,160,180185,1,0
48,160,180598,2,0,B|48:224|44:352|176:352|208:352,1,288
464,272,181633,2,0,B|440:352|336:352|304:352,1,192
256,192,182460,6,0,C|448:192,2,192
256,32,183702,1,0
256,32,183909,1,0
176,32,184116,2,0,C|32:32,2,144
336,32,185150,1,0
256,192,185564,1,0
256,192,185771,12,0,189081
256,192,190736,5,4
256,272,190943,1,0
256,352,191150,1,8
176,352,191357,2,0,C|80:352,1,96
176,272,191978,1,8
176,272,192185,2,0,C|80:272,1,96
176,192,192805,1,8
176,192,193012,2,0,C|80:192,1,96
80,192,193633,1,8
256,128,194047,6,0,C|256:32,1,96,0|8
336,32,194667,2,0,C|432:32,1,96
336,112,195288,1,8
336,112,195495,2,0,C|432:112,1,96
336,192,196116,1,8
336,192,196323,2,0,C|432:192,1,96
432,192,196943,1,8
432,272,197150,6,0,B|432:364|336:352|336:352,1,144,0|8
336,352,197978,1,0
176,352,198392,1,0
256,352,198598,1,8
216,280,198805,1,0
72,200,199219,1,0
32,128,199426,1,8
112,128,199633,1,0
240,32,200047,5,0
320,48,200254,1,8
400,64,200460,1,0
480,80,200667,1,0
480,160,200874,2,0,C|480:256,1,96
240,112,201702,1,0
320,128,201909,1,8
400,144,202116,1,0
400,224,202323,5,0
208,352,202736,1,8
112,160,203150,1,0
304,32,203564,1,12
400,224,203978,6,0,C|400:320,1,96,4|8
320,224,204598,2,0,C|320:320,1,96
320,320,205219,1,8
240,224,205426,2,0,C|240:320,1,96
240,320,206047,1,8
160,224,206254,2,0,C|160:320,1,96
160,320,206874,1,8
112,160,207288,5,0
48,112,207495,1,0
112,64,207702,1,8
192,160,207909,2,0,C|192:64,1,96
192,64,208529,1,8
272,160,208736,2,0,C|272:64,1,96
272,64,209357,1,8
352,160,209564,2,0,C|352:64,1,96
352,64,210185,1,8
432,160,210392,2,0,B|472:168|480:184|483:208|480:232|472:248|432:256|432:256,1,144,0|8
296,352,211426,1,0
216,352,211633,1,0
32,192,212047,5,0
32,112,212254,1,0
32,32,212460,1,0
112,32,212667,2,0,C|208:32,1,96,8|0
256,192,213495,1,8
256,192,213702,1,0
256,192,213909,12,8,216805
256,192,217219,5,4
256,112,217426,1,0
256,32,217633,1,8
176,32,217840,2,0,B|48:19|32:128|32:128,1,192
32,256,218460,1,8
32,256,218667,2,0,B|48:365|176:352,1,192
336,352,219288,1,8
336,352,219495,2,0,B|464:365|480:256|480:256,1,192
479,256,220116,1,8
480,32,220529,5,0
400,32,220736,1,0
320,32,220943,1,8
240,32,221150,2,0,C|48:32,1,192
144,112,221771,1,8
240,192,221978,2,0,C|48:192,1,192
144,272,222598,1,8
240,352,222805,2,0,C|48:352,1,192
144,272,223426,1,8
144,192,223633,1,0
144,112,223840,5,0
288,32,224254,1,8
288,32,224460,1,0
432,112,224874,1,0
480,176,225081,1,8
432,240,225288,1,0
288,320,225702,1,0
288,320,226116,1,0
144,272,226529,5,0
96,336,226736,1,8
48,272,226943,1,0
96,208,227150,1,0
96,128,227357,2,0,C|96:32,2,96,0|8|0
256,112,228185,5,0
256,192,228392,1,8
256,272,228598,1,0
256,352,228805,1,0
480,192,229219,1,8
256,32,229633,1,0
32,192,230047,1,12
256,352,230460,5,4
216,280,230667,1,0
296,280,230874,1,8
336,208,231081,2,0,B|368:192|384:160|392:128|384:96|368:64|336:48|336:48,1,192
336,48,231702,1,8
175,48,231909,2,0,B|176:48|144:64|128:96|120:128|128:160|144:192|176:208,1,192
175,208,232529,1,8
256,224,232736,2,0,C|256:32,1,192
256,32,233357,1,8
480,32,233771,5,0
432,96,233978,1,0
480,160,234185,1,8
432,224,234392,2,0,C|288:352,1,192
304,224,235012,1,8
304,224,235219,2,0,C|160:352,1,192
176,224,235840,1,8
176,224,236047,2,0,C|32:352,1,192
48,224,236667,1,8
48,144,236874,1,0
48,64,237081,5,0
256,64,237495,1,8
448,64,237909,1,0
448,64,238116,1,0
448,256,238529,1,0
448,337,238736,1,0
368,337,238943,1,0
368,256,239150,2,0,C|176:256,1,192,8|0
176,336,239771,1,0
96,336,239978,1,8
96,256,240185,2,0,B|96:224|88:168|112:128|160:144|208:160|232:120|224:64|224:31,2,288,0|8|0
256,320,241840,5,0
256,320,242047,1,0
448,320,242460,1,12
256,320,242874,1,0
64,320,243288,2,0,C|64:128,2,192,8|0|8
256,320,244529,1,0
256,320,244736,1,0
256,64,245150,5,0
256,64,245357,1,0
64,64,245771,1,12
256,64,246185,1,0
448,64,246598,2,0,C|448:256,2,192,8|0|8
256,64,247840,1,0
256,64,248047,1,0
32,192,248460,5,0
32,192,248667,1,0
256,352,249081,1,12
480,192,249495,1,0
256,192,249909,1,12
256,192,250012,12,0,251771
