osu file format v11

[General]
AudioFilename: ろーれらいのうた.mp3
AudioLeadIn: 1456
PreviewTime: 71790
Countdown: 0
SampleSet: Soft
StackLeniency: 0.7
Mode: 0
LetterboxInBreaks: 0

[Editor]
Bookmarks: 17045
DistanceSpacing: 0.88
BeatDivisor: 4
GridSize: 4

[Metadata]
Title:Lorelei no Uta
TitleUnicode:Lorelei no Uta
Artist:Lia
ArtistUnicode:Lia
Creator:terametis
Version:Normal
Source:
Tags:
BeatmapID:204963
BeatmapSetID:69379

[Difficulty]
HPDrainRate:3
CircleSize:4
OverallDifficulty:3
ApproachRate:4
SliderMultiplier:0.9
SliderTickRate:1

[Events]
//Background and Video events
0,0,"ぬふぬふあ.jpg"
//Break Periods
//Storyboard Layer 0 (Background)
//Storyboard Layer 1 (Fail)
//Storyboard Layer 2 (Pass)
//Storyboard Layer 3 (Foreground)
//Storyboard Sound Samples
//Background Colour Transformations
3,100,163,162,255

[TimingPoints]
774,338.983050847458,4,2,1,70,1,0
3485,-133.333333333333,4,2,1,70,0,0
6282,-133.333333333333,4,2,1,25,0,0
8231,-133.333333333333,4,2,1,70,0,0
11706,-133.333333333333,4,2,1,25,0,0
13655,-133.333333333333,4,2,1,70,0,0
17129,-133.333333333333,4,2,1,25,0,0
19418,-100,4,2,1,70,0,0
21112,-100,4,2,1,100,0,0
21282,-100,4,2,1,70,0,0
21790,-100,4,2,1,70,0,0
22129,-100,4,2,1,70,0,0
22468,-100,4,2,1,75,0,0
64841,-100,4,2,1,82,0,0
72638,-100,4,2,1,90,0,1
75180,-100,4,2,1,90,0,1
102468,-100,4,2,1,90,0,0
151282,-100,4,2,1,90,0,1
153824,-100,4,2,1,90,0,1
178401,-100,4,2,1,90,0,0
178485,-100,4,2,1,25,0,0

[Colours]
Combo1 : 128,255,255
Combo2 : 0,128,255
Combo3 : 0,0,255

[HitObjects]
60,44,774,2,0,P|104:24|156:32,1,90,2|0,0:0|0:0,0:0:0
116,104,1451,1,0,0:0:0
116,104,1790,1,0,0:0:0
196,96,2129,2,0,P|200:144|228:176,1,90,2|0,0:0|0:0,0:0:0
276,112,2807,1,0,0:0:0
276,112,3146,1,0,0:0:0
308,184,3485,6,0,P|248:232|280:352,1,202.500007724762,2|0,0:0|0:0,0:0:0
336,300,4841,2,0,P|252:272|152:336,1,202.500007724762,2|0,0:0|0:0,0:0:0
256,192,6197,12,0,8231,0:0:0
72,144,8909,6,0,P|120:116|236:184,1,202.500007724762,2|0,0:0|0:0,0:0:0
164,224,10265,2,0,P|156:272|276:344,1,202.500007724762,2|0,0:0|0:0,0:0:0
256,192,11621,12,0,13655,0:0:0
464,104,14333,6,0,P|396:48|304:104,1,202.500007724762,2|0,0:0|0:0,0:0:0
336,172,15689,2,0,P|256:212|168:148,1,202.500007724762,2|0,0:0|0:0,0:0:0
256,192,17045,12,0,19079,0:0:0
132,224,19757,6,8,P|168:172|132:64,1,180,4|8,0:0|0:0,0:0:0
92,136,20774,1,8,0:0:0
92,136,21112,2,2,P|168:168|212:100|212:100|252:140,1,180,6|8,0:0|0:0,0:0:0
292,72,22129,1,8,0:0:0
328,140,22468,6,12,P|308:180|392:284,2,180,12|2|0,0:0|0:0|0:0,0:0:0
400,168,24163,1,8,0:0:0
400,168,24502,2,0,P|444:128|440:44,2,135,2|4|8,0:0|0:0|0:0,0:0:0
328,140,25858,2,0,P|264:156|220:212,2,135,2|4|8,0:0|0:0|0:0,0:0:0
400,168,27214,6,8,P|400:260,1,90,0|8,0:0|0:0,0:0:0
400,296,27723,2,0,P|352:336|264:332,1,135,4|8,0:0|0:0,0:0:0
208,368,28570,2,0,P|196:324|156:280,1,90,2|8,0:0|0:0,0:0:0
156,252,29079,2,0,P|112:300|36:304,1,135,4|8,0:0|0:0,0:0:0
0,244,29926,2,0,P|-8:200|0:148,1,90,8|8,0:0|0:0,0:0:0
76,180,30604,6,0,P|120:184|192:120,1,135,4|8,0:0|0:0,0:0:0
136,64,31451,1,8,0:0:0
136,64,31790,1,8,0:0:0
256,192,31960,12,2,34672,0:0:0
392,308,35350,6,0,P|364:328|300:328,1,90,0|8,0:0|0:0,0:0:0
248,276,36028,2,0,P|220:328|96:320,1,180,2|0,0:0|0:0,0:0:0
160,268,37045,1,8,0:0:0
160,268,37384,6,0,P|152:216|164:172,1,90,2|8,0:0|0:0,0:0:0
232,140,38062,1,0,0:0:0
232,140,38401,1,8,0:0:0
296,188,38740,2,0,P|348:172|396:180,1,90,2|8,0:0|0:0,0:0:0
456,136,39418,6,0,P|464:96|404:28,2,135,0|4|8,0:0|0:0|0:0,0:0:0
412,200,40774,2,0,P|392:236|416:340,2,135,0|2|8,0:0|0:0|0:0,0:0:0
456,136,42129,2,0,P|368:104,1,90,0|8,0:0|0:0,0:0:0
332,92,42638,6,0,P|324:140|256:192,1,135,4|8,0:0|0:0,0:0:0
184,172,43485,2,0,P|116:168|72:216,1,135,8|4,0:0|0:0,0:0:0
76,292,44333,2,0,P|24:316,2,45,8|8|8,0:0|0:0|0:0,0:0:0
112,280,44841,2,0,P|128:312|192:344,1,90,8|0,0:0|0:0,0:0:0
212,348,45350,6,0,P|236:300|288:284,1,90,4|0,0:0|0:0,0:0:0
308,292,45858,2,0,P|328:324|460:320,1,180,8|8,0:0|0:0,0:0:0
460,284,46706,6,4,P|460:192|460:192|412:152,1,135,4|8,0:0|0:0,0:0:0
352,132,47553,2,0,P|320:176|272:192,1,90,0|8,0:0|0:0,0:0:0
248,192,48062,6,0,P|208:148|136:140,1,135,4|8,0:0|0:0,0:0:0
72,188,48909,2,0,P|32:172|8:84,2,135,0|4|8,0:0|0:0|0:0,0:0:0
136,140,50265,5,2,0:0:0
136,140,50604,1,8,0:0:0
204,180,50943,6,0,P|260:144|332:160,1,135,4|0,0:0|0:0,0:0:0
348,188,51621,2,0,P|376:144|408:128,1,90,2|8,0:0|0:0,0:0:0
428,204,52299,5,4,0:0:0
428,204,52638,1,8,0:0:0
376,264,52977,2,0,P|356:312|296:352,1,90,4|8,0:0|0:0,0:0:0
272,284,53655,6,0,P|240:320|200:336|200:336|180:296|139:271|139:271|96:304|48:292,1,270,4|10,0:0|0:0,0:0:0
76,216,55011,5,6,0:0:0
76,216,55350,1,6,0:0:0
156,200,55689,2,0,P|164:120|248:84,1,180,8|4,0:0|0:0,0:0:0
264,160,56706,5,0,0:0:0
264,160,57045,1,8,0:0:0
264,160,57384,1,8,0:0:0
328,112,57723,2,0,P|368:108|420:116,2,90,4|8|8,0:0|0:0|0:0,0:0:0
264,160,58740,2,0,P|252:212,1,45,8|8,0:0|0:0,0:0:0
224,320,59418,6,4,P|152:360|92:336,1,135,4|8,0:0|0:0,0:0:0
148,280,60265,2,0,P|160:216|108:160,1,135,0|8,0:0|0:0,0:0:0
56,212,61112,1,2,0:0:0
56,212,61451,1,8,0:0:0
48,132,61790,6,4,P|112:140|168:96,1,135,4|4,0:0|0:0,0:0:0
196,28,62638,2,0,P|184:84|200:120,1,90,0|4,0:0|0:0,0:0:0
284,192,63485,6,0,P|300:224|288:284,1,90,8|0,0:0|0:0,0:0:0
232,328,64163,2,0,P|180:328,1,45,8|0,0:0|0:0,0:0:0
68,328,64841,6,0,P|20:276|24:216,1,135,4|8,0:0|0:0,0:0:0
104,228,65689,2,0,P|156:216|184:180,1,90,2|0,0:0|0:0,0:0:0
208,160,66197,2,0,P|180:120|188:68,2,90,8|0|8,0:0|0:0|0:0,0:0:0
268,212,67214,6,0,P|304:140|368:128,1,135,4|0,0:0|0:0,0:0:0
392,128,67892,2,0,P|384:84|400:52,2,67.5,2|0|0,0:0|0:0|0:0,0:0:0
424,152,68570,2,0,P|440:240|408:288,1,135,4|0,0:0|0:0,0:0:0
384,304,69248,2,0,P|424:328|436:364,2,67.5,4|0|4,0:0|0:0|0:0,0:0:0
256,332,70265,6,0,P|224:304|228:252,1,90
236,228,70774,2,0,P|252:184|236:144,1,90,4|0,0:0|0:0,0:0:0
204,116,71282,2,0,P|108:116,2,90,4|4|2,0:0|0:0|0:0,0:0:0
248,116,72129,6,0,P|288:88|300:40,1,90
292,12,72638,6,0,P|304:64|344:84|344:84,1,90,4|10,0:0|0:0,0:0:0
376,156,73316,2,0,P|424:144|480:164,1,90,2|8,0:0|0:0,0:0:0
472,232,73994,2,0,P|464:276|432:316,1,90,2|8,0:0|0:0,0:0:0
356,312,74672,2,0,P|336:296|260:296,1,90,0|8,0:0|0:0,0:0:0
248,324,75180,6,0,P|212:360|120:360,1,135,4|8,0:0|0:0,0:0:0
168,292,76028,2,0,P|132:272|120:180,2,135,2|4|8,0:0|0:0|0:0,0:0:0
232,244,77384,2,0,P|264:204|356:192,1,135,2|0,0:0|0:0,0:0:0
376,208,78062,6,0,P|364:144|400:84,1,135,4|0,0:0|0:0,0:0:0
432,96,78740,2,0,P|336:64,1,90,2|8,0:0|0:0,0:0:0
268,52,79418,6,0,P|276:12|268:-12,2,67.5,2|8|8,0:0|0:0|0:0,0:0:0
236,76,80096,2,0,P|192:128|204:196,1,135,2|0,0:0|0:0,0:0:0
236,208,80774,6,0,P|280:204|336:228,1,90,4|8,0:0|0:0,0:0:0
364,220,81282,2,0,P|368:296|320:356,1,135,4|8,0:0|0:0,0:0:0
300,360,81960,6,0,P|332:312|424:296,1,135,4|0,0:0|0:0,0:0:0
480,304,82807,2,0,P|504:372,2,67.5,4|10|4,0:0|0:0|0:0,0:0:0
464,188,83824,6,4,P|448:216|304:240,1,180,4|8,0:0|0:0,0:0:0
256,200,84841,6,2,P|224:240|208:296,1,90,2|8,0:0|0:0,0:0:0
132,276,85519,2,0,P|96:312|16:308,2,135,2|4|8,0:0|0:0|0:0,0:0:0
