osu file format v11

[General]
AudioFilename: ろーれらいのうた.mp3
AudioLeadIn: 1456
PreviewTime: 71790
Countdown: 0
SampleSet: Soft
StackLeniency: 0.7
Mode: 0
LetterboxInBreaks: 0

[Editor]
Bookmarks: 17045
DistanceSpacing: 1
BeatDivisor: 4
GridSize: 4

[Metadata]
Title:Lorelei no Uta
TitleUnicode:Lorelei no Uta
Artist:Lia
ArtistUnicode:Lia
Creator:terametis
Version:Insane
Source:
Tags:
BeatmapID:200154
BeatmapSetID:69379

[Difficulty]
HPDrainRate:7
CircleSize:4
OverallDifficulty:7
ApproachRate:9
SliderMultiplier:1.7
SliderTickRate:1

[Events]
//Background and Video events
0,0,"ぬふぬふあ.jpg"
//Break Periods
//Storyboard Layer 0 (Background)
//Storyboard Layer 1 (Fail)
//Storyboard Layer 2 (Pass)
//Storyboard Layer 3 (Foreground)
//Storyboard Sound Samples
//Background Colour Transformations
3,100,163,162,255

[TimingPoints]
774,338.983050847458,4,2,1,70,1,0
3485,-133.333333333333,4,2,1,70,0,0
6282,-133.333333333333,4,2,1,25,0,0
8231,-133.333333333333,4,2,1,70,0,0
11706,-133.333333333333,4,2,1,25,0,0
13655,-133.333333333333,4,2,1,70,0,0
17129,-133.333333333333,4,2,1,25,0,0
19418,-133.333333333333,4,2,1,70,0,0
21112,-133.333333333333,4,2,1,100,0,0
21282,-133.333333333333,4,2,1,70,0,0
21790,-117.647058823529,4,2,1,70,0,0
22129,-80,4,2,1,70,0,0
22468,-86.9565217391304,4,2,1,75,0,0
64841,-86.9565217391304,4,2,1,82,0,0
72638,-66.6666666666667,4,2,1,90,0,1
75180,-80,4,2,1,90,0,1
102468,-80,4,2,1,90,0,0
151282,-66.6666666666667,4,2,1,90,0,1
153824,-80,4,2,1,90,0,1
178401,-80,4,2,1,90,0,0
178485,-80,4,2,1,25,0,0

[Colours]
Combo1 : 128,255,255
Combo2 : 0,128,255
Combo3 : 0,0,255

[HitObjects]
96,80,774,1,2,0:0:0
148,140,1112,1,0,0:0:0
176,68,1451,1,0,0:0:0
148,140,1790,1,0,0:0:0
212,256,2129,5,2,0:0:0
256,192,2468,1,0,0:0:0
300,256,2807,1,0,0:0:0
256,192,3146,1,0,0:0:0
336,68,3485,5,2,0:0:0
256,232,4502,1,0,0:0:0
256,232,4841,1,2,0:0:0
176,68,5858,1,0,0:0:0
176,68,6197,1,2,0:0:0
256,192,6282,12,0,8231,0:0:0
196,268,8570,6,0,P|256:292|311:268,1,127.500004863739,0|2,0:0|0:0,0:0:0
420,136,9926,2,0,P|368:100|304:108,1,127.500004863739,0|2,0:0|0:0,0:0:0
92,136,11282,2,0,P|144:100|208:108,1,127.500004863739,0|2,0:0|0:0,0:0:0
256,192,11706,12,0,13655,0:0:0
116,236,14333,5,2,0:0:0
256,148,15350,1,0,0:0:0
256,148,15689,1,2,0:0:0
396,236,16706,1,0,0:0:0
396,236,17045,1,2,0:0:0
256,192,17129,12,0,19417,0:0:0
160,112,19757,6,0,P|192:180|128:268,1,191.250007295609,4|8,0:0|0:0,0:0:0
44,296,20435,5,0,0:0:0
80,216,20604,1,8,0:0:0
160,176,20774,1,8,0:0:0
248,188,20943,1,0,0:0:0
308,248,21112,5,2,0:0:0
316,112,21282,1,8,0:0:0
316,112,21367,1,8,0:0:0
316,112,21451,1,8,0:0:0
432,184,21621,1,0,0:0:0
308,248,21790,6,0,P|256:280|196:280,1,108.375002067089,8|0,0:0|0:0,0:0:0
176,272,22129,6,0,P|292:264|348:336,1,212.5,8|4,0:0|0:0,0:0:0
240,348,22638,1,0,0:0:0
308,248,22807,2,0,P|312:196|276:136,1,97.7500018644333,10|0,0:0|0:0,0:0:0
168,104,23146,1,0,0:0:0
184,236,23316,1,0,0:0:0
328,296,23485,1,10,0:0:0
464,228,23655,1,0,0:0:0
360,52,23824,6,0,P|324:92|308:144,1,97.7500018644333,2|0,0:0|0:0,0:0:0
400,280,24163,1,10,0:0:0
240,348,24333,1,0,0:0:0
56,276,24502,5,0,0:0:0
224,200,24672,1,10,0:0:0
132,40,24841,1,10,0:0:0
360,52,25011,6,0,P|336:132|368:252,1,195.500003728867,4|0,0:0|0:0,0:0:0
448,108,25519,2,0,P|440:8,1,97.7500018644333,10|0,0:0|0:0,0:0:0
376,192,25858,2,0,P|344:300,1,97.7500018644333,0|0,0:0|0:0,0:0:0
276,96,26197,1,10,0:0:0
472,196,26367,6,0,P|384:232|264:248,1,195.500003728867,4|0,0:0|0:0,0:0:0
144,300,26875,2,0,P|200:244|228:208,1,97.7500018644333,10|0,0:0|0:0,0:0:0
44,180,27214,2,0,P|112:196|160:188,1,97.7500018644333,0|10,0:0|0:0,0:0:0
204,72,27553,1,10,0:0:0
372,104,27723,6,0,P|392:164|352:288,1,195.500003728867,4|0,0:0|0:0,0:0:0
208,332,28231,1,10,0:0:0
276,200,28401,1,0,0:0:0
424,200,28570,5,0,0:0:0
308,364,28740,1,0,0:0:0
164,228,28909,1,10,0:0:0
412,308,29079,6,0,P|312:288|216:320,1,195.500003728867,4|0,0:0|0:0,0:0:0
80,344,29587,2,0,P|128:316|148:276,1,97.7500018644333,10|0,0:0|0:0,0:0:0
136,104,29926,5,8,0:0:0
348,92,30096,1,2,0:0:0
328,288,30265,1,8,0:0:0
216,60,30435,1,0,0:0:0
484,96,30604,5,4,0:0:0
256,232,30774,1,0,0:0:0
256,232,30858,1,0,0:0:0
256,232,30943,1,8,0:0:0
48,128,31112,1,4,0:0:0
88,284,31451,1,8,0:0:0
208,172,31790,1,4,0:0:0
256,324,32129,5,0,0:0:0
336,276,32299,2,0,P|344:328|360:372,1,97.7500018644333,0|2,0:0|0:0,0:0:0
432,280,32638,1,0,0:0:0
412,188,32807,1,0,0:0:0
336,40,32977,2,0,P|324:100|320:144,1,97.7500018644333,0|2,0:0|0:0,0:0:0
428,44,33316,5,0,0:0:0
232,112,33485,1,2,0:0:0
232,112,33570,1,2,0:0:0
232,112,33655,1,0,0:0:0
388,248,33824,1,2,0:0:0
388,248,33909,1,2,0:0:0
388,248,33994,1,0,0:0:0
192,308,34163,1,2,0:0:0
136,292,34248,1,0,0:0:0
76,292,34333,5,0,0:0:0
108,340,34418,1,0,0:0:0
136,292,34502,1,0,0:0:0
144,236,34587,1,0,0:0:0
136,180,34672,5,6,0:0:0
40,112,34841,1,0,0:0:0
156,48,35011,2,0,P|208:40|260:48,1,97.7500018644333,8|0,0:0|0:0,0:0:0
352,168,35350,1,2,0:0:0
352,168,35519,1,0,0:0:0
488,44,35689,2,0,P|508:92|508:140,1,97.7500018644333,8|0,0:0|0:0,0:0:0
428,320,36028,6,0,P|424:260|440:224,1,97.7500018644333,2|0,0:0|0:0,0:0:0
236,320,36367,2,0,P|280:292|332:288,1,97.7500018644333,8|0,0:0|0:0,0:0:0
48,252,36706,2,0,P|112:272|148:336,1,97.7500018644333,2|0,0:0|0:0,0:0:0
80,60,37045,2,0,P|112:116|112:160,1,97.7500018644333,8|0,0:0|0:0,0:0:0
4,136,37384,5,2,0:0:0
4,136,37553,1,0,0:0:0
176,220,37723,1,8,0:0:0
176,220,37892,1,0,0:0:0
236,40,38062,1,2,0:0:0
236,40,38231,1,0,0:0:0
396,144,38401,1,8,0:0:0
396,144,38570,1,0,0:0:0
424,336,38740,6,0,P|440:264|444:236,1,97.7500018644333,2|0,0:0|0:0,0:0:0
336,128,39079,2,0,P|320:196|312:240,1,97.7500018644333,8|0,0:0|0:0,0:0:0
168,340,39418,2,0,P|184:268|188:240,1,97.7500018644333,2|0,0:0|0:0,0:0:0
72,276,39757,1,8,0:0:0
216,284,39926,6,0,P|212:204|224:84,1,195.500003728867,4|0,0:0|0:0,0:0:0
168,124,40435,2,0,P|168:60|160:16,1,97.7500018644333,8|0,0:0|0:0,0:0:0
56,176,40774,1,2,0:0:0
200,240,40943,1,0,0:0:0
316,124,41112,1,8,0:0:0
448,64,41282,6,0,P|456:136|436:256,1,195.500003728867,4|0,0:0|0:0,0:0:0
360,344,41790,2,0,P|356:292|360:244,1,97.7500018644333,8|0,0:0|0:0,0:0:0
264,332,42129,1,2,0:0:0
96,224,42299,1,0,0:0:0
268,132,42468,1,8,0:0:0
152,312,42638,6,4,P|152:252|120:120,1,195.500003728867,4|10,0:0|0:0,0:0:0
60,92,43061,1,0,0:0:0
60,92,43146,2,0,P|116:60|164:44,1,97.7500018644333,8|0,0:0|0:0,0:0:0
232,100,43485,1,6,0:0:0
316,48,43655,1,8,0:0:0
316,48,43740,1,0,0:0:0
316,48,43824,1,0,0:0:0
408,108,43994,6,0,P|392:168|416:308,1,195.500003728867,4|10,0:0|0:0,0:0:0
456,344,44418,1,0,0:0:0
456,344,44502,2,0,P|384:336|328:340,1,97.7500018644333,8|0,0:0|0:0,0:0:0
256,296,44841,6,0,P|184:304|136:320,1,97.7500018644333,6|10,0:0|0:0,0:0:0
116,352,45350,6,4,P|104:272|108:156,1,195.500003728867,4|0,0:0|0:0,0:0:0
228,172,45858,1,8,0:0:0
240,64,46028,1,0,0:0:0
360,80,46197,2,0,P|420:92|464:88,1,97.7500018644333,2|0,0:0|0:0,0:0:0
352,196,46536,1,8,0:0:0
476,208,46706,6,0,P|452:300|388:384,1,195.500003728867,4|0,0:0|0:0,0:0:0
264,284,47214,2,0,P|352:276|392:284,1,97.7500018644333,8|0,0:0|0:0,0:0:0
160,332,47553,1,2,0:0:0
316,336,47723,1,0,0:0:0
60,244,47892,1,8,0:0:0
236,368,48062,6,0,P|280:312|296:188,1,195.500003728867,4|0,0:0|0:0,0:0:0
228,224,48570,1,8,0:0:0
296,44,48740,1,0,0:0:0
256,160,48909,1,2,0:0:0
296,44,49079,1,0,0:0:0
328,112,49248,1,8,0:0:0
296,44,49418,6,0,P|364:40|496:44,1,195.500003728867,4|0,0:0|0:0,0:0:0
328,112,49926,2,0,P|252:112|216:112,1,97.7500018644333,8|0,0:0|0:0,0:0:0
80,44,50265,1,2,0:0:0
28,196,50435,1,0,0:0:0
44,216,50519,1,0,0:0:0
60,236,50604,1,8,0:0:0
76,256,50689,1,0,0:0:0
92,276,50774,1,0,0:0:0
108,296,50858,1,0,0:0:0
120,332,50943,6,0,P|168:272|288:280,1,195.500003728867,4|8,0:0|0:0,0:0:0
220,360,51451,1,0,0:0:0
168,180,51621,6,0,P|240:168|280:168,1,97.7500018644333,2|0,0:0|0:0,0:0:0
468,288,51960,2,0,P|396:284|348:284,1,97.7500018644333,8|0,0:0|0:0,0:0:0
196,280,52299,5,4,0:0:0
192,60,52468,1,8,0:0:0
192,60,52553,1,8,0:0:0
192,60,52638,1,8,0:0:0
436,64,52807,1,0,0:0:0
312,192,52977,1,0,0:0:0
312,192,53062,1,8,0:0:0
312,192,53146,1,8,0:0:0
308,64,53316,1,0,0:0:0
308,64,53401,1,8,0:0:0
308,64,53485,1,8,0:0:0
308,64,53570,1,8,0:0:0
308,64,53655,5,4,0:0:0
384,140,53824,1,0,0:0:0
144,200,53994,1,8,0:0:0
252,32,54163,1,0,0:0:0
376,296,54333,1,2,0:0:0
208,148,54502,1,0,0:0:0
384,140,54672,1,8,0:0:0
272,232,54841,1,0,0:0:0
304,108,55011,5,4,0:0:0
440,224,55180,1,8,0:0:0
440,224,55265,1,8,0:0:0
440,224,55350,1,0,0:0:0
296,336,55519,1,0,0:0:0
24,316,55689,1,8,0:0:0
80,324,55774,1,8,0:0:0
128,336,55858,1,0,0:0:0
160,348,55943,1,0,0:0:0
188,368,56028,5,8,0:0:0
180,332,56112,1,8,0:0:0
188,280,56197,1,0,0:0:0
208,232,56282,1,0,0:0:0
240,192,56367,5,6,0:0:0
376,256,56536,1,0,0:0:0
376,256,56621,1,0,0:0:0
376,256,56706,1,8,0:0:0
448,120,56875,1,0,0:0:0
448,120,56960,1,0,0:0:0
448,120,57045,1,10,0:0:0
308,56,57214,1,0,0:0:0
308,56,57299,1,0,0:0:0
308,56,57384,1,8,0:0:0
112,72,57553,1,0,0:0:0
112,104,57638,1,0,0:0:0
68,136,57723,5,14,0:0:0
92,180,57807,1,0,0:0:0
116,224,57892,1,0,0:0:0
140,268,57977,1,0,0:0:0
132,324,58062,6,0,P|180:312,3,48.8750009322167,8|0|0|0,0:0|0:0|0:0|0:0,0:0:0
216,344,58401,2,0,P|252:296,3,48.8750009322167,8|0|0|0,0:0|0:0|0:0|0:0,0:0:0
296,312,58740,1,0,0:0:0
296,312,58824,1,0,0:0:0
296,312,58909,1,0,0:0:0
296,312,58994,1,0,0:0:0
428,56,59418,6,0,P|392:148|408:252,1,195.500003728867,4|8,0:0|0:0,0:0:0
476,144,59926,1,0,0:0:0
476,144,60096,1,0,0:0:0
300,44,60265,1,6,0:0:0
36,152,60604,5,0,0:0:0
36,152,60774,1,8,0:0:0
108,252,60943,2,0,P|176:248|300:212,1,195.500003728867,2|0,0:0|0:0,0:0:0
312,96,61451,1,8,0:0:0
312,96,61621,1,0,0:0:0
160,160,61790,5,4,0:0:0
292,256,61960,1,0,0:0:0
292,256,62045,1,0,0:0:0
292,256,62129,1,8,0:0:0
188,40,62299,5,4,0:0:0
160,160,62638,1,0,0:0:0
132,280,62977,1,6,0:0:0
280,360,63316,5,0,0:0:0
352,308,63485,2,0,P|296:228,1,97.7500018644333,8|0,0:0|0:0,0:0:0
360,100,63824,1,2,0:0:0
360,100,63994,1,0,0:0:0
456,80,64163,2,0,P|468:184,1,97.7500018644333,8|0,0:0|0:0,0:0:0
400,364,64841,6,0,P|388:272|372:156,1,195.500003728867,4|2,0:0|0:0,0:0:0
288,280,65350,2,0,P|288:216|280:160,1,97.7500018644333,0|8,0:0|0:0,0:0:0
200,20,65689,6,0,P|192:96|192:220,1,195.500003728867,4|0,0:0|0:0,0:0:0
104,328,66197,2,0,P|112:272|108:224,1,97.7500018644333,8|0,0:0|0:0,0:0:0
60,120,66536,1,2,0:0:0
208,348,66706,1,0,0:0:0
220,328,66790,1,0,0:0:0
232,308,66875,2,0,P|264:256,3,48.8750009322167,8|0|0|0,0:0|0:0|0:0|0:0,0:0:0
304,268,67214,6,0,P|264:184|308:80,1,195.500003728867,4|8,0:0|0:0,0:0:0
424,72,67723,1,0,0:0:0
328,184,67892,5,2,0:0:0
164,88,68062,1,0,0:0:0
164,88,68146,1,0,0:0:0
164,88,68231,1,8,0:0:0
148,264,68401,1,4,0:0:0
244,220,68570,5,2,0:0:0
144,160,68740,1,0,0:0:0
52,224,68909,1,8,0:0:0
72,336,69079,1,0,0:0:0
280,348,69248,5,4,0:0:0
416,232,69418,1,0,0:0:0
416,232,69502,1,0,0:0:0
416,232,69587,1,8,0:0:0
156,356,69757,1,8,0:0:0
184,316,70265,5,4,0:0:0
96,228,70604,2,0,P|120:128,1,97.7500018644333,0|4,0:0|0:0,0:0:0
248,52,71112,1,0,0:0:0
368,60,71282,5,4,0:0:0
348,108,71367,1,0,0:0:0
328,152,71451,1,0,0:0:0
308,196,71536,1,0,0:0:0
320,248,71621,6,0,P|252:264,3,48.8750009322167,4|0|0|0,0:0|0:0|0:0|0:0,0:0:0
252,304,71960,1,12,0:0:0
208,300,72045,1,0,0:0:0
160,292,72129,2,0,P|196:244|72:168,1,244.375004661083,8|0,0:0|0:0,0:0:0
28,188,72638,6,0,P|92:196|272:108,1,255.000009727478,12|10,0:0|0:0,0:0:0
156,60,73146,1,0,0:0:0
120,288,73316,2,0,P|196:312|252:308,1,127.500004863739,2|0,0:0|0:0,0:0:0
448,328,73655,2,0,P|464:252|452:196,1,127.500004863739,8|0,0:0|0:0,0:0:0
420,32,73994,5,2,0:0:0
272,176,74163,1,0,0:0:0
488,128,74333,1,8,0:0:0
296,56,74502,1,0,0:0:0
408,232,74672,5,2,0:0:0
248,364,74841,1,2,0:0:0
212,104,75011,1,8,0:0:0
320,324,75180,6,0,P|200:320|108:248,1,212.5,4|0,0:0|0:0,0:0:0
112,96,75689,1,8,0:0:0
296,88,75858,1,0,0:0:0
200,208,76028,1,2,0:0:0
204,40,76197,1,2,0:0:0
384,36,76367,1,8,0:0:0
388,212,76536,6,0,P|280:208|184:256,1,212.5,4|0,0:0|0:0,0:0:0
152,340,77045,1,8,0:0:0
152,340,77214,1,0,0:0:0
68,300,77384,1,2,0:0:0
256,320,77553,1,8,0:0:0
264,288,77638,1,0,0:0:0
276,256,77723,1,8,0:0:0
288,224,77807,1,0,0:0:0
300,192,77892,1,0,0:0:0
312,160,77977,1,0,0:0:0
344,136,78062,6,0,P|252:116|176:52,1,159.375,4|0,0:0|0:0,0:0:0
196,40,78401,2,0,P|88:60|68:68,1,106.25,8|0,0:0|0:0,0:0:0
108,184,78740,1,2,0:0:0
232,176,78909,1,0,0:0:0
320,52,79079,2,0,P|380:44|440:40,1,106.25,8|0,0:0|0:0,0:0:0
488,184,79418,5,2,0:0:0
372,320,79587,2,0,P|368:248|372:200,1,106.25,0|8,0:0|0:0,0:0:0
496,344,79926,1,0,0:0:0
416,144,80096,5,2,0:0:0
252,304,80265,1,0,0:0:0
160,92,80435,1,8,0:0:0
316,216,80604,5,0,0:0:0
316,216,80689,1,0,0:0:0
316,216,80774,1,4,0:0:0
112,216,80943,2,0,P|104:272|104:328,1,106.25,0|8,0:0|0:0,0:0:0
248,356,81282,2,0,P|268:264|256:144,1,212.5,6|8,0:0|0:0,0:0:0
44,144,81790,1,8,0:0:0
36,348,81960,5,4,0:0:0
424,352,82299,2,8,P|420:304|404:248,1,106.25
456,88,82638,1,8,0:0:0
432,256,82807,5,0,0:0:0
400,244,82892,1,8,0:0:0
368,232,82977,1,0,0:0:0
336,220,83062,1,0,0:0:0
296,160,83146,5,8,0:0:0
280,212,83231,1,8,0:0:0
264,264,83316,1,0,0:0:0
248,316,83401,2,0,P|224:260|68:256,1,212.5,0|0,0:0|0:0,0:0:0
48,288,83824,6,0,P|64:168,1,106.25,12|0,0:0|0:0,0:0:0
48,68,84163,1,2,0:0:0
148,328,84333,1,0,0:0:0
196,112,84502,2,0,P|208:220,1,106.25,8|0,0:0|0:0,0:0:0
340,324,84841,6,0,P|392:308|456:288,1,106.25,2|0,0:0|0:0,0:0:0
400,124,85180,1,8,0:0:0
216,148,85350,1,0,0:0:0
228,320,85519,1,2,0:0:0
40,332,85689,2,0,P|28:264|28:216,1,106.25,0|8,0:0|0:0,0:0:0
80,68,86028,6,0,P|160:56|296:56,1,212.5,4|0,0:0|0:0,0:0:0
464,156,86536,2,0,P|352:152,1,106.25,8|0,0:0|0:0,0:0:0
148,256,86875,5,2,0:0:0
340,324,87045,1,0,0:0:0
500,200,87214,1,8,0:0:0
216,328,87384,6,0,P|132:348|48:252,1,212.5,4|8,0:0|0:0,0:0:0
76,104,87892,1,8,0:0:0
256,120,88062,1,0,0:0:0
280,312,88231,1,10,0:0:0
336,320,88316,1,8,0:0:0
384,332,88400,1,0,0:0:0
416,344,88485,1,0,0:0:0
444,364,88570,5,8,0:0:0
484,320,88654,1,8,0:0:0
496,260,88739,1,0,0:0:0
484,200,88824,1,0,0:0:0
444,156,88909,5,6,0:0:0
424,164,88994,1,0,0:0:0
404,172,89079,1,0,0:0:0
384,180,89163,1,0,0:0:0
364,188,89248,6,0,P|320:148|176:160,1,212.5,8|2,0:0|0:0,0:0:0
136,312,89757,2,0,P|104:268|84:216,1,106.25,0|8,0:0|0:0,0:0:0
256,276,90096,1,0,0:0:0
428,220,90265,5,4,0:0:0
360,56,90435,1,0,0:0:0
360,56,90519,1,0,0:0:0
360,56,90604,1,8,0:0:0
208,112,90774,1,0,0:0:0
180,96,90858,1,0,0:0:0
136,48,90943,5,8,0:0:0
132,104,91028,1,0,0:0:0
116,156,91112,1,0,0:0:0
84,196,91197,1,8,0:0:0
24,228,91282,5,8,0:0:0
76,192,91367,1,8,0:0:0
140,180,91451,1,0,0:0:0
200,184,91536,1,0,0:0:0
255,202,91621,6,0,P|219:274|211:334,1,106.25,4|0,0:0|0:0,0:0:0
392,368,91960,2,0,P|428:296|456:180,1,159.375,8|8,0:0|0:0,0:0:0
472,180,92299,6,0,P|408:144|336:104,1,106.25
232,188,92638,1,8,0:0:0
232,188,92723,1,8,0:0:0
232,188,92807,1,0,0:0:0
268,40,92977,5,4,0:0:0
424,76,93146,1,8,0:0:0
428,104,93231,1,8,0:0:0
472,120,93316,5,8,0:0:0
460,156,93401,1,8,0:0:0
448,192,93485,1,8,0:0:0
436,228,93570,1,8,0:0:0
452,256,93655,5,8,0:0:0
416,272,93740,1,8,0:0:0
380,280,93824,1,0,0:0:0
344,288,93909,1,8,0:0:0
328,324,93994,5,8,0:0:0
292,316,94079,1,8,0:0:0
256,304,94163,1,0,0:0:0
220,292,94248,1,8,0:0:0
184,280,94333,1,12,0:0:0
256,192,94418,12,4,95689,0:0:0
84,120,95858,5,8,0:0:0
84,120,95943,1,8,0:0:0
84,120,96028,1,8,0:0:0
56,256,96197,5,8,0:0:0
92,272,96282,1,8,0:0:0
108,320,96367,5,2,0:0:0
144,296,96451,1,8,0:0:0
184,276,96536,1,8,0:0:0
224,264,96621,1,0,0:0:0
276,280,96706,5,8,0:0:0
292,232,96790,1,8,0:0:0
304,188,96875,1,8,0:0:0
316,148,96960,1,8,0:0:0
328,104,97045,5,12,0:0:0
472,192,97214,1,0,0:0:0
472,192,97299,1,0,0:0:0
472,192,97384,6,0,P|392:216|376:356,1,212.5,12|0,0:0|0:0,0:0:0
472,308,97892,1,0,0:0:0
456,92,98062,1,8,0:0:0
228,112,98231,1,0,0:0:0
228,320,98401,6,0,P|300:328|344:320,1,106.25,4|0,0:0|0:0,0:0:0
228,112,98740,2,0,P|176:104|120:104,1,106.25,8|0,0:0|0:0,0:0:0
44,312,99079,1,6,0:0:0
228,320,99248,1,8,0:0:0
252,284,99333,1,8,0:0:0
276,248,99418,1,8,0:0:0
300,212,99502,1,8,0:0:0
356,220,99587,5,8,0:0:0
352,176,99672,1,8,0:0:0
344,132,99757,1,12,0:0:0
256,192,99841,12,2,102468,0:0:0
120,120,102807,5,0,0:0:0
120,120,102977,1,8,0:0:0
376,192,103316,1,0,0:0:0
376,192,103485,1,12,0:0:0
208,44,103824,1,0,0:0:0
208,44,103994,1,8,0:0:0
152,300,104333,1,0,0:0:0
240,300,104502,6,0,P|240:220|248:180,1,106.25,8|0,0:0|0:0,0:0:0
344,72,104841,2,0,P|412:68|464:72,1,106.25,8|0,0:0|0:0,0:0:0
512,208,105180,6,0,P|424:228|304:208,1,212.5,4|10,0:0|0:0,0:0:0
84,332,105858,1,2,0:0:0
144,216,106028,1,0,0:0:0
104,352,106197,1,10,0:0:0
360,56,106536,5,2,0:0:0
376,152,106706,1,0,0:0:0
360,56,106875,1,8,0:0:0
336,224,107045,1,0,0:0:0
360,56,107214,1,2,0:0:0
288,288,107384,1,0,0:0:0
360,56,107553,2,0,P|312:108|312:108|240:152|152:96,1,212.5,8|2,0:0|0:0,0:0:0
52,136,108062,5,0,0:0:0
244,28,108231,1,10,0:0:0
216,228,108570,5,2,0:0:0
120,48,108740,1,0,0:0:0
216,228,108909,2,0,P|224:280|228:336,1,106.25,10|0,0:0|0:0,0:0:0
304,224,109248,6,0,P|364:216|412:220,1,106.25,2|0,0:0|0:0,0:0:0
152,340,109587,2,0,P|92:348|44:344,1,106.25,10|0,0:0|0:0,0:0:0
40,152,109926,1,2,0:0:0
224,144,110096,1,0,0:0:0
280,340,110265,2,0,P|336:344|388:344,1,106.25,8|0,0:0|0:0,0:0:0
372,76,110774,5,12,0:0:0
276,224,110943,1,8,0:0:0
292,36,111282,5,12,0:0:0
328,256,111451,1,8,0:0:0
204,36,111790,5,12,0:0:0
88,196,112129,2,0,P|36:220|-4:256,2,106.25,8|8|0,0:0|0:0|0:0,0:0:0
144,288,112638,5,2,0:0:0
176,144,112807,1,0,0:0:0
248,336,112977,1,8,0:0:0
56,340,113146,1,0,0:0:0
272,216,113316,5,4,0:0:0
452,348,113655,1,8,0:0:0
472,128,113994,1,0,0:0:0
472,128,114163,1,8,0:0:0
340,312,114502,1,4,0:0:0
240,108,114841,1,0,0:0:0
240,108,115011,1,8,0:0:0
84,280,115350,1,8,0:0:0
84,280,115519,1,8,0:0:0
348,184,115858,5,4,0:0:0
180,344,116367,1,8,0:0:0
180,344,116536,1,0,0:0:0
84,280,116706,2,0,P|72:208|80:152,1,106.25,0|8,0:0|0:0,0:0:0
184,84,117045,2,0,P|240:64|296:64,1,106.25,8|4,0:0|0:0,0:0:0
468,252,117553,5,8,0:0:0
468,252,117723,2,0,P|416:260|340:260,1,106.25,8|0,0:0|0:0,0:0:0
260,344,118062,1,0,0:0:0
276,184,118231,1,8,0:0:0
348,348,118570,5,4,0:0:0
424,80,118909,1,0,0:0:0
344,144,119079,2,0,P|280:132|236:112,1,106.25,8|0,0:0|0:0,0:0:0
136,52,119418,2,0,P|160:112|60:208,1,212.5,8|0,0:0|0:0,0:0:0
40,104,119926,1,4,0:0:0
204,352,120265,5,0,0:0:0
272,260,120435,2,0,P|324:264|376:284,1,106.25,8|0,0:0|0:0,0:0:0
464,360,120774,1,2,0:0:0
484,320,120858,1,0,0:0:0
492,276,120943,1,0,0:0:0
492,232,121028,1,0,0:0:0
488,188,121112,1,8,0:0:0
404,104,121282,6,0,P|312:128|184:116,1,212.5,4|8,0:0|0:0,0:0:0
128,88,121705,1,0,0:0:0
128,88,121790,2,0,P|108:204,1,106.25,10|0,0:0|0:0,0:0:0
24,312,122129,1,6,0:0:0
192,344,122299,1,8,0:0:0
192,344,122384,1,0,0:0:0
192,344,122468,1,0,0:0:0
224,160,122638,6,4,P|308:148|436:172,1,212.5,4|8,0:0|0:0,0:0:0
476,236,123062,1,0,0:0:0
476,236,123146,2,0,P|464:292|452:348,1,106.25,8|0,0:0|0:0,0:0:0
352,364,123485,1,6,0:0:0
324,128,123655,1,8,0:0:0
224,68,123994,6,0,P|232:132|192:280,1,212.5,4|0,0:0|0:0,0:0:0
72,352,124502,2,0,P|68:296|72:232,1,106.25,8|0,0:0|0:0,0:0:0
208,144,124841,1,2,0:0:0
236,296,125011,1,0,0:0:0
396,268,125180,1,8,0:0:0
368,96,125350,6,0,P|288:76|156:88,1,212.5,4|0,0:0|0:0,0:0:0
32,56,125858,2,0,P|24:116|24:168,1,106.25,8|0,0:0|0:0,0:0:0
120,324,126197,1,2,0:0:0
120,168,126367,1,0,0:0:0
288,160,126536,1,8,0:0:0
296,336,126706,6,0,P|236:360|56:368,1,212.5,4|0,0:0|0:0,0:0:0
20,256,127214,2,0,P|16:196|20:136,1,106.25,8|0,0:0|0:0,0:0:0
136,40,127553,1,2,0:0:0
184,180,127723,1,0,0:0:0
132,320,127892,1,8,0:0:0
212,96,128062,6,0,P|332:108|444:140,1,212.5,4|0,0:0|0:0,0:0:0
452,240,128570,2,0,P|400:236|336:212,1,106.25,8|0,0:0|0:0,0:0:0
208,200,128909,1,2,0:0:0
196,348,129079,1,0,0:0:0
224,344,129163,1,0,0:0:0
252,340,129248,1,8,0:0:0
280,336,129333,1,0,0:0:0
308,332,129418,1,0,0:0:0
336,328,129502,1,0,0:0:0
384,344,129587,6,0,P|368:276|388:136,1,212.5,4|8,0:0|0:0,0:0:0
480,76,130096,1,0,0:0:0
288,196,130265,2,0,P|288:136|272:80,1,106.25,2|0,0:0|0:0,0:0:0
160,336,130604,2,0,P|200:276|208:208,1,106.25,8|0,0:0|0:0,0:0:0
72,252,130943,5,4,0:0:0
252,364,131112,1,8,0:0:0
252,364,131197,1,8,0:0:0
252,364,131282,1,8,0:0:0
360,180,131451,1,0,0:0:0
448,344,131621,1,0,0:0:0
448,344,131706,1,8,0:0:0
448,344,131790,1,8,0:0:0
188,188,131960,1,0,0:0:0
188,188,132045,1,8,0:0:0
188,188,132129,1,8,0:0:0
188,188,132214,1,8,0:0:0
188,188,132299,6,0,P|164:240|132:280,1,106.25,4|0,0:0|0:0,0:0:0
176,84,132638,2,0,P|228:76|284:80,1,106.25,8|0,0:0|0:0,0:0:0
200,308,132977,2,0,P|148:336|84:348,1,106.25,2|0,0:0|0:0,0:0:0
348,36,133316,2,0,P|408:60|444:80,1,106.25,8|0,0:0|0:0,0:0:0
468,268,133655,5,4,0:0:0
344,124,133824,1,8,0:0:0
348,148,133909,1,0,0:0:0
352,172,133994,1,0,0:0:0
344,360,134163,1,0,0:0:0
216,156,134333,1,8,0:0:0
212,184,134418,1,0,0:0:0
208,208,134502,1,0,0:0:0
86,330,134672,1,8,0:0:0
106,318,134757,1,0,0:0:0
126,306,134841,1,0,0:0:0
146,294,134926,1,0,0:0:0
167,284,135011,6,0,P|207:328,3,53.125,4|0|0|0,0:0|0:0|0:0|0:0,0:0:0
267,270,135350,2,0,P|339:250,3,53.125,8|0|0|0,0:0|0:0|0:0|0:0,0:0:0
387,314,135689,2,0,P|407:255,3,53.125,8|0|0|0,0:0|0:0|0:0|0:0,0:0:0
495,267,136028,2,0,P|479:207,3,53.125,8|0|0|0,0:0|0:0|0:0|0:0,0:0:0
476,37,136367,5,8,0:0:0
401,137,136536,1,0,0:0:0
377,125,136621,1,0,0:0:0
349,81,136706,5,8,0:0:0
341,105,136790,1,0,0:0:0
333,129,136875,1,0,0:0:0
325,153,136960,1,0,0:0:0
333,205,137045,6,0,P|273:225,3,53.125,8|0|0|0,0:0|0:0|0:0|0:0,0:0:0
213,294,137384,2,0,P|145:282,3,53.125,8|0|0|0,0:0|0:0|0:0|0:0,0:0:0
64,64,138062,6,0,P|76:144|48:276,1,212.5,4|8,0:0|0:0,0:0:0
0,144,138570,1,0,0:0:0
128,336,138740,1,0,0:0:0
172,56,138909,6,0,P|272:48|388:56,1,212.5,6|0,0:0|0:0,0:0:0
200,152,139418,2,0,P|144:160|88:152,1,106.25,8|0,0:0|0:0,0:0:0
252,316,139757,1,0,0:0:0
344,256,139926,2,0,P|388:296|424:340,1,106.25,0|8,0:0|0:0,0:0:0
512,260,140265,1,0,0:0:0
372,152,140435,5,4,0:0:0
276,352,140604,1,0,0:0:0
276,352,140689,1,0,0:0:0
276,352,140774,1,8,0:0:0
144,212,140943,5,4,0:0:0
72,296,141282,1,8,0:0:0
36,196,141621,1,4,0:0:0
272,340,141960,5,0,0:0:0
384,304,142129,2,0,P|400:240|400:196,1,106.25,8|0,0:0|0:0,0:0:0
280,56,142468,1,0,0:0:0
280,56,142638,1,0,0:0:0
204,120,142807,2,0,P|132:120|80:100,1,106.25,8|0,0:0|0:0,0:0:0
104,308,143485,6,0,P|200:304|320:312,1,212.5,4|2,0:0|0:0,0:0:0
456,244,143994,2,0,P|388:236|340:228,1,106.25,0|8,0:0|0:0,0:0:0
472,336,144333,1,6,0:0:0
392,48,144672,5,0,0:0:0
236,76,144841,2,0,P|296:100|352:108,1,106.25,8|0,0:0|0:0,0:0:0
176,156,145180,1,2,0:0:0
56,104,145350,1,0,0:0:0
52,136,145435,1,0,0:0:0
4,168,145519,6,0,P|36:216,3,53.125,8|0|0|0,0:0|0:0|0:0|0:0,0:0:0
28,264,145858,6,0,P|124:240|236:288,1,212.5,4|8,0:0|0:0,0:0:0
120,372,146367,1,0,0:0:0
296,208,146536,1,2,0:0:0
492,348,146706,1,0,0:0:0
492,348,146790,1,0,0:0:0
492,348,146875,1,8,0:0:0
212,128,147045,1,4,0:0:0
248,248,147214,5,0,0:0:0
376,260,147384,1,0,0:0:0
436,148,147553,1,8,0:0:0
280,144,147723,1,0,0:0:0
200,328,147892,1,6,0:0:0
384,148,148062,1,0,0:0:0
384,148,148146,1,0,0:0:0
384,148,148231,1,8,0:0:0
68,336,148401,1,10,0:0:0
336,332,148909,5,12,0:0:0
440,264,149248,2,0,P|412:200|396:160,1,106.25,8|4,0:0|0:0,0:0:0
464,56,149757,1,8,0:0:0
368,60,149926,5,4,0:0:0
348,104,150011,1,0,0:0:0
280,212,150096,2,0,P|264:144,1,53.125,8|0,0:0|0:0,0:0:0
184,168,150265,2,0,P|188:116|200:68,1,53.125,8|0,0:0|0:0,0:0:0
104,100,150435,2,0,P|116:60|124:36,1,53.125,8|0,0:0|0:0,0:0:0
8,320,150604,6,0,P|0:384,1,53.125,4|0,0:0|0:0,0:0:0
76,264,150774,2,0,P|148:208|184:352,1,265.625,6|0,0:0|0:0,0:0:0
168,352,151282,6,0,P|288:372|420:328,1,255.000009727478,4|8,0:0|0:0,0:0:0
376,100,151790,1,0,0:0:0
492,192,151960,2,0,P|448:232|384:260,1,127.500004863739,2|0,0:0|0:0,0:0:0
272,364,152299,2,0,P|196:332|160:276,1,127.500004863739,8|0,0:0|0:0,0:0:0
184,104,152638,5,2,0:0:0
260,232,152807,2,0,P|324:200|372:156,1,127.500004863739,0|8,0:0|0:0,0:0:0
96,136,153146,1,0,0:0:0
364,244,153316,2,0,P|376:168|376:100,1,127.500004863739,2|0,0:0|0:0,0:0:0
256,36,153655,1,8,0:0:0
40,204,153824,6,4,P|136:224|256:196,1,212.5,4|0,0:0|0:0,0:0:0
100,308,154333,2,0,P|40:296|-16:304,1,106.25,8|0,0:0|0:0,0:0:0
316,304,154672,2,0,P|384:312|428:308,1,106.25,2|0,0:0|0:0,0:0:0
208,356,155011,1,8,0:0:0
304,112,155180,6,0,P|200:100|88:112,1,212.5,4|0,0:0|0:0,0:0:0
400,200,155689,1,8,0:0:0
400,200,155858,1,0,0:0:0
496,96,156028,1,2,0:0:0
288,200,156197,1,0,0:0:0
280,224,156282,1,0,0:0:0
268,248,156367,1,8,0:0:0
256,272,156451,1,0,0:0:0
244,296,156536,1,8,0:0:0
232,316,156621,1,0,0:0:0
208,344,156706,6,0,P|208:300|120:224,1,159.375,4|0,0:0|0:0,0:0:0
96,256,157045,2,0,P|92:168|100:108,1,106.25,8|0,0:0|0:0,0:0:0
36,320,157384,1,2,0:0:0
32,76,157553,1,0,0:0:0
272,76,157723,1,8,0:0:0
216,220,157892,1,0,0:0:0
44,156,158062,6,0,P|32:208|36:264,1,106.25,4|0,0:0|0:0,0:0:0
184,332,158401,2,0,P|240:368|308:376,1,106.25,8|0,0:0|0:0,0:0:0
456,280,158740,1,2,0:0:0
284,152,158909,1,0,0:0:0
404,360,159079,1,8,0:0:0
472,176,159248,1,0,0:0:0
472,176,159333,1,0,0:0:0
472,176,159418,5,4,0:0:0
280,272,159587,2,0,P|276:332|280:384,1,106.25,0|8,0:0|0:0,0:0:0
436,80,159926,1,6,0:0:0
220,236,160096,2,0,P|256:284|320:324,1,106.25,2|8,0:0|0:0,0:0:0
88,104,160435,1,8,0:0:0
360,320,160604,1,4,0:0:0
368,84,160943,5,8,0:0:0
256,104,161112,2,0,P|256:164|272:220,1,106.25,8|0,0:0|0:0,0:0:0
464,292,161451,5,8,0:0:0
424,264,161536,1,0,0:0:0
380,252,161621,1,0,0:0:0
332,244,161706,1,0,0:0:0
284,248,161790,1,8,0:0:0
240,264,161875,1,8,0:0:0
204,296,161960,2,0,P|148:244|0:336,1,265.625,10|0,0:0|0:0,0:0:0
24,360,162468,6,0,P|64:292|0:176,1,212.5,6|2,0:0|0:0,0:0:0
136,336,162977,1,0,0:0:0
244,172,163146,2,0,P|304:144|372:136,1,106.25,8|0,0:0|0:0,0:0:0
480,228,163485,5,2,0:0:0
352,356,163655,2,0,P|348:304|360:236,1,106.25,0|8,0:0|0:0,0:0:0
448,108,163994,1,0,0:0:0
440,336,164163,2,0,P|376:344|328:340,1,106.25,2|0,0:0|0:0,0:0:0
116,236,164502,1,8,0:0:0
208,368,164672,6,0,P|252:304|248:152,1,212.5,4|0,0:0|0:0,0:0:0
24,348,165180,2,0,P|80:328|144:328,1,106.25,8|0,0:0|0:0,0:0:0
336,364,165519,1,2,0:0:0
488,248,165689,1,0,0:0:0
472,60,165858,1,8,0:0:0
424,320,166028,6,0,P|312:368|196:360,1,212.5,4|0,0:0|0:0,0:0:0
360,260,166536,2,0,P|396:208|424:168,1,106.25,8|0,0:0|0:0,0:0:0
336,48,166875,1,2,0:0:0
192,72,167045,1,8,0:0:0
196,108,167129,1,0,0:0:0
248,136,167214,5,0,0:0:0
228,184,167299,1,8,0:0:0
208,232,167384,1,0,0:0:0
188,280,167468,1,0,0:0:0
208,316,167553,5,4,0:0:0
176,328,167638,1,0,0:0:0
144,336,167723,1,0,0:0:0
112,340,167807,1,0,0:0:0
80,336,167892,6,0,P|36:240|72:136,1,212.5,0|2,0:0|0:0,0:0:0
108,256,168401,2,0,P|84:304|16:356,1,106.25,0|8,0:0|0:0,0:0:0
172,184,168740,1,0,0:0:0
284,352,168909,5,4,0:0:0
480,256,169079,1,0,0:0:0
480,256,169163,1,0,0:0:0
480,256,169248,1,8,0:0:0
212,272,169418,5,0,0:0:0
260,268,169502,1,8,0:0:0
296,300,169587,5,0,0:0:0
304,260,169672,1,8,0:0:0
324,224,169757,1,0,0:0:0
348,192,169841,1,0,0:0:0
416,208,169927,5,8,0:0:0
396,148,170012,1,8,0:0:0
408,84,170096,1,8,0:0:0
452,36,170181,1,8,0:0:0
504,72,170265,6,0,P|456:96|372:112,1,106.25,4|0,0:0|0:0,0:0:0
240,48,170604,6,0,P|204:116|216:220,1,159.375,12|0,0:0|0:0,0:0:0
260,232,170943,2,0,P|228:280|184:320,1,106.25,8|0,0:0|0:0,0:0:0
48,336,171282,1,8,0:0:0
84,296,171367,1,0,0:0:0
132,280,171451,1,8,0:0:0
184,284,171536,1,0,0:0:0
236,312,171621,5,12,0:0:0
232,260,171706,1,8,0:0:0
228,208,171790,1,8,0:0:0
224,156,171875,1,8,0:0:0
176,124,171960,6,0,P|204:72,3,53.125,8|8|8|8,0:0|0:0|0:0|0:0,0:0:0
288,96,172299,2,0,P|276:36,3,53.125,8|8|8|8,0:0|0:0|0:0|0:0,0:0:0
384,40,172638,1,8,0:0:0
380,92,172723,1,8,0:0:0
376,144,172807,1,8,0:0:0
372,196,172892,1,8,0:0:0
368,248,172977,1,12,0:0:0
256,192,173062,12,12,174333,0:0:0
104,312,174502,5,8,0:0:0
104,312,174587,1,8,0:0:0
104,312,174672,1,8,0:0:0
32,228,174841,5,8,0:0:0
48,176,174926,1,8,0:0:0
36,116,175011,5,10,0:0:0
84,148,175096,1,8,0:0:0
140,160,175180,1,8,0:0:0
200,160,175265,1,8,0:0:0
248,200,175350,5,10,0:0:0
240,132,175435,1,8,0:0:0
252,64,175519,1,8,0:0:0
284,4,175604,1,8,0:0:0
328,56,175689,6,0,P|252:96|164:104,1,159.375,4|0,0:0|0:0,0:0:0
144,68,176028,2,0,P|144:168|144:196,1,106.25,12|0,0:0|0:0,0:0:0
208,320,176367,1,2,0:0:0
324,196,176536,2,0,P|312:104|312:80,1,106.25,0|8,0:0|0:0,0:0:0
496,120,176875,1,0,0:0:0
448,288,177045,6,0,P|412:340,3,53.125,12|8|8|8,0:0|0:0|0:0|0:0,0:0:0
324,196,177384,2,0,P|351:150,3,53.125,10|8|8|8,0:0|0:0|0:0|0:0,0:0:0
176,256,177723,2,0,P|140:308,3,53.125,12|8|8|8,0:0|0:0|0:0|0:0,0:0:0
44,348,178062,5,12,0:0:0
36,296,178146,1,8,0:0:0
28,244,178231,1,8,0:0:0
24,192,178316,1,8,0:0:0
16,140,178401,1,4,0:0:0
256,192,178485,12,6,182468,0:0:0
