osu file format v5

[General]
AudioFilename: Light colors.mp3
AudioLeadIn: 0
PreviewTime: -1
Countdown: 0
SampleSet: Soft
StackLeniency: 0.7
Mode: 0
LetterboxInBreaks: 1
EditorDistanceSpacing: 0.699999988079071

[Metadata]
Title:Light colors
Artist:Lia
Creator:azuki
Version:Normal
Source:Key Sound Lab
Tags:Tomoyo After

[Difficulty]
HPDrainRate:4
CircleSize:4
OverallDifficulty:6
SliderMultiplier:1.9
SliderTickRate:1

[Events]
//Background and Video events
1,0,"Light colors.flv"
0,0,"bg.png"
//Break Periods
2,65380,66799
2,92889,94695
//Storyboard Layer 0 (Background)
//Storyboard Layer 1 (Failing)
//Storyboard Layer 2 (Passing)
//Storyboard Layer 3 (Foreground)
//Storyboard Sound Samples
//Background Colour Transformations
3,100,163,162,255

[TimingPoints]
8415,458.015267175572,4,2,0,100,1,0
24216,-100,4,2,0,70,0,0
24903,-100,4,2,0,100,0,0
26048,-100,4,2,0,70,0,0
26735,-100,4,2,0,100,0,0
27880,-100,4,2,0,100,0,0
29712,-100,4,2,0,70,0,0
30399,-100,4,2,0,100,0,0
31544,-100,4,2,0,70,0,0
32231,-100,4,2,0,100,0,0
33376,-100,4,2,0,70,0,0
34063,-100,4,2,0,100,0,0
35208,-100,4,2,0,70,0,0
35766,-200,4,2,0,90,0,0
37727,-100,4,2,0,100,0,0
95776,-200,4,2,0,70,0,0
97498,-200,4,2,0,70,0,0
97727,-200,4,2,0,100,0,0
98873,-200,4,2,0,70,0,0
99102,-200,4,2,0,70,0,0
99789,-200,4,2,0,70,0,0
100018,-200,4,2,0,100,0,0
100476,-100,4,2,0,70,0,0
100934,-200,4,2,0,100,0,0
102531,-100,4,2,0,100,0,0
104598,-100,4,1,0,70,0,0
104827,-100,4,2,0,100,0,0
105514,-100,4,1,0,70,0,0
105743,-100,4,2,0,100,0,0
106430,-100,4,1,0,70,0,0
106659,-100,4,2,0,100,0,0
107346,-100,4,1,0,70,0,0
107575,-100,4,2,0,100,0,0
109178,-100,4,1,0,60,0,0
109407,-100,4,1,0,80,0,0
109636,-100,4,1,0,100,0,0
109850,-100,4,2,0,100,0,1
120628,-200,4,2,0,90,0,1
123949,-100,4,2,0,100,0,1
131392,-100,4,2,0,100,0,0
141468,-100,4,2,0,70,0,0
142155,-100,4,2,0,100,0,0
143300,-100,4,2,0,70,0,0
143987,-100,4,2,0,100,0,0
145132,-100,4,2,0,70,0,0
145819,-100,4,2,0,100,0,0
146964,-100,4,2,0,70,0,0
147651,-100,4,2,0,100,0,0
148796,-100,4,2,0,70,0,0
149483,-100,4,2,0,100,0,0
150628,-100,4,2,0,70,0,0
151315,-100,4,2,0,100,0,0
155208,-100,4,1,0,100,0,0

[Colours]
Combo1 : 245,137,232
Combo2 : 97,69,252
Combo3 : 187,137,248
Combo4 : 202,13,242

[HitObjects]
256,192,23071,1,2
256,192,23415,1,0
256,192,23758,1,2
384,224,24216,1,8
384,160,24445,1,8
360,32,24903,5,2
256,32,25247,1,0
152,32,25590,1,2
120,160,26048,2,0,B|64:256,1,95,8|8
160,344,26735,5,2
256,344,27079,1,0
352,344,27422,1,2
400,224,27880,2,0,B|456:128,1,95,8|8
328,88,28567,5,2
328,184,28911,1,0
328,280,29254,1,2
192,280,29712,2,0,B|136:280|136:192,1,95,8|8
136,80,30399,5,2
232,80,30743,1,0
328,80,31086,1,2
328,208,31544,2,0,B|328:264|240:264,1,95,8|8
128,264,32231,5,2
24,264,32575,1,0
80,176,32918,1,2
176,80,33376,2,0,B|232:40|288:104,2,95,8|0|8
208,136,34063,5,2
264,216,34407,1,0
320,296,34750,1,2
192,344,35208,2,0,B|144:384|96:336,1,95,8|8
208,256,35895,2,0,C|288:168,4,95,0|0|0|0|0
24,112,38414,6,0,B|120:40|200:24|288:40|376:120,1,380,2|2
416,64,39560,2,0,B|488:199|424:351,1,285,2|2
360,336,40476,2,0,B|360:284,2,47.5
296,336,40934,2,0,B|104:336,1,190
40,80,42308,6,2,B|104:48|184:88,1,142.5,2|0
288,88,42995,1,0
288,160,43224,2,2,B|224:208|152:160,1,142.5,2|2
40,160,43911,1,0
40,232,44140,2,2,B|104:280|176:232,1,142.5,2|2
288,232,44827,1,0
360,232,45056,1,0
472,56,45743,6,0,B|336:56|184:56,1,285,2|0
120,56,46659,1,2
56,56,46888,2,0,L|56:192|56:288|136:288,1,285,2|2
176,288,47804,2,0,B|176:240,2,47.5,0|0|0
248,288,48262,1,0
368,240,48720,2,4,B|304:352|424:320|512:352|544:208|528:-16|408:-8|288:-16|280:392|152:376|16:376|8:136|24:-8|136:-32|272:8|184:144,1,1045,0|0
360,64,51926,5,2
296,112,52155,2,0,B|240:32,1,95,2|2
136,72,52727,1,0
24,48,53071,2,0,B|80:128,1,95,2|2
136,224,53644,1,0
160,336,53987,2,0,B|240:280,1,95,2|2
440,344,55361,5,0
440,208,55819,2,2,B|384:224|368:272,1,95,2|2
296,336,56392,2,2,B|216:328|224:232,1,142.5
224,168,56964,2,2,B|248:80|344:72,1,142.5,0|2
320,176,57651,2,2,B|320:272,1,95
248,32,59024,5,0
112,32,59482,1,0
112,96,59711,2,0,B|112:112|104:216|104:256|104:296|104:336|152:344|264:344|328:344,2,380,0|0|0
312,96,62231,1,0
376,96,62460,2,0,L|432:176|344:272,1,190,2|2
328,176,63147,2,0,B|224:176,1,95,0|2
256,192,63605,12,0,65208
368,296,67727,6,0,B|328:200,1,95,0|0
304,144,68185,1,0
280,80,68414,1,2
216,80,68644,2,2,B|120:80,1,95
144,144,69102,1,0
176,200,69331,1,0
208,256,69560,2,0,B|256:344,1,95,0|0
384,344,70247,1,0
448,344,70476,1,0
448,280,70705,6,2,B|448:128,1,142.5,2|2
448,40,71392,1,0
384,40,71621,2,2,B|384:120|384:192,1,142.5,2|2
384,280,72308,1,2
320,280,72537,2,0,B|320:128,1,142.5,0|0
320,40,73224,1,2
256,40,73453,1,2
336,24,75056,6,2,B|408:120|328:232,1,190
296,152,75743,1,2
248,104,75972,1,0
192,64,76201,2,2,B|120:160|200:272,1,190
224,288,76888,1,0
280,320,77117,1,0
384,240,77575,1,0
256,192,78033,12,0,80781
40,328,81239,5,2
104,328,81468,1,2
168,328,81697,2,0,B|240:328|312:328,1,142.5,0|0
408,328,82384,1,2
408,264,82613,1,2
408,160,82956,2,0,C|168:160,1,237.5
48,40,84674,5,2
176,40,85132,2,0,C|272:40,1,95
368,40,85705,1,2
368,136,86048,2,0,C|256:136,1,95
176,136,86621,1,2
176,232,86964,2,0,C|176:336,1,95
32,320,88338,6,2,B|104:248|216:256,1,190
272,256,89025,1,0
336,256,89254,1,0
400,256,89483,1,0
368,128,89941,6,2,B|424:48|400:-32|328:-32|248:72,1,285,2|2
184,64,90857,1,0
120,64,91086,1,0
56,64,91315,1,0
104,184,91773,6,0,B|40:296|168:344,1,190
216,344,92460,1,0
280,344,92689,1,0
392,48,95895,6,2,B|392:136|392:208|392:264,1,190
248,240,97498,1,8
296,240,97727,2,2,B|296:184|368:168,2,95,2|2|2
248,240,98873,1,8
248,192,99102,2,2,B|248:104|144:104,1,142.5,2|10
112,104,100017,2,2,B|40:104|40:208,2,95,2|8|2
112,176,101277,1,0
184,176,101621,1,0
232,176,101850,1,0
128,336,102765,5,0
128,272,102994,1,0
128,208,103223,1,0
128,144,103452,2,2,L|128:40,1,95,0|2
256,24,104139,6,0,B|400:40|392:176,1,190,0|4
392,184,104826,1,0
392,232,105056,6,0,B|376:376|240:368,1,190,0|4
232,368,105742,1,0
184,368,105972,6,0,B|40:352|48:216,1,190,0|4
48,208,106658,1,0
48,160,106888,6,0,B|64:16|200:24,1,190,0|0
208,24,107575,1,0
256,24,107803,2,0,B|464:24,2,190,0|0|0
248,120,109178,1,4
248,120,109407,5,4
248,120,109636,5,4
96,120,110094,6,0,B|72:176|96:216,1,95,0|0
168,208,110552,1,2
240,208,110781,1,2
312,208,111010,2,0,B|352:280|312:352,1,142.5,0|0
200,344,111697,2,0,B|144:344|88:344,1,95,2|2
16,272,112269,1,0
104,200,112613,2,0,B|104:144|168:144,1,95,0|0
440,32,113758,6,0,B|440:192,1,142.5
456,288,114445,1,2
376,288,114674,1,2
264,288,115018,1,0
320,192,115361,1,2
248,176,115590,2,0,B|144:88|56:184|48:320|184:352,1,380,2|0
464,328,117422,6,0,B|232:328,1,190
200,328,118109,1,0
120,328,118338,2,2,B|56:240|128:144,1,190,2|2
128,72,119025,1,2
200,72,119254,2,2,B|392:72,1,190
464,72,119941,2,0,B|464:24,2,47.5
464,296,120857,5,0
416,296,121086,1,2
368,296,121315,1,0
320,296,121544,1,2
272,296,121773,1,0
224,296,122002,1,2
80,296,122689,6,0,B|16:224|168:192|16:136|96:40,1,237.5,0|0
400,320,124750,5,0
400,240,124979,1,0
400,160,125208,2,0,B|296:160,1,95
232,160,125666,1,2
144,232,126010,1,2
232,296,126353,2,0,B|336:296,1,95,2|0
416,232,126926,1,2
328,160,127269,2,0,B|224:160,1,95,2|0
384,264,128414,5,2
272,264,128758,1,2
160,264,129102,1,2
160,184,129331,2,0,L|160:32|328:32,1,285,0|0
368,32,130247,1,2
368,184,130705,1,2
368,336,131163,1,2
464,192,132079,5,0
360,192,132422,1,0
248,192,132766,2,0,B|128:192,1,95
448,32,134140,5,0
448,104,134369,1,0
448,176,134598,2,0,B|368:256,1,95
312,152,135170,1,2
232,232,135514,2,0,B|152:152,1,95
312,152,136201,1,2
248,16,136659,2,0,L|344:16|408:16|408:144,1,285,0|0
408,216,137575,2,0,L|248:216|248:72,1,285
256,192,138491,12,0,139865
192,192,140323,5,2
256,120,140666,1,0
320,192,141010,1,2
448,192,141468,2,0,B|448:240|448:288,1,95,8|8
312,288,142155,5,2
208,288,142498,1,0
104,288,142842,1,2
104,152,143300,1,8
104,88,143529,1,8
232,96,143987,6,0,B|352:-40|496:112,1,285,2|2
480,224,145132,2,0,B|480:320,1,95,8|8
344,320,145819,1,2
240,320,146163,1,0
136,320,146506,1,2
72,200,146964,2,0,B|40:160|80:104,1,95,8|8
208,112,147651,5,2
304,112,147995,2,0,B|448:112,1,142.5,0|2
448,240,148796,1,8
448,304,149025,1,8
328,240,149483,5,2
224,240,149827,2,0,B|136:240|80:240,1,142.5,0|2
80,104,150628,1,8
144,104,150857,1,8
144,232,151315,6,0,B|296:232,1,142.5,2|0
384,232,152002,1,2
384,96,152460,6,0,L|432:96,2,47.5
256,192,153147,12,0,154750
256,192,155208,5,4
