osu file format v5

[General]
AudioFilename: Light colors.mp3
AudioLeadIn: 0
PreviewTime: -1
Countdown: 0
SampleSet: Soft
StackLeniency: 0.7
Mode: 0
LetterboxInBreaks: 1
EditorDistanceSpacing: 0.600000023841858

[Metadata]
Title:Light colors
Artist:Lia
Creator:azuki
Version:Easy
Source:Key Sound Lab
Tags:Tomoyo After

[Difficulty]
HPDrainRate:4
CircleSize:3
OverallDifficulty:4
SliderMultiplier:1.5
SliderTickRate:0.5

[Events]
//Background and Video events
1,0,"Light colors.flv"
0,0,"bg.png"
//Break Periods
2,65380,66799
2,92889,94575
//Storyboard Layer 0 (Background)
//Storyboard Layer 1 (Failing)
//Storyboard Layer 2 (Passing)
//Storyboard Layer 3 (Foreground)
//Storyboard Sound Samples
//Background Colour Transformations
3,100,163,162,255

[TimingPoints]
8415,458.015267175572,4,2,0,100,1,0
24445,-100,4,2,0,70,0,0
24903,-100,4,2,0,100,0,0
26294,-100,4,2,0,70,0,0
26735,-100,4,2,0,100,0,0
28109,-100,4,2,0,70,0,0
28567,-100,4,2,0,100,0,0
29941,-100,4,2,0,70,0,0
30399,-100,4,2,0,100,0,0
31773,-100,4,2,0,70,0,0
32231,-100,4,2,0,100,0,0
33605,-100,4,2,0,70,0,0
34063,-100,4,2,0,100,0,0
35437,-100,4,2,0,70,0,0
35895,-100,4,2,0,100,0,0
37269,-100,4,2,0,70,0,0
38414,-100,4,2,0,100,0,0
95776,-200,4,2,0,80,0,0
102531,-100,4,2,0,100,0,0
103682,-100,4,1,0,85,0,0
104140,-100,4,2,0,100,0,0
104598,-100,4,1,0,85,0,0
105056,-100,4,2,0,100,0,0
105514,-100,4,1,0,85,0,0
105972,-100,4,2,0,100,0,0
106430,-100,4,1,0,85,0,0
106888,-100,4,2,0,100,0,0
107346,-100,4,1,0,85,0,0
107804,-100,4,2,0,100,0,0
109178,-100,4,1,0,60,0,0
109407,-100,4,1,0,80,0,0
109636,-100,4,1,0,100,0,0
109850,-100,4,2,0,100,0,1
122231,-200,4,2,0,90,0,0
123949,-100,4,2,0,100,0,1
131392,-100,4,2,0,100,0,0
141697,-100,4,2,0,70,0,0
142155,-100,4,2,0,100,0,0
143529,-100,4,2,0,70,0,0
143987,-100,4,2,0,100,0,0
145361,-100,4,2,0,70,0,0
145819,-100,4,2,0,100,0,0
147193,-100,4,2,0,70,0,0
147651,-100,4,2,0,100,0,0
149025,-100,4,2,0,70,0,0
149483,-100,4,2,0,100,0,0
150857,-100,4,2,0,70,0,0
151315,-100,4,2,0,100,0,0
152689,-100,4,2,0,70,0,0
153147,-100,4,1,0,100,0,0

[Colours]
Combo1 : 245,137,232
Combo2 : 97,69,252
Combo3 : 187,137,248
Combo4 : 202,13,242

[HitObjects]
168,184,23071,1,2
280,184,23758,1,2
392,184,24445,1,8
392,256,24903,5,2
280,256,25590,1,2
168,256,26277,1,8
168,184,26735,5,2
168,72,27422,1,2
280,72,28109,1,8
280,144,28567,6,0,L|144:144|144:264,1,225,2|2
144,344,29941,1,8
216,344,30399,5,2
328,344,31086,2,0,L|464:344|464:224,1,225,2|8
464,176,32231,5,2
352,176,32918,1,2
240,176,33605,1,8
240,248,34063,5,2
128,248,34750,1,2
128,136,35437,1,8
200,136,35895,5,2
312,136,36582,1,2
312,248,37269,1,8
48,88,38414,6,0,B|128:32|200:0|280:0|416:8|504:72|496:216|368:328,1,675
256,320,40934,2,0,B|80:320,1,150
56,88,42308,2,2,L|264:336,1,300,2|0
448,296,45743,6,0,L|240:48,1,300,2|2
192,72,46888,2,0,L|80:176|208:296|208:296,1,300,2|2
256,336,48262,1,0
256,192,48720,12,4,51239
424,120,51926,5,2
336,120,52384,1,0
248,120,52842,1,2
160,120,53300,1,0
72,120,53758,1,2
248,192,54674,5,0
72,296,55590,5,2
160,296,56048,1,0
248,296,56506,1,2
336,296,56964,1,0
424,296,57422,1,2
248,192,58338,5,0
392,48,59025,6,0,B|392:296,1,225
208,272,60628,1,2
208,88,61544,1,2
384,88,62460,2,0,L|464:216|384:352,1,300,0|0
256,192,63605,12,4,65208
440,336,67498,5,0
352,336,67956,1,2
264,336,68415,1,2
176,336,68873,1,2
88,336,69331,2,0,B|88:296|88:184,1,150,0|2
216,64,70705,5,0
392,64,71621,1,0
392,240,72537,1,2
208,240,73453,1,2
72,48,75285,5,0
160,48,75743,1,2
248,48,76202,1,2
336,48,76660,1,2
424,48,77118,2,0,B|424:88|424:200,1,150,0|2
256,192,78033,12,0,80781
432,64,81239,5,0
432,152,81697,1,0
432,240,82155,1,0
432,328,82613,1,0
344,328,83071,2,0,C|184:328,1,150
152,104,84674,5,2
240,104,85132,1,0
280,104,85361,2,0,B|376:232|488:160|368:0,2,300
56,352,88338,6,0,B|112:280|272:264,1,225
440,272,89941,2,0,B|496:192|472:112|392:96|304:216,1,300
128,192,91773,2,0,B|464:192,1,300
416,24,95895,6,2,B|416:112|416:184|416:240,1,190
416,320,97727,2,2,B|352:376|264:312,1,150,2|10
280,248,99102,2,2,B|280:192|192:160,1,112.5,2|10
176,168,100017,2,2,B|96:168|96:168,2,75,2|8|2
328,168,101850,1,0
64,64,103452,6,0,L|112:64|160:64,1,75,0|4
232,64,104140,1,0
320,64,104598,1,4
408,64,105056,1,0
408,152,105514,1,4
408,240,105972,1,0
408,328,106430,1,4
320,328,106888,1,0
232,328,107346,1,4
232,240,107803,2,0,B|176:160|96:248,2,150,0|0|0
320,240,109178,2,4,B|400:240,2,75
368,168,110094,5,0
280,168,110552,1,0
192,168,111010,1,0
104,168,111468,1,0
104,256,111926,2,0,B|432:256|432:256,1,300,2|2
440,40,113758,6,0,B|296:40,1,112.5
328,104,114445,2,0,B|392:160,1,75
432,192,115018,1,0
352,272,115590,2,0,B|252:356|172:324|180:220|284:172,1,300,2|2
456,328,117422,6,0,B|272:328,1,150
200,328,118338,2,2,B|144:256|208:184,1,150,2|2
280,64,120857,6,2,B|192:112,5,75
80,120,122689,2,0,B|24:168|176:200|24:240|88:296,1,187.5,0|0
408,304,124750,5,2
320,304,125208,1,2
232,304,125666,2,0,B|72:168|240:56,1,300,2|0
456,56,128414,5,0
368,56,128873,1,2
280,56,129331,2,0,L|128:56|128:224,1,300,0|0
216,208,130705,1,2
304,208,131163,1,0
464,192,132079,5,0
360,192,132422,1,0
256,192,132766,2,0,L|176:128,1,75
400,56,134140,6,0,B|456:152,3,75,0|0|0|0
464,184,135170,1,2
400,208,135514,2,0,B|304:264,1,75,0|2
248,248,136201,1,2
160,248,136659,2,0,L|160:88|304:88,2,300,0|0|0
144,192,140323,5,2
256,192,141010,1,2
368,192,141697,1,8
368,264,142155,5,2
256,264,142842,1,2
144,264,143529,1,8
144,192,143987,6,0,B|240:64|344:216,1,225,2|2
440,200,145361,1,8
440,128,145819,5,2
328,128,146506,2,0,B|232:256|128:104,1,225,2|8
144,48,147651,5,2
256,48,148338,1,2
368,48,149025,1,8
368,120,149483,6,0,B|496:216|344:320,2,225,2|2|8
368,192,151315,5,2
256,192,152002,1,2
144,192,152689,1,8
256,192,153147,12,4,155208
