osu file format v5

[General]
AudioFilename: Light colors.mp3
AudioLeadIn: 0
PreviewTime: -1
Countdown: 0
SampleSet: Soft
StackLeniency: 0.7
Mode: 0
LetterboxInBreaks: 1
EditorBookmarks: 149483
EditorDistanceSpacing: 1.20000004768372

[Metadata]
Title:Light colors
Artist:Lia
Creator:azuki
Version:Alazy
Source:Key Sound Lab
Tags:Tomoyo After

[Difficulty]
HPDrainRate:8
CircleSize:5
OverallDifficulty:7
SliderMultiplier:1.8
SliderTickRate:0.5

[Events]
//Background and Video events
1,0,"Light colors.flv"
0,0,"bg.png"
//Break Periods
2,30370,37514
2,96095,101866
//Storyboard Layer 0 (Background)
//Storyboard Layer 1 (Failing)
//Storyboard Layer 2 (Passing)
//Storyboard Layer 3 (Foreground)
//Storyboard Sound Samples
//Background Colour Transformations
3,100,0,0,0

[TimingPoints]
8415,458.015267175572,4,2,0,61,1,0
21124,-100,4,1,0,49,0,0
21926,-100,4,2,0,79,0,0
22842,-100,4,2,0,67,0,0
154750,-200,4,2,0,61,0,0
155208,-100,4,1,0,41,0,0

[Colours]
Combo1 : 245,137,232
Combo2 : 97,69,252
Combo3 : 187,137,248
Combo4 : 202,13,242

[HitObjects]
328,232,8414,2,0,B|392:264|456:184,2,135,2|0|2
256,248,9331,5,0
256,248,9445,1,0
256,248,9560,1,2
320,160,9789,1,2
192,160,10018,1,0
184,232,10247,6,0,B|120:264|56:184,2,135,2|0|2
256,248,11164,5,0
256,248,11278,1,0
256,248,11393,1,2
192,160,11622,1,2
320,160,11851,1,0
440,192,12079,5,2
296,64,12422,1,0
256,248,12766,1,2
256,248,12995,5,0
256,248,13109,1,0
256,248,13224,1,2
320,160,13453,1,2
192,160,13682,1,0
72,192,13911,5,2
216,64,14254,1,0
256,248,14598,1,2
256,248,14827,5,0
256,248,14941,1,0
256,248,15056,1,2
192,160,15285,1,2
320,160,15514,1,0
384,56,15743,5,2
128,56,16086,1,0
256,248,16430,1,2
256,248,16659,5,0
256,248,16773,1,0
256,248,16888,1,2
320,160,17117,1,2
192,160,17346,1,0
128,56,17575,5,2
384,56,17918,1,0
256,248,18262,1,2
256,248,18491,5,0
256,248,18605,1,0
256,248,18720,1,2
192,160,18949,1,2
320,160,19178,1,0
256,56,19407,6,0,B|352:56,1,90,2|0
456,192,19865,2,0,B|456:288,1,90,2|0
256,328,20323,2,0,B|160:328,1,90,2|0
56,192,20781,2,0,B|56:96,1,90,2|0
56,32,21239,5,0
456,32,21697,1,0
456,352,22155,1,0
56,352,22613,1,0
96,112,23071,5,2
96,112,23185,1,0
168,64,23414,1,2
168,64,23529,1,0
232,120,23758,1,2
312,72,23987,6,0,B|400:24,1,90,0|2
312,168,24445,2,0,B|408:208,1,90,0|2
336,271,24903,5,2
336,271,25017,1,0
254,298,25246,1,2
254,298,25361,1,0
207,228,25590,1,2
117,253,25819,6,0,B|20:277,1,90,0|2
142,161,26277,2,0,B|60:97,1,90,0|2
152,72,26735,5,2
152,72,26849,1,0
238,59,27078,1,2
238,59,27193,1,0
272,136,27422,1,2
365,127,27651,6,0,B|465:120,1,90,0|2
325,214,28109,2,0,B|395:291,1,90,0|2
296,304,28567,5,2
296,304,28681,1,0
218,343,28910,1,2
218,343,29025,1,0
162,280,29254,1,2
160,192,29483,6,0,B|160:96,1,90,0|2
352,192,29941,2,0,B|352:288,1,90,0|2
40,328,38414,5,0
120,288,38644,1,0
200,328,38873,1,0
280,288,39102,1,2
368,312,39331,1,0
440,264,39560,2,0,B|496:200|480:88,1,180,0|2
424,24,40247,2,0,B|368:88|384:200,1,180
384,280,40934,5,2
312,224,41163,1,0
296,312,41392,2,0,B|200:336|128:264,1,180,0|2
130,266,41964,1,0
130,266,42079,1,0
64,208,42308,5,0
64,208,42422,1,0
120,136,42651,1,0
120,136,42766,1,2
184,192,42995,1,0
128,264,43224,2,0,B|208:312|304:264,3,180,0|2|0|2
225,204,44827,1,0
240,199,44941,1,0
255,194,45056,1,0
271,189,45170,1,0
286,184,45285,1,0
370,157,45514,1,2
312,88,45743,6,0,B|224:56,1,90
152,112,46201,1,0
232,152,46430,2,0,B|264:248,1,90,2|0
344,272,46888,6,0,B|264:352|184:272,1,180,0|2
152,192,47575,1,0
183,104,47804,2,0,B|261:27|341:107,1,180,0|2
440,312,48720,5,0
304,72,49178,1,2
168,312,49636,1,0
32,72,50094,1,2
96,128,50323,5,0
96,128,50437,1,0
96,128,50552,1,0
184,110,50781,1,2
251,169,51010,1,2
342,169,51239,1,0
357,173,51353,1,0
373,177,51468,1,2
388,181,51582,1,0
404,186,51697,1,2
488,208,51926,5,2
424,272,52155,1,0
336,264,52384,5,2
152,344,52727,1,0
16,192,53071,1,0
16,192,53300,5,2
152,40,53644,1,0
336,120,53987,1,0
336,120,54216,5,2
336,208,54445,1,2
336,224,54560,1,0
336,240,54674,1,0
336,256,54789,1,0
336,272,54903,1,2
336,360,55132,5,2
256,312,55361,1,0
256,312,55476,1,0
256,312,55590,1,0
176,360,55819,1,0
176,360,56048,5,2
64,192,56392,1,0
176,24,56735,1,0
336,24,56964,5,2
448,192,57308,1,0
336,360,57651,1,0
176,360,57880,5,2
256,32,58338,1,0
336,360,58796,1,2
392,288,59025,6,0,B|392:192,1,90
320,248,59483,2,0,B|320:152,1,90,0|2
256,328,60170,1,0
80,288,60628,1,2
80,288,60743,1,0
48,200,60972,1,0
48,200,61086,1,2
80,112,61315,1,0
80,112,61544,1,2
160,160,61773,5,0
160,248,62002,1,0
240,208,62231,1,0
240,208,62460,5,2
456,320,62804,1,0
456,72,63147,1,0
456,192,63376,6,0,B|360:208|280:160|176:192,1,270,2|0
96,192,64292,5,2
48,272,64521,1,0
96,352,64750,1,2
416,192,65208,5,2
464,272,65437,1,0
416,352,65666,1,2
256,16,66124,5,2
256,104,66353,1,0
256,192,66582,1,2
256,208,66697,1,0
256,224,66811,1,2
256,240,66926,1,0
256,256,67040,1,2
104,104,67498,6,0,B|72:144|96:192,1,90
256,352,67956,2,0,B|256:256,1,90,2|0
408,104,68414,2,0,B|440:144|416:192,1,90
256,32,68873,2,0,B|256:224,1,180,2|0
256,212,69560,1,0
256,212,69674,1,0
256,212,69789,1,2
152,64,70247,5,0
72,104,70476,1,0
32,184,70705,2,0,B|32:288|136:320,1,180,2|0
130,318,71277,1,0
130,318,71392,1,0
208,320,71621,5,2
400,248,71964,1,0
248,104,72308,1,0
248,104,72537,6,0,B|168:24|88:104,1,180,2|0
168,144,73224,1,2
88,184,73453,2,0,B|166:262|246:182,1,180,2|2
328,144,74140,1,2
344,144,74254,1,0
360,144,74369,1,2
376,144,74483,1,0
392,144,74598,1,0
464,192,74827,5,0
408,280,75056,1,0
312,328,75285,1,2
200,328,75514,1,0
104,280,75743,1,0
48,192,75972,1,0
256,64,76201,6,0,B|264:112|264:112|248:160|248:160|256:200,2,135,2|0|0
256,64,77117,5,2
256,64,77346,1,0
256,64,77575,1,0
120,336,78033,6,0,B|224:336,1,90,2|0
392,336,78491,2,0,B|288:336,1,90,2|0
80,264,78949,2,0,B|184:264,1,90,2|0
432,264,79407,2,0,B|328:264,1,90,2|0
40,192,79865,2,0,B|136:192,1,90,2|0
472,192,80323,2,0,B|376:192,1,90,2|0
256,40,80781,2,0,B|256:144,1,90,2|2
256,216,81239,5,2
256,216,81468,1,0
256,304,81697,5,2
88,192,82040,1,0
256,72,82384,1,0
256,72,82613,5,2
424,184,82956,1,0
256,304,83300,1,0
168,320,83529,5,2
168,320,83644,1,0
88,272,83873,1,0
88,272,83987,1,2
48,192,84216,1,0
48,192,84445,1,2
112,128,84674,6,0,B|72:40,2,90
112,128,85361,5,2
256,304,85705,1,0
400,128,86048,1,0
400,128,86277,5,2
256,304,86621,1,0
112,128,86964,1,0
192,80,87193,5,2
192,80,87308,1,0
256,144,87537,1,0
256,144,87651,1,2
320,80,87880,1,0
320,80,88109,1,2
383,143,88338,5,2
378,159,88453,1,0
373,174,88567,1,2
368,189,88682,1,0
363,204,88796,1,0
344,296,89025,5,2
256,312,89254,1,0
168,296,89483,1,2
344,88,89941,5,2
256,72,90170,1,0
168,88,90399,1,2
432,192,90857,5,2
344,192,91086,1,0
256,192,91315,1,2
48,256,91773,5,2
48,128,92002,1,0
128,320,92231,1,2
128,64,92460,1,0
344,192,92689,2,0,B|232:192,1,90,2|0
256,360,93147,5,2
104,272,93376,1,0
104,112,93605,1,2
256,24,93834,1,0
408,112,94063,1,2
408,272,94292,1,2
256,192,94521,6,0,B|208:192,12,45
256,112,102766,5,2
344,192,102995,1,0
256,272,103224,1,0
168,192,103453,1,0
80,192,103682,6,0,B|96:96,1,90,2|0
160,40,104140,1,0
160,40,104254,1,0
160,40,104369,1,0
215,111,104598,2,0,B|201:200,1,90,2|0
256,272,105056,1,0
256,272,105170,1,0
256,272,105285,1,0
320,208,105514,2,0,B|335:120,1,90,2|0
400,56,105972,1,0
400,56,106086,1,0
400,56,106201,1,0
448,128,106430,5,2
256,192,106773,1,0
64,128,107117,1,0
64,216,107346,5,2
64,216,107460,1,0
120,288,107689,1,0
120,288,107804,1,2
208,312,108033,1,0
304,312,108262,1,2
392,288,108491,1,0
456,224,108720,1,2
456,208,108834,1,0
456,192,108949,1,2
456,176,109063,1,0
456,160,109178,6,0,B|456:104,8,45,2|0|0|0|0|0|0|0|2
368,88,110323,5,0
256,80,110552,1,0
144,88,110781,1,0
256,80,111010,5,2
88,296,111353,1,0
424,296,111697,1,0
320,320,111926,5,2
256,232,112155,1,0
256,232,112269,1,0
256,232,112384,1,0
192,320,112613,1,0
160,216,112842,6,0,B|64:208,1,90,2|0
352,216,113300,2,0,B|448:208,1,90,2|0
488,112,113758,5,2
256,40,114102,1,0
24,112,114445,1,0
24,272,114674,5,2
256,344,115018,1,0
488,272,115361,1,0
488,112,115590,5,2
24,272,116048,1,2
488,272,116506,1,2
24,112,116964,1,2
336,320,117422,6,0,B|336:216,1,90,2|0
176,320,117880,2,0,B|176:216,1,90,0|0
256,104,118338,5,2
40,336,118682,1,0
472,336,119025,1,0
408,248,119254,5,2
312,192,119483,1,0
312,192,119598,1,0
312,192,119712,1,0
408,136,119941,1,0
336,56,120170,5,2
232,192,120399,1,0
336,328,120628,1,0
232,360,120857,5,0
144,288,121086,1,2
88,192,121315,1,0
144,96,121544,1,0
232,24,121773,1,0
256,192,122002,6,0,B|448:192,1,180,2|0
436,192,122689,1,0
440,296,122918,5,2
40,192,123376,1,2
440,88,123834,1,2
40,192,124292,1,2
360,144,124750,5,2
424,232,124979,1,0
328,288,125208,1,0
264,200,125437,1,0
256,56,125666,5,2
40,192,126010,1,0
256,328,126353,1,0
264,192,126582,6,0,B|80:192,1,180,2|0
160,96,127269,5,0
256,48,127498,1,2
256,48,127613,1,0
256,48,127727,1,0
352,96,127956,1,2
256,152,128185,1,0
184,232,128414,6,0,B|64:304,2,135,2|0|0
328,232,129331,6,0,B|448:304,2,135,2|0|0
256,312,130247,5,2
48,64,130705,1,0
464,64,131163,1,2
256,56,131392,5,2
256,56,131506,1,0
256,56,131621,1,0
256,56,131735,1,0
256,56,131850,1,2
256,160,132079,6,0,B|256:312,2,135,2|0|0
256,160,132995,5,2
256,160,133453,5,0
256,160,133911,5,2
336,120,134140,5,0
424,144,134369,1,0
352,200,134598,1,0
432,232,134827,2,0,B|488:296|416:352,2,135,2|0|0
360,280,135743,5,2
176,296,136201,1,0
88,264,136430,1,0
160,216,136659,1,2
256,64,137117,1,0
376,192,137575,1,2
192,192,138033,1,2
256,136,138262,1,0
328,192,138491,1,2
256,248,138720,1,0
256,336,138949,1,2
256,336,139063,1,0
256,336,139178,1,2
256,336,139292,1,0
256,336,139407,6,0,B|160:336|160:336|152:336,1,90,2|0
256,336,139865,2,0,B|360:336,1,90,2|0
432,336,140323,5,2
472,192,140666,1,0
432,48,141010,1,2
376,120,141239,5,0
288,120,141468,1,2
200,120,141697,1,2
112,120,141926,1,0
56,48,142155,5,2
16,192,142498,1,0
56,336,142842,1,2
112,264,143071,5,0
200,264,143300,1,2
288,264,143529,1,2
376,264,143758,1,0
432,192,143987,6,0,B|288:192,2,135,2|0|2
376,112,144903,6,0,B|376:16,1,90,0|2
376,272,145361,2,0,B|376:368,1,90,2|0
344,192,145819,6,0,B|200:192,2,135,2|0|2
288,112,146735,6,0,B|288:16,1,90,0|2
288,272,147193,2,0,B|288:368,1,90,2|0
256,192,147651,6,0,B|112:192,2,135,2|0|2
200,112,148567,6,0,B|200:16,1,90,0|2
200,272,149025,2,0,B|200:368,1,90,2|0
72,352,149483,5,2
256,192,149827,1,0
72,32,150170,1,2
112,192,150399,5,0
216,192,150628,1,2
320,192,150857,1,2
424,192,151086,1,0
440,352,151315,5,2
256,192,151659,1,0
440,32,152002,1,2
424,192,152231,5,0
320,192,152460,1,2
216,192,152689,1,2
112,192,152918,1,0
256,64,153147,5,2
72,344,153491,1,2
440,344,153834,1,2
256,296,154063,5,0
256,296,154292,1,2
256,296,154521,1,2
256,296,154750,6,0,B|256:192,1,90,2|4
