osu file format v5

[General]
AudioFilename: Light colors.mp3
AudioLeadIn: 0
PreviewTime: -1
Countdown: 0
SampleSet: Soft
StackLeniency: 0.7
Mode: 0
LetterboxInBreaks: 1
EditorBookmarks: 22613,65208,109636
EditorDistanceSpacing: 1

[Metadata]
Title:Light colors
Artist:Lia
Creator:azuki
Version:After
Source:Key Sound Lab
Tags:Tomoyo After

[Difficulty]
HPDrainRate:7
CircleSize:5
OverallDifficulty:7
SliderMultiplier:1.9
SliderTickRate:1

[Events]
//Background and Video events
1,0,"Light colors.flv"
0,0,"bg.png"
//Break Periods
//Storyboard Layer 0 (Background)
//Storyboard Layer 1 (Failing)
//Storyboard Layer 2 (Passing)
//Storyboard Layer 3 (Foreground)
//Storyboard Sound Samples
//Background Colour Transformations
3,100,163,162,255

[TimingPoints]
8415,458.015267175572,4,2,0,95,1,0
24216,-100,4,2,0,70,0,0
24788,-100,4,2,0,100,0,0
26048,-100,4,2,0,70,0,0
26392,-100,4,2,0,100,0,0
27880,-100,4,2,0,70,0,0
28338,-100,4,2,0,100,0,0
29712,-100,4,2,0,70,0,0
30170,-100,4,2,0,100,0,0
31544,-100,4,2,0,70,0,0
32002,-100,4,2,0,100,0,0
35207,-100,4,2,0,70,0,0
35895,-200,4,2,0,90,0,0
38414,-100,4,2,0,100,0,0
63605,-100,4,1,0,95,0,1
65208,-100,4,1,0,75,0,0
65437,-100,4,2,0,100,0,0
67956,-100,4,2,0,80,0,0
68185,-100,4,2,0,100,0,0
68873,-100,4,2,0,80,0,0
69102,-100,4,2,0,100,0,0
69789,-100,4,2,0,80,0,0
70018,-100,4,2,0,100,0,0
70705,-100,4,2,0,80,0,0
70934,-100,4,2,0,100,0,0
71621,-100,4,2,0,80,0,0
71964,-100,4,2,0,100,0,0
72537,-100,4,2,0,80,0,0
72880,-100,4,2,0,100,0,0
73453,-100,4,2,0,80,0,0
73682,-100,4,2,0,100,0,0
74369,-100,4,2,0,80,0,0
74483,-100,4,2,0,100,0,0
75285,-100,4,2,0,80,0,0
75514,-100,4,2,0,100,0,0
76201,-100,4,2,0,80,0,0
76315,-100,4,2,0,100,0,0
77117,-100,4,2,0,80,0,0
77231,-100,4,2,0,100,0,0
81239,-100,4,2,0,80,0,0
81468,-100,4,2,0,100,0,0
82155,-100,4,2,0,80,0,0
82384,-100,4,2,0,100,0,0
83071,-100,4,2,0,80,0,0
83300,-100,4,2,0,100,0,0
83987,-100,4,2,0,80,0,0
84102,-100,4,2,0,100,0,0
84903,-100,4,2,0,80,0,0
85132,-100,4,2,0,100,0,0
85819,-100,4,2,0,80,0,0
86048,-100,4,2,0,100,0,0
86735,-100,4,2,0,80,0,0
86964,-100,4,2,0,100,0,0
87651,-100,4,2,0,80,0,0
87880,-100,4,2,0,70,0,0
88338,-100,4,2,0,100,0,0
92689,-100,4,2,0,90,0,0
94292,-100,4,1,0,60,0,0
95895,-200,4,2,0,90,0,0
97498,-200,4,2,0,70,0,0
97727,-200,4,2,0,100,0,0
98873,-200,4,2,0,70,0,0
99102,-200,4,2,0,100,0,0
100476,-200,4,2,0,70,0,0
100934,-200,4,2,0,100,0,0
102531,-100,4,1,0,100,0,0
102766,-100,4,2,0,70,0,0
102995,-100,4,2,0,80,0,0
103224,-100,4,2,0,90,0,0
103682,-100,4,1,0,85,0,0
104140,-100,4,2,0,100,0,0
104598,-100,4,1,0,85,0,0
104827,-100,4,2,0,100,0,0
105514,-100,4,1,0,85,0,0
105743,-100,4,2,0,100,0,0
106430,-100,4,1,0,85,0,0
106659,-100,4,2,0,100,0,0
107346,-200,4,1,0,70,0,0
107575,-100,4,2,0,0,0,0
108720,-100,4,1,0,70,0,0
109178,-100,4,1,0,60,0,0
109407,-100,4,1,0,80,0,0
109636,-100,4,1,0,100,0,0
109850,-100,4,2,0,100,0,1
120628,-100,4,2,0,80,0,1
123949,-100,4,2,0,100,0,1
128414,-100,4,2,0,100,0,0
141468,-100,4,2,0,70,0,0
141926,-100,4,2,0,100,0,0
143300,-100,4,2,0,70,0,0
143758,-100,4,2,0,100,0,0
145132,-100,4,2,0,70,0,0
145590,-100,4,2,0,100,0,0
146964,-100,4,2,0,70,0,0
147422,-100,4,2,0,100,0,0
148796,-100,4,2,0,70,0,0
148911,-100,4,2,0,100,0,0
149025,-100,4,2,0,70,0,0
149254,-100,4,2,0,100,0,0
150628,-100,4,2,0,70,0,0
150743,-100,4,2,0,100,0,0
150857,-100,4,2,0,70,0,0
151086,-100,4,2,0,100,0,0
153147,-100,4,1,0,100,0,1
154750,-100,4,1,0,95,0,0

[Colours]
Combo1 : 245,137,232
Combo2 : 97,69,252
Combo3 : 187,137,248
Combo4 : 202,13,242

[HitObjects]
256,192,23071,1,2
256,192,23415,1,0
256,192,23758,1,2
432,256,24216,2,0,B|456:208|416:160,1,95,8|8
464,80,24674,1,0
376,48,24903,5,2
376,48,25018,1,0
280,48,25247,1,0
280,48,25361,1,0
184,48,25590,1,2
24,144,26048,2,0,B|0:192|40:240,1,95,8|8
64,320,26506,5,0
152,280,26735,1,2
152,280,26850,1,0
224,336,27079,1,2
224,336,27193,1,0
312,304,27422,1,2
488,232,27880,2,0,B|512:184|472:136,1,95,8|8
480,48,28338,5,0
392,80,28567,1,2
392,80,28682,1,0
304,40,28911,1,0
304,40,29025,1,0
216,80,29254,1,2
40,152,29712,2,0,B|16:200|56:248,1,95,8|8
96,280,30170,5,0
152,328,30399,1,2
152,328,30514,1,0
256,280,30743,1,0
256,280,30857,1,0
360,328,31086,1,2
448,208,31544,2,0,B|472:152|432:120,1,95,8|8
408,48,32002,1,0
368,112,32231,5,2
368,152,32346,1,0
368,192,32460,1,0
312,240,32689,5,10
312,200,32804,1,0
312,160,32918,1,0
256,112,33147,5,2
256,152,33262,1,0
256,192,33376,1,0
200,240,33605,5,10
200,200,33720,1,0
200,160,33834,1,0
136,200,34063,6,0,B|96:144|144:64,2,142.5,2|0|2
136,272,34979,1,0
208,336,35208,2,0,B|248:288|200:240,1,95,8|8
208,176,35666,1,0
208,176,35895,2,0,C|156:176|84:177,4,95,0|0|0|0|0
40,136,38414,5,2
112,48,38644,1,0
200,112,38873,1,0
280,32,39102,1,2
360,104,39331,1,0
440,24,39560,2,2,B|512:159|448:311,1,285,0|2
336,296,40476,2,0,B|336:244,2,47.5,2|2|2
256,352,40934,5,0
112,224,41163,1,2
256,96,41392,1,0
480,96,41850,6,0,L|376:96|376:96,1,95,0|0
272,96,42308,2,2,B|176:128|136:176|176:256|280:280,1,285,2|2
376,232,43224,1,0
504,128,43567,2,2,B|440:80|368:128,1,142.5,2|2
256,144,44140,2,0,B|184:240|256:328,1,190,0|2
352,264,44827,1,0
464,232,45056,1,0
472,344,45285,1,0
472,344,45399,1,0
472,344,45514,1,0
472,344,45743,5,2
400,256,45973,1,0
312,320,46202,1,0
232,240,46431,1,2
152,312,46660,1,0
40,344,46888,2,0,B|-32:209|40:56,1,285,0|2
136,48,47804,2,0,B|136:0,2,47.5,2|0|0
240,40,48262,1,0
336,144,48720,6,4,B|328:32|416:0|512:16|528:176|512:400|392:392|272:400|264:-8|136:8|0:8|-8:248|8:392|120:416|224:376|184:264,1,1045,0|0
416,296,51926,5,0
280,344,52155,2,0,B|224:264,1,95,2|0
352,96,52727,1,2
352,96,52842,1,0
224,24,53071,2,2,B|96:24,1,95,0|0
8,200,53644,1,2
8,200,53758,1,0
104,304,53987,2,2,B|200:208,1,95,2|0
312,240,54445,1,0
448,208,54674,5,2
448,176,54789,1,2
448,144,54903,1,2
448,112,55017,1,2
448,80,55131,1,2
376,16,55361,5,0
88,24,55819,2,0,B|32:40|16:88,1,95,2|2
208,184,56392,1,0
208,184,56506,1,0
96,264,56735,2,0,B|136:352|208:320,1,95,0|2
320,184,57308,1,2
320,184,57422,1,0
360,320,57651,2,0,B|448:280|416:208,1,95,0|2
280,248,58109,1,0
136,248,58337,5,2
112,232,58452,1,2
88,216,58566,1,2
64,200,58680,1,2
40,184,58794,1,2
56,80,59024,5,0
280,48,59482,1,0
376,96,59712,2,0,B|472:136,1,95,2|0
432,240,60170,2,0,B|392:336,1,95,0|0
280,328,60628,2,0,B|240:232,1,95,2|0
128,240,61086,2,0,B|88:336,1,95,0|0
200,296,61544,2,0,B|296:256,1,95,2|0
288,144,62002,2,0,B|192:104,1,95,0|0
88,104,62460,2,0,L|32:184|104:280,1,190,2|0
176,192,63147,2,2,B|264:192,2,47.5,0|0|0
256,192,63605,12,4,65208
400,120,65666,5,0
440,264,66124,1,0
360,264,66353,1,0
280,264,66582,1,0
248,264,66697,1,0
216,264,66811,1,0
184,264,66926,1,0
152,264,67040,1,0
120,40,67727,5,2
208,72,67956,1,8
280,136,68185,1,0
280,136,68300,1,0
280,136,68414,1,2
272,232,68643,1,0
272,232,68758,1,0
272,232,68872,1,8
208,304,69102,1,0
208,304,69216,1,0
208,304,69331,1,0
272,360,69560,5,0
144,296,69789,1,8
64,192,70018,1,0
144,72,70247,1,0
272,8,70476,1,0
400,72,70705,1,8
472,192,70934,1,0
400,312,71163,1,0
264,368,71392,1,0
264,224,71621,1,8
264,224,71964,6,2,B|280:176|360:96,1,142.5,2|2
440,168,72537,1,8
440,168,72880,2,2,B|424:248|320:280,1,142.5,2|2
296,352,73453,5,8
216,352,73682,1,0
136,352,73911,1,0
56,352,74140,1,0
32,280,74369,2,0,L|0:240,4,47.5,8|0|0|0|0
104,184,75056,5,2
184,136,75285,1,8
272,112,75514,1,2
272,112,75628,1,2
272,112,75743,1,2
368,104,75972,1,0
416,184,76201,2,0,B|536:120|424:40,1,190,8|0
328,32,76888,1,0
232,32,77117,2,0,B|160:32,2,47.5,8|0|0
232,32,77575,1,2
256,192,78033,12,0,80781
432,72,81239,5,8
368,120,81468,1,0
304,80,81697,1,0
304,80,81811,1,0
304,80,81926,2,0,B|264:104|224:168,1,95,0|8
296,200,82384,1,0
296,200,82498,1,0
296,200,82613,1,0
360,240,82842,2,0,B|336:280|272:320,1,95,0|8
216,304,83300,2,0,B|176:280|136:216,1,95,0|0
168,160,83758,5,2
176,120,83873,1,2
192,88,83987,1,10
216,64,84102,1,2
248,48,84216,1,2
288,48,84331,1,2
320,56,84445,1,2
248,160,84674,6,0,B|200:248,1,95,0|8
272,304,85132,1,0
296,288,85247,1,0
320,272,85361,2,0,B|360:216|280:88,1,190,0|8
192,72,86048,1,0
168,80,86163,1,0
144,88,86277,2,0,B|104:144|184:272,1,190,0|8
232,344,86964,1,0
232,344,87079,1,0
232,344,87193,1,0
328,344,87422,1,0
328,344,87537,1,0
328,344,87651,1,8
424,344,87880,2,0,B|424:224,1,95,8|8
464,168,88338,6,2,B|392:96|280:104,1,190
216,104,89025,1,0
136,104,89255,1,2
96,104,89369,1,2
56,104,89484,1,2
200,152,89941,6,0,B|128:224|224:312,2,142.5
256,208,90857,1,2
312,256,91086,1,2
368,304,91315,1,2
312,256,91773,5,0
256,208,92002,1,2
312,256,92231,1,2
368,304,92460,1,0
312,256,92689,2,0,B|400:208|400:112|320:24|192:24|72:88|56:224|104:296|200:320|280:272,1,665,0|4
352,56,95895,6,2,B|328:72|304:88|280:72|232:32|208:16|184:32|160:88,1,190
96,176,97498,1,8
144,176,97727,2,2,B|200:176|216:248,2,95,2|2|2
144,128,98873,1,8
192,128,99102,2,2,B|192:40|296:40,1,142.5,2|10
328,40,100017,2,2,B|400:40|400:144,2,95,2|8|2
288,96,101277,1,0
216,96,101621,2,2,B|144:96|152:200,1,95
152,200,102308,1,0
104,344,102765,5,0
200,344,102994,1,0
296,344,103223,1,0
392,344,103452,2,0,B|456:336|456:256,1,95,0|4
440,56,104140,5,2
336,104,104369,1,0
336,104,104483,1,0
336,104,104598,1,4
224,88,104827,2,0,B|112:64,1,95,0|2
48,144,105285,5,0
48,144,105399,1,0
48,144,105514,1,4
64,256,105743,2,0,B|144:312,1,95,0|2
232,296,106201,5,0
232,296,106315,1,0
232,296,106430,1,4
328,312,106659,2,0,B|400:248,1,95,0|2
400,120,107117,5,0
400,120,107231,1,0
400,120,107346,2,4,B|328:72|296:160|272:176|248:160|208:72|136:120,1,285
256,224,109177,5,4
256,224,109406,5,4
256,224,109635,5,4
96,80,110094,5,0
192,80,110323,1,0
288,80,110552,1,0
192,80,110781,1,0
136,152,111010,2,0,B|104:200|64:256,1,95
168,256,111468,1,2
216,248,111582,1,0
176,216,111697,1,0
256,160,111926,2,0,B|360:224,1,95,0|0
368,120,112384,1,2
376,72,112498,1,0
416,96,112613,1,2
456,184,112842,2,0,B|432:280,1,95
344,248,113300,1,2
296,240,113414,1,0
312,288,113529,1,2
256,376,113758,5,2
32,192,114102,1,0
256,24,114445,1,2
256,24,114674,5,2
32,192,115018,1,0
256,376,115361,1,2
184,280,115590,6,0,B|96:176|192:88|328:80|360:216,1,380,0|0
456,40,117423,5,2
376,120,117651,1,0
280,64,117880,1,2
200,144,118109,1,0
104,80,118338,1,0
32,168,118567,1,0
96,256,118796,1,0
200,216,119025,1,0
280,296,119254,1,0
376,240,119483,1,0
448,328,119712,2,2,B|520:272,4,47.5
152,192,120857,5,2
232,264,121086,1,0
120,296,121315,1,2
40,208,121544,1,0
72,96,121773,1,2
184,96,122002,1,0
360,192,122689,5,2
280,120,122918,1,0
392,88,123147,1,2
472,176,123376,1,0
440,288,123605,1,2
328,288,123834,1,0
104,344,124292,5,0
320,280,124750,5,0
320,168,124979,1,0
320,56,125208,1,0
208,56,125437,1,0
96,56,125666,1,0
96,224,126010,1,0
224,336,126353,2,2,B|320:336,1,95
448,224,126926,1,2
320,336,127269,2,2,B|216:336,1,95,2|2
272,208,127727,5,0
272,168,127842,1,0
272,128,127956,1,0
256,320,128414,5,2
0,192,128758,1,2
256,64,129102,1,2
448,64,129331,1,2
192,192,129674,1,2
448,320,130018,1,2
448,128,130247,5,2
448,128,130705,1,2
448,128,131163,1,4
96,296,132079,5,0
96,296,132193,1,0
136,192,132422,1,0
136,192,132537,1,0
216,272,132766,1,0
216,272,132880,1,0
216,272,132995,1,0
320,224,133224,1,0
232,152,133453,1,0
328,96,133682,1,0
464,304,134140,5,0
368,304,134369,1,2
272,304,134598,1,0
176,304,134827,1,2
272,200,135170,1,2
112,136,135514,1,0
216,88,135743,1,0
144,304,136201,1,2
24,120,136659,6,0,B|312:120,1,285
400,120,137575,2,0,B|472:304,1,190
320,176,138491,2,0,B|320:256|272:304|200:328|128:320|72:288|40:240|32:176|40:88|80:24|120:0|216:-8|296:16|328:96|320:144,1,760,0|2
456,104,140666,5,0
456,272,141010,1,2
256,160,141468,2,0,B|224:208|256:256,1,95,8|8
224,360,141926,1,0
160,264,142155,5,2
160,264,142269,1,0
232,176,142498,1,0
232,176,142613,1,0
160,88,142842,1,2
0,88,143300,2,8,B|0:40,2,47.5,8|8|8
112,88,143758,5,0
40,176,143987,1,2
40,176,144102,1,0
112,264,144331,1,0
112,264,144445,1,0
40,352,144674,1,2
264,352,145132,2,0,B|360:352,1,95,8|8
360,240,145590,5,0
248,240,145819,1,2
248,240,145934,1,0
192,144,146163,1,0
192,144,146277,1,0
248,40,146506,1,2
16,32,146964,2,0,B|-24:80|24:128,1,95,8|8
16,232,147422,5,0
128,232,147651,1,2
128,232,147766,1,0
240,232,147995,1,0
240,232,148109,1,0
352,232,148338,1,2
464,32,148796,2,8,B|512:32,2,47.5,8|8|8
352,32,149254,5,0
240,32,149483,1,2
240,32,149598,1,0
128,32,149827,1,0
128,32,149941,1,0
16,32,150170,1,2
64,256,150628,2,0,B|152:176,1,95,8|8
232,136,151086,5,0
304,224,151315,1,2
304,224,151430,1,0
232,312,151659,1,0
232,312,151773,1,0
152,224,152002,1,2
232,40,152460,5,2
232,80,152575,1,2
232,120,152689,1,2
256,192,153147,12,0,154750
256,192,155208,5,4
