osu file format v9

[General]
AudioFilename: .mp3
AudioLeadIn: 2007
PreviewTime: 69571
Countdown: 0
SampleSet: Soft
StackLeniency: 0.7
Mode: 0
LetterboxInBreaks: 0

[Editor]
Bookmarks: 34263,50263,69263,87263,116263,132263,151263,169263,205263,221263,258263
DistanceSpacing: 0.8
BeatDivisor: 4
GridSize: 8

[Metadata]
Title:Kokoro ni Todoku Uta
Artist:Lia
Creator:Holoaz
Version:Kitsuneko
Source:Shining Hearts
Tags:Patchouli Kitsuneko

[Difficulty]
HPDrainRate:2
CircleSize:3
OverallDifficulty:2
ApproachRate:4
SliderMultiplier:1.5
SliderTickRate:1

[Events]
//Background and Video events
0,0,"BG3.jpg"
//Break Periods
2,11397,32917
2,109437,114917
2,190438,204251
//Storyboard Layer 0 (Background)
//Storyboard Layer 1 (Fail)
//Storyboard Layer 2 (Pass)
//Storyboard Layer 3 (Foreground)
Sprite,Foreground,Centre,"Kitsuneko.png",320,240 F,0,15263,16263,0 F,0,16263,17263,0,1 M,0,17263,,215,181 F,0,17263,30263,1 S,0,17263,30263,0.7312 S,0,30263,30430,0.7312,0.9295999 F,0,30263,31263,1,0 S,0,30430,31263,0.9295999,1.0384
//Storyboard Sound Samples
//Background Colour Transformations
3,100,163,162,255

[TimingPoints]
835,480,3,2,1,30,1,0
8755,-100,3,2,1,20,0,0
9515,560.747663551402,3,2,1,20,1,0
14238,333.333333333333,3,2,1,50,1,0
34071,-133.333333333333,3,2,1,30,0,0
48071,-133.333333333333,3,2,1,40,0,0
68071,-133.333333333333,3,2,1,25,0,0
69404,-133.333333333333,3,2,1,40,0,0
70237,-133.333333333333,3,2,1,60,0,1
81737,-133.333333333333,3,2,1,40,0,1
109071,-133.333333333333,3,2,1,30,0,1
109237,-133.333333333333,3,2,1,50,0,0
116071,-133.333333333333,3,2,1,30,0,0
121154,-133.333333333333,3,2,1,35,0,0
121487,-133.333333333333,3,2,1,40,0,0
121821,-133.333333333333,3,2,1,45,0,0
130154,-133.333333333333,3,2,1,50,0,0
150071,-133.333333333333,3,2,1,30,0,0
151237,-133.333333333333,3,2,1,40,0,0
152237,-133.333333333333,3,2,1,60,0,1
163737,-133.333333333333,3,2,1,40,0,1
190071,-133.333333333333,3,2,1,30,0,1
190237,-133.333333333333,3,2,1,30,0,0
205237,-200,3,2,1,30,0,0
220154,-200,3,2,1,40,0,0
221154,-200,3,2,1,50,0,0
221404,-133.333333333333,3,2,1,40,0,0
222237,-133.333333333333,3,2,1,60,0,1
233737,-133.333333333333,3,2,1,40,0,1
262237,-133.333333333333,3,2,1,35,0,0

[Colours]
Combo1 : 255,128,0
Combo2 : 128,255,255
Combo3 : 128,255,128

[HitObjects]
184,296,1315,2,0,B|264:288|336:328,2,150
72,328,2755,1,0
104,216,3235,1,2
104,96,3715,6,0,B|216:96|240:192|392:192,1,300
472,272,5155,2,0,B|408:312|320:288,1,150
208,264,6115,1,2
288,176,6595,1,0
256,64,7075,2,0,B|176:56|104:88,2,150,0|0|0
352,136,8515,6,0,B|392:200|472:240,1,150,0|2
376,320,9515,2,0,B|248:232|72:288,1,300,0|2
48,168,11197,1,0
296,240,34237,6,0,B|413:110|532:216|414:347,2,337.499989941716,0|2|0
224,184,36571,2,0,B|144:264|8:240,1,224.999993294478,0|2
40,152,37571,1,0
256,96,38237,6,0,B|368:40|480:112,1,224.999993294478,0|2
440,192,39237,1,0
440,192,39904,1,2
400,272,40237,2,0,B|320:216|272:368|72:256,1,337.499989941716,0|2
424,104,42238,6,0,B|250:20|333:291|135:186,2,337.499989941716,0|2|0
496,160,44571,2,0,B|504:296|384:368,1,224.999993294478,0|2
320,320,45571,1,0
232,160,46238,6,0,B|208:104|128:96,1,112.499996647239
152,256,47238,2,0,B|91:254|50:323,1,112.499996647239,2|0
320,272,48238,2,0,B|370:305|442:269,1,112.499996647239
432,80,49238,5,2
342,45,49571,1,2
255,44,49904,1,0
168,64,50238,6,0,B|56:120|64:256,1,224.999993294478,4|2
104,328,51238,1,0
104,328,51904,1,2
192,296,52238,6,0,B|264:352|352:320,2,168.749994970858,0|2|2
208,208,53571,2,0,B|168:160|104:152,1,112.499996647239,2|2
72,72,54238,6,0,B|184:32|304:48,1,224.999993294478,0|2
376,88,55238,2,0,B|432:72|496:88,2,112.499996647239,0|2|2
304,144,56238,1,0
304,144,56904,2,0,B|240:136|192:200,1,112.499996647239,2|2
248,264,57571,1,2
200,336,57904,1,2
112,336,58238,6,0,B|32:312|32:168|64:136,1,224.999993294478,0|2
48,48,59238,2,0,B|160:48|128:144|264:144,1,224.999993294478,0|2
320,96,60238,6,0,B|424:96|488:160,1,168.749994970858,0|2
352,216,61238,2,0,B|440:240|480:352,1,168.749994970858,0|2
328,328,62238,1,0
48,128,63238,6,0,B|32:184|88:232,1,112.499996647239,2|2
160,280,63904,2,0,B|216:296|272:256,1,112.499996647239,2|2
304,176,64571,2,0,B|296:112|232:80,2,112.499996647239,0|2|2
368,240,65571,2,0,B|416:272|488:264,1,112.499996647239,2|2
256,192,66238,12,4,68238
144,72,69571,6,0,B|72:88|32:128,1,112.499996647239,0|2
88,200,70238,2,0,B|80:280|112:320,1,112.499996647239
192,344,70904,1,2
192,256,71238,2,0,B|280:176|400:176,1,224.999993294478,0|2
464,240,72238,1,0
336,280,72738,2,0,B|272:208|272:128,1,168.749994970858,2|0
328,56,73571,1,0
416,64,73904,1,2
368,136,74238,5,0
368,136,74904,2,0,B|432:168|456:224,2,112.499996647239,2|0|0
288,176,75904,1,2
336,248,76238,2,0,B|297:349|152:360,1,224.999993294478,0|2
112,280,77238,2,2,B|0:280,2,112.499996647239
96,192,78237,6,0,B|184:112|312:144,1,224.999993294478,0|2
352,64,79237,2,0,B|416:88|456:144,2,112.499996647239,0|0|2
305,142,80237,2,0,B|256:224|296:304,2,168.749994970858,0|2|0
295,303,81904,6,0,B|240:336|168:344,1,112.499996647239,2|2
296,304,82904,2,0,B|223:289|191:249,1,112.499996647239,0|2
256,88,83904,1,2
256,192,84237,12,4,86237
408,88,87571,6,0,B|464:112|504:184,1,112.499996647239,0|2
416,216,88237,1,2
416,216,88904,2,0,B|368:264|296:272,1,112.499996647239,2|0
296,184,89571,2,0,B|280:123|224:92,1,112.499996647239,2|2
144,80,90237,1,2
144,80,90571,2,0,B|32:88|32:200|64:264,1,224.999993294478,0|2
368,312,91904,6,0,B|320:344|248:352,1,112.499996647239,2|2
200,184,92904,2,0,B|168:248|184:304,2,112.499996647239,2|2|0
280,144,93904,1,2
328,64,94237,2,0,B|408:64|440:80,2,112.499996647239,0|2|2
240,64,95237,2,0,B|120:56|24:136,1,224.999993294478,0|2
72,208,96237,6,0,B|40:256|64:320,1,112.499996647239,0|2
200,200,97237,2,0,B|256:200|256:168|320:168,2,112.499996647239,2|2|2
184,288,98237,1,2
184,288,98571,2,0,B|304:272|272:344|416:328,1,224.999993294478,0|2
408,128,99904,5,2
336,72,100237,2,0,B|216:40|120:112,1,224.999993294478,0|2
80,192,101237,1,0
80,192,101904,1,2
120,272,102237,6,0,B|80:304|8:312,2,112.499996647239,0|2|2
208,248,103237,2,0,B|272:280|280:352,2,112.499996647239,2|2|2
256,168,104237,5,0
224,80,104571,2,0,B|112:80,2,112.499996647239,2|2|2
312,80,105571,2,0,B|392:80|424:128,1,112.499996647239,0|2
256,192,106237,12,0,109237
72,168,116237,6,0,B|-4:300|137:403|240:290,2,337.499989941716,0|2|0
152,128,118571,1,0
320,184,119237,2,0,B|384:144|408:216,2,112.499996647239,2|2|2
320,272,120237,6,0,B|232:352|96:320,1,224.999993294478,0|2
32,280,121237,1,0
16,192,121571,1,2
48,112,121904,1,2
128,64,122237,6,0,B|240:64|240:104|368:104,1,224.999993294478,0|2
440,104,123237,1,0
464,192,123571,2,0,B|352:192,1,112.499996647239,4|4
264,192,124237,6,0,B|176:160|64:200|48:224,1,224.999993294478,0|2
32,312,125237,2,0,B|96:344|160:344,1,112.499996647239,0|2
304,272,126237,1,0
304,272,127237,2,0,B|384:272|432:240,1,112.499996647239,2|2
472,184,127904,1,2
432,104,128237,6,0,B|352:32|216:56,1,224.999993294478,0|2
144,104,129237,2,0,B|80:104|32:128,2,112.499996647239,0|2|2
216,160,130237,5,0
216,160,130904,1,2
256,240,131237,2,0,B|312:240|336:216|376:216,2,112.499996647239,0|2|2
176,272,132237,6,0,B|144:320|64:344,1,112.499996647239,4|0
40,264,132904,1,2
32,176,133237,2,0,B|86:194|164:163,1,112.499996647239,0|2
288,72,134237,6,0,B|424:16|504:104,1,224.999993294478,0|2
440,168,135237,2,0,B|488:208|488:288,1,112.499996647239,0|2
416,320,135904,1,2
336,272,136237,6,0,B|296:320|192:360|112:336,1,224.999993294478,0|2
144,248,137237,2,0,B|80:248|32:184,1,112.499996647239,0|2
256,136,138237,6,0,B|200:112|136:152,2,112.499996647239,0|2|2
344,112,139237,2,0,B|320:48|240:48,2,112.499996647239,2|2|2
320,200,140237,5,0
232,208,140571,2,0,B|160:216|80:144|16:152,1,224.999993294478,2|0
32,240,141571,1,2
192,320,142237,6,0,B|272:352|360:320,1,168.749994970858,0|2
280,208,143237,2,0,B|192:216|112:152,2,168.749994970858,0|2|0
280,208,145237,1,2
368,224,145571,6,0,B|408:160|464:152,2,112.499996647239,0|2|0
360,312,146571,2,0,B|320:352|256:360,1,112.499996647239,0|2
208,288,147237,2,0,B|176:240|104:216,2,112.499996647239,2|2|2
256,192,148237,12,4,150237
144,120,151571,6,0,B|200:96|264:104,1,112.499996647239,0|2
336,64,152237,2,0,B|400:88|448:136,1,112.499996647239
464,208,152904,1,2
376,224,153237,6,0,B|272:184|152:216,1,224.999993294478,0|2
72,248,154237,1,0
200,288,154737,2,0,B|256:216|232:112,1,168.749994970858,2|0
200,40,155571,1,0
112,72,155904,1,2
112,160,156237,6,0,B|48:200|32:248,1,112.499996647239
104,296,156904,1,2
184,328,157237,2,0,B|264:328|272:280|432:296,1,224.999993294478,0|2
488,256,158238,5,0
456,168,158571,2,0,B|464:104|432:48,1,112.499996647239,0|2
360,104,159238,2,0,B|384:160|336:224,2,112.499996647239,2|2|2
280,64,160238,6,0,B|176:16|40:48,1,224.999993294478,0|2
104,128,161238,2,0,B|16:136|-16:160,2,112.499996647239,0|0|2
192,128,162238,2,0,B|272:136|288:192|408:192,1,224.999993294478,0|2
405,191,163238,1,0
256,288,163904,6,0,B|200:328|136:336,1,112.499996647239,2|2
176,152,164904,2,0,B|128:208|72:224,1,112.499996647239,0|2
256,128,165904,1,2
256,192,166238,12,2,168238
264,304,169571,6,0,B|216:264|144:256,1,112.499996647239,0|2
200,176,170238,1,0
256,104,170571,2,0,B|336:24|480:64,1,224.999993294478,2|2
504,144,171571,2,0,B|488:208|416:240,1,112.499996647239,0|2
352,272,172238,1,0
352,272,172571,2,0,B|269:171|144:216,1,224.999993294478,0|2
0,312,173904,6,0,B|56:264|120:296,1,112.499996647239,0|2
256,192,174904,2,0,B|200:240|136:208,1,112.499996647239,0|2
168,32,175904,1,2
256,56,176238,2,0,B|352:88|424:32,2,168.749994970858
72,144,177904,5,2
128,72,178238,2,0,B|256:48|352:96,1,224.999993294478,0|2
408,160,179238,2,8,B|456:136|520:144,2,112.499996647239,0|2|2
328,200,180238,1,0
392,264,180571,2,0,B|328:328|256:272|168:352,1,224.999993294478,2|2
256,152,181904,5,2
200,80,182238,2,0,B|144:88|80:112,2,112.499996647239,0|2|2
288,64,183238,2,0,B|352:56|408:64,2,112.499996647239,2|2|2
256,152,184238,2,0,B|256:264|376:208|376:336,1,224.999993294478,0|2
296,360,185238,1,2
208,344,185571,1,2
192,256,185904,6,0,B|160:256|128:224|72:224,1,112.499996647239,2|0
112,136,186571,2,0,B|-8:136,2,112.499996647239,2|2|2
200,104,187571,2,0,B|256:144|256:200,1,112.499996647239,0|2
256,192,188238,12,4,190238
48,144,205571,6,0,B|80:64|168:64,1,150
344,64,207238,1,2
472,192,208238,2,0,B|384:192|384:264|256:256,1,225
88,192,210238,5,0
256,128,211238,1,2
192,296,212238,2,0,B|312:328|400:224,1,225
288,72,214238,5,0
112,96,215238,1,2
48,264,216238,2,0,B|160:272|264:352,1,225
256,152,218238,5,0
232,240,219238,1,2
288,320,220238,2,0,B|416:304|464:192,1,225,0|4
464,104,221571,6,0,B|408:64|344:64,1,112.499996647239,0|2
272,72,222238,1,0
272,72,222904,1,2
184,56,223238,2,0,B|64:88|8:192,1,224.999993294478,0|2
24,280,224238,1,0
160,280,224738,2,0,B|232:280|232:328|336:328,1,168.749994970858,2|0
448,208,225904,5,2
448,208,226238,2,0,B|392:240|328:224,2,112.499996647239,0|0|2
440,120,227238,2,0,B|360:80|360:168|216:96,1,224.999993294478,0|2
136,128,228238,6,0,B|64:112|32:56,2,112.499996647239,0|2|2
168,216,229238,2,0,B|96:224|48:200,2,112.499996647239,2|2|2
256,200,230238,6,0,B|368:184|472:256,1,224.999993294478,0|2
424,336,231238,2,0,B|320:312|320:368|200:336,1,224.999993294478,0|2
112,320,232238,1,0
64,192,232738,1,2
176,120,233238,1,2
344,48,233904,6,0,B|408:72|432:120,1,112.499996647239,0|2
296,232,234904,2,0,B|329:291|257:291|257:339,1,112.499996647239,0|2
256,144,235904,1,2
256,192,236238,12,4,238238
112,144,239571,6,0,B|48:192|104:248,1,112.499996647239,0|2
184,272,240238,2,0,B|256:272|312:352|424:312,1,224.999993294478,0|2
464,256,241238,1,0
464,256,241904,1,2
464,168,242238,2,0,B|408:176|336:160,2,112.499996647239,0|2|2
464,80,243238,1,0
280,72,243904,5,2
192,88,244238,2,0,B|112:80|64:96,2,112.499996647239,0|0|2
232,168,245238,2,0,B|336:208|456:176,1,224.999993294478,0|2
464,264,246238,1,0
352,336,246738,1,2
224,288,247238,1,2
72,192,247904,6,0,B|48:248|72:304,1,112.499996647239,2|0
144,248,248571,1,0
176,168,248904,2,0,B|224:128|280:128,1,112.499996647239,2|0
344,192,249571,1,2
344,192,249904,1,2
432,176,250238,2,0,B|464:232|424:296,1,112.499996647239,0|2
256,328,251238,1,2
168,296,251571,1,2
136,216,251904,1,2
144,128,252238,6,0,B|216:72|304:80,2,168.749994970858,0|2|2
72,80,253571,1,0
40,160,253904,1,2
88,240,254238,2,0,B|264:240|168:328|416:328,1,337.499989941716,0|2
384,240,255571,6,2,B|448:240|488:200,1,112.499996647239
440,128,256238,1,0
384,64,256571,5,2
296,64,256904,1,2
240,128,257238,1,2
256,216,257571,2,0,B|272:248|240:280|256:328,1,112.499996647239,0|2
256,192,258238,12,4,262238
