osu file format v10

[General]
AudioFilename: Kizunairo.mp3
AudioLeadIn: 2000
PreviewTime: 51033
Countdown: 0
SampleSet: Soft
StackLeniency: 0.7
Mode: 0
LetterboxInBreaks: 1

[Editor]
Bookmarks: 21033,36033,51033,79158,86658
DistanceSpacing: 1
BeatDivisor: 2
GridSize: 4

[Metadata]
Title:Kizunairo (TV Size)
TitleUnicode:Kizunairo (TV Size)
Artist:Lia
ArtistUnicode:Lia
Creator:-Kirito
Version:Normal
Source:FORTUNE ARTERIAL: Akai Yakusoku
Tags:opening aka
BeatmapID:185905
BeatmapSetID:62740

[Difficulty]
HPDrainRate:4
CircleSize:3
OverallDifficulty:4
ApproachRate:5
SliderMultiplier:1.4
SliderTickRate:2

[Events]
//Background and Video events
Video,0,"BGA.avi"
0,0,"BG.jpg"
//Break Periods
//Storyboard Layer 0 (Background)
//Storyboard Layer 1 (Fail)
//Storyboard Layer 2 (Pass)
//Storyboard Layer 3 (Foreground)
//Storyboard Sound Samples
//Background Colour Transformations
3,100,163,162,255

[TimingPoints]
408,468.75,4,2,1,40,1,0
12595,-100,4,2,1,60,0,0
12829,-100,4,2,1,30,0,0
13064,-100,4,2,1,40,0,0
13298,-100,4,2,1,50,0,0
13533,-100,4,2,1,60,0,0
15408,-100,4,2,1,30,0,0
21033,-100,4,2,1,60,0,0
26189,-100,4,2,2,60,0,0
26423,-100,4,2,1,60,0,0
27126,-100,4,2,2,60,0,0
27361,-100,4,2,1,60,0,0
28064,-100,4,2,2,60,0,0
28298,-100,4,2,1,60,0,0
35798,-100,4,2,1,50,0,0
36033,-100,4,2,1,60,0,0
47751,-100,4,2,1,30,0,0
48220,-100,4,2,1,40,0,0
48689,-100,4,2,1,50,0,0
49158,-100,4,2,1,60,0,0
50095,-100,4,2,1,60,0,0
51033,-100,4,2,1,60,0,1
57595,-100,4,2,1,60,0,0
58533,-100,4,2,1,60,0,1
64158,-100,4,2,1,60,0,0
66033,-100,4,2,1,60,0,1
68376,-100,4,2,2,60,0,1
68611,-100,4,2,1,60,0,1
79158,-100,4,2,1,60,0,0

[Colours]
Combo1 : 255,128,0
Combo2 : 234,234,0
Combo3 : 192,192,192
Combo4 : 240,5,5
Combo5 : 255,128,64

[HitObjects]
80,76,407,1,2,0:0:0
192,84,876,2,0,B|264:80|324:28,2,140
128,176,2283,1,2,0:0:0
432,344,3454,6,0,B|408:304|384:292,1,70
320,264,3923,1,0,0:0:0
248,272,4158,1,2,0:0:0
292,52,5329,6,0,B|256:44|220:52,1,70
176,84,5798,2,0,B|156:116|156:156,1,70,0|2,0:0|0:0,0:0:0
256,288,6736,1,2,0:0:0
356,232,7204,2,0,B|396:228|424:212,2,70
304,208,7908,6,0,B|268:152|256:72,1,140,2|8,0:0|0:0,0:0:0
124,28,8845,2,0,B|160:84|172:164,1,140,2|8,0:0|0:0,0:0:0
80,268,9783,2,0,B|156:236|212:300,1,140,2|8,0:0|0:0,0:0:0
256,352,10486,2,0,B|224:276|288:220,1,140,2|0,0:0|0:0,0:0:0
352,200,11189,1,8,0:0:0
344,80,11658,5,0,0:0:0
256,152,12126,1,2,0:0:0
168,80,12595,2,0,B|132:88|100:104,4,70,0|0|8|8|4,0:0|0:0|0:0|0:0|0:0,0:0:0
256,152,14001,5,8,0:0:0
256,264,14470,1,0,0:0:0
352,208,14939,1,8,0:0:0
256,192,15408,12,0,20095,0:0:0
256,256,21033,5,4,0:0:0
256,256,21501,1,8,0:0:0
164,192,21970,2,0,B|76:180,2,70,0|0|8,0:0|0:0|0:0,0:0:0
188,84,22908,2,0,B|256:60|328:84,1,140,0|8,0:0|0:0,0:0:0
348,192,23845,6,0,B|436:180,2,70,0|0|8,0:0|0:0|0:0,0:0:0
324,300,24783,2,0,B|256:324|184:300,1,140,0|8,0:0|0:0,0:0:0
128,204,25720,6,0,B|176:172|256:148|256:148|336:172|384:204,3,280,0|2|2|2,0:0|0:0|0:0|0:0,0:0:0
448,296,29001,6,0,B|384:304|304:280,1,140,12|0,0:0|0:0,0:0:0
196,284,29939,2,0,B|122:307|58:299,1,140,8|0,0:0|0:0,0:0:0
96,192,30876,2,0,B|96:120|72:48,2,140,8|0|8,0:0|0:0|0:0,0:0:0
204,168,32283,6,0,B|220:136|220:100,2,70,0|2|8,0:0|0:0|0:0,0:0:0
284,248,33220,1,0,0:0:0
284,248,33689,2,0,B|348:204|368:136,1,140,8|0,0:0|0:0,0:0:0
360,84,34392,2,0,B|344:52|308:28,1,70,0|8,0:0|0:0,0:0:0
212,80,35095,1,0,0:0:0
100,100,35564,2,0,B|69:80|53:48,2,70,8|0|4,0:0|0:0|0:0,0:0:0
140,204,36501,5,8,0:0:0
188,232,36736,2,0,B|256:260|336:232,1,140,2|0,0:0|0:0,0:0:0
372,204,37439,1,8,0:0:0
304,112,37908,6,0,B|264:48|188:32,1,140,2|8,0:0|0:0,0:0:0
136,44,38611,2,0,B|72:84|56:160,1,140,6|0,0:0|0:0,0:0:0
56,212,39314,1,8,0:0:0
112,312,39783,1,4,0:0:0
220,340,40251,6,0,B|280:292|356:308,1,140,8|0,0:0|0:0,0:0:0
416,216,41189,2,0,B|368:156|384:80,1,140,8|0,0:0|0:0,0:0:0
288,24,42126,1,8,0:0:0
288,24,42361,2,0,B|228:72|152:56,1,140,8|8,0:0|0:0,0:0:0
104,36,43064,1,8,0:0:0
72,144,43533,6,0,B|112:204|100:284,1,140,4|8,0:0|0:0,0:0:0
152,324,44236,2,0,B|256:308|256:308|360:324,1,210,2|4,0:0|0:0,0:0:0
440,224,45408,6,0,B|376:180|368:100,1,140,8|8,0:0|0:0,0:0:0
324,56,46111,2,0,B|256:76|256:76|188:56,1,140,2|0,0:0|0:0,0:0:0
144,108,46814,2,0,B|136:179|72:223,1,140,8|8,0:0|0:0,0:0:0
16,352,47751,5,8,0:0:0
152,320,48220,1,8,0:0:0
288,348,48689,1,8,0:0:0
428,356,49158,2,0,B|396:296|376:224,1,140,4|0,0:0|0:0,0:0:0
452,108,50095,2,8,B|512:72,2,70
344,64,51033,6,0,B|276:64|204:40,1,140,4|8,0:0|0:0,0:0:0
96,124,51970,2,0,B|120:192|96:268,1,140,2|8,0:0|0:0,0:0:0
208,344,52908,2,0,B|276:320|348:320,1,140,2|8,0:0|0:0,0:0:0
416,308,53611,2,0,B|468:240,1,70,2|0,0:0|0:0,0:0:0
484,128,54314,1,8,0:0:0
380,56,54783,6,0,B|304:36,2,70,4|0|8,0:0|0:0|0:0,0:0:0
264,108,55720,2,0,B|188:104,2,70,0|0|8,0:0|0:0|0:0,0:0:0
256,236,56658,5,2,0:0:0
144,296,57126,1,8,0:0:0
148,172,57595,1,0,0:0:0
52,92,58064,1,8,0:0:0
164,44,58533,6,0,B|232:20|304:44,1,140,4|8,0:0|0:0,0:0:0
388,116,59470,2,0,B|320:140|248:116,1,140,2|8,0:0|0:0,0:0:0
136,192,60408,6,0,B|160:260|136:332,1,140,2|8,0:0|0:0,0:0:0
200,312,61111,2,0,B|276:304|336:340,1,140,4|0,0:0|0:0,0:0:0
392,360,61814,2,0,B|432:364|460:340,2,70,8|0|4,0:0|0:0|0:0,0:0:0
440,228,62751,5,8,0:0:0
480,168,62986,2,0,B|476:92|420:40,1,140,2|0,0:0|0:0,0:0:0
356,36,63689,1,10,0:0:0
256,104,64158,6,0,B|256:212,2,105,8|2|8,0:0|0:0|0:0,0:0:0
120,72,65329,2,0,B|48:96|20:188|60:252,1,210,0|4,0:0|0:0,0:0:0
156,340,66501,5,8,0:0:0
256,288,66970,1,0,0:0:0
356,340,67439,1,8,0:0:0
414,244,67908,2,0,B|464:180|444:84|384:44|312:48,1,280,2|0,0:0|0:0,0:0:0
256,144,69314,1,12,0:0:0
164,84,69783,6,0,B|128:68|108:40,2,70,0|0|8,0:0|0:0|0:0,0:0:0
144,196,70720,2,0,B|108:264|128:336,1,140,0|8,0:0|0:0,0:0:0
240,344,71658,6,0,B|276:352|312:344,1,70,2|0,0:0|0:0,0:0:0
360,320,72126,2,0,B|388:296|400:256,1,70,8|0,0:0|0:0,0:0:0
400,208,72595,2,0,B|396:176|368:144,2,70,0|0|8,0:0|0:0|0:0,0:0:0
288,228,73533,6,0,B|148:244,1,140,6|8,0:0|0:0,0:0:0
60,176,74470,2,0,B|200:160,1,140,2|8,0:0|0:0,0:0:0
292,96,75408,6,0,B|312:28,2,70,2|0|8,0:0|0:0|0:0,0:0:0
296,168,76111,2,0,B|388:228|396:348,1,210,4|8,0:0|0:0,0:0:0
256,360,77283,5,2,0:0:0
116,336,77751,1,8,0:0:0
80,200,78220,2,0,B|40:136,2,70,8|8|8,0:0|0:0|0:0,0:0:0
224,212,79158,6,0,B|264:276,2,70,4|0|8,0:0|0:0|0:0,0:0:0
176,80,80095,2,0,B|240:44|240:44|308:36,1,140,0|8,0:0|0:0,0:0:0
440,72,81033,6,0,B|440:144|480:208,1,140,2|8,0:0|0:0,0:0:0
392,320,81970,2,0,B|324:292|248:320,1,140,0|8,0:0|0:0,0:0:0
120,340,82908,6,0,B|104:272|104:272|120:200,1,140,0|8,0:0|0:0,0:0:0
132,148,83611,2,0,B|108:112|76:96,2,70,0|2|0,0:0|0:0|0:0,0:0:0
188,144,84314,2,0,B|256:160|256:160|332:144,1,140,8|2,0:0|0:0,0:0:0
412,216,85251,1,8,0:0:0
444,108,85720,1,2,0:0:0
356,36,86189,1,8,0:0:0
256,192,86658,12,4,88533,0:0:0
