osu file format v10

[General]
AudioFilename: Kizunairo.mp3
AudioLeadIn: 2000
PreviewTime: 51033
Countdown: 0
SampleSet: Soft
StackLeniency: 0.7
Mode: 0
LetterboxInBreaks: 1

[Editor]
Bookmarks: 21033,36033,51033,79158,86658
DistanceSpacing: 1
BeatDivisor: 2
GridSize: 8

[Metadata]
Title:Kizunairo (TV Size)
TitleUnicode:Kizunairo (TV Size)
Artist:Lia
ArtistUnicode:Lia
Creator:-Kirito
Version:Easy
Source:FORTUNE ARTERIAL: Akai Yakusoku
Tags:opening aka
BeatmapID:185902
BeatmapSetID:62740

[Difficulty]
HPDrainRate:2
CircleSize:3
OverallDifficulty:2
ApproachRate:3
SliderMultiplier:1
SliderTickRate:2

[Events]
//Background and Video events
Video,0,"BGA.avi"
0,0,"BG.jpg"
//Break Periods
//Storyboard Layer 0 (Background)
//Storyboard Layer 1 (Fail)
//Storyboard Layer 2 (Pass)
//Storyboard Layer 3 (Foreground)
//Storyboard Sound Samples
//Background Colour Transformations
3,100,163,162,255

[TimingPoints]
408,468.75,4,2,1,40,1,0
13064,-100,4,2,2,60,0,0
13298,-100,4,2,1,60,0,0
20095,-100,4,2,1,50,0,0
21033,-100,4,2,1,60,0,0
27126,-100,4,2,2,60,0,0
27361,-100,4,2,1,60,0,0
28064,-100,4,2,2,60,0,0
28298,-100,4,2,1,60,0,0
32751,-100,4,2,2,60,0,0
32986,-100,4,2,1,60,0,0
36033,-100,4,2,1,60,0,0
36501,-100,4,2,2,60,0,0
36736,-100,4,2,1,60,0,0
38376,-100,4,2,2,60,0,0
38611,-100,4,2,1,60,0,0
47283,-100,4,2,1,30,0,0
47751,-100,4,2,1,40,0,0
48220,-100,4,2,1,50,0,0
48689,-100,4,2,1,60,0,0
49158,-100,4,2,1,65,0,0
51033,-100,4,2,1,60,0,1
53376,-100,4,2,2,60,0,1
53611,-100,4,2,1,60,0,1
55251,-100,4,2,2,60,0,1
55486,-100,4,2,1,60,0,1
57126,-100,4,2,2,60,0,1
57361,-100,4,2,1,60,0,1
57595,-100,4,2,1,60,0,0
58533,-100,4,2,1,60,0,1
60876,-100,4,2,2,60,0,1
61111,-100,4,2,1,60,0,1
64158,-100,4,2,1,60,0,0
65564,-100,4,2,1,50,0,0
66033,-100,4,2,1,60,0,1
68376,-100,4,2,2,60,0,1
68611,-100,4,2,1,60,0,1
70251,-100,4,2,2,60,0,1
70486,-100,4,2,1,60,0,1
72126,-100,4,2,2,60,0,1
72361,-100,4,2,1,60,0,1
77751,-100,4,2,2,60,0,1
77986,-100,4,2,1,60,0,1
79158,-100,4,2,1,60,0,0
79626,-100,4,2,2,60,0,0
79861,-100,4,2,1,60,0,0
85251,-100,4,2,2,60,0,0
85486,-100,4,2,1,60,0,0
87126,-100,4,2,2,60,0,0
87361,-100,4,2,1,60,0,0

[Colours]
Combo1 : 255,128,0
Combo2 : 234,234,0
Combo3 : 192,192,192
Combo4 : 240,5,5
Combo5 : 255,128,64

[HitObjects]
160,64,408,2,0,B|256:16|352:64,2,200,2|0|2,0:0|0:0|0:0,0:0:0
48,288,3454,6,0,B|80:312|120:312|120:312|192:312,1,150,0|2,0:0|0:0,0:0:0
442,312,5329,2,0,B|410:288|370:288|370:288|298:288,1,150,0|2,0:0|0:0,0:0:0
200,172,6736,1,2,0:0:0
440,240,7908,6,0,B|440:304|472:336,2,100,2|8|2,0:0|0:0|0:0,0:0:0
368,168,9314,1,8,0:0:0
280,120,9783,6,0,B|208:120|128:144,1,150,0|4,0:0|0:0,0:0:0
132,244,10954,2,0,B|207:266|279:266,1,150,0|2,0:0|0:0,0:0:0
344,192,12126,5,2,0:0:0
276,120,12595,2,0,B|204:48|92:48,1,200,0|4,0:0|0:0,0:0:0
40,132,14001,2,0,B|112:204|224:204,1,200,8|8,0:0|0:0,0:0:0
256,192,15408,12,0,20095,0:0:0
208,272,21033,6,0,B|256:296|304:272,1,100,4|8,0:0|0:0,0:0:0
352,184,21970,2,0,B|304:160|256:184,1,100,2|8,0:0|0:0,0:0:0
176,120,22908,1,0,0:0:0
248,56,23376,2,8,B|344:56|344:56|400:56|456:40,1,200
472,136,24783,5,0,0:0:0
400,200,25251,2,0,B|400:304,1,100,8|0,0:0|0:0,0:0:0
304,352,26189,6,0,B|272:320|272:256|272:256|240:240|192:240|192:240|176:208|160:192|160:192|176:176|192:144|192:144|240:144|288:128|288:128|288:64|320:32,1,500,8|2,0:0|0:0,0:0:0
416,36,29001,6,0,B|448:76|464:132,1,100,12|0,0:0|0:0,0:0:0
388,192,29939,1,8,0:0:0
461,259,30408,2,0,B|448:308|416:348,2,100,0|8|0,0:0|0:0|0:0,0:0:0
388,192,31814,1,8,0:0:0
300,148,32283,6,0,B|216:136|184:44,1,150,2|0,0:0|0:0,0:0:0
64,144,33689,2,0,B|80:192|80:192|64:248,1,100,8|2,0:0|0:0,0:0:0
160,280,34626,2,0,B|256:256|256:256|360:280,1,200,8|8,0:0|0:0,0:0:0
440,232,36033,6,0,B|472:80,2,150,4|2|8,0:0|0:0|0:0,0:0:0
368,304,37908,2,0,B|208:360,2,150,2|4|8,0:0|0:0|0:0,0:0:0
344,208,39783,2,0,B|272:136,1,100,4|8,0:0|0:0,0:0:0
192,80,40720,2,0,B|144:64|92:80,1,100,2|8,0:0|0:0,0:0:0
32,160,41658,5,2,0:0:0
76,248,42126,2,0,B|108:292|108:344,1,100,8|0,0:0|0:0,0:0:0
208,320,43064,2,0,B|256:296|304:320,1,100,8|4,0:0|0:0,0:0:0
400,288,44001,2,0,B|428:187,2,100,8|0|12,0:0|0:0|0:0,0:0:0
304,320,45408,6,0,B|344:176,2,150,2|4|10,0:0|0:0|0:0,0:0:0
204,340,47283,6,8,B|100:340,1,100
36,264,48220,1,8,0:0:0
36,163,48689,1,8,0:0:0
92,80,49158,2,0,B|168:44|248:44,2,150,4|0|8,0:0|0:0|0:0,0:0:0
96,176,51033,6,0,B|96:240|120:288,1,100,4|8,0:0|0:0,0:0:0
208,312,51970,2,0,B|256:336|304:312,1,100,0|8,0:0|0:0,0:0:0
400,272,52908,2,0,B|436:200|436:120,2,150,2|2|8,0:0|0:0|0:0,0:0:0
300,256,54783,6,0,B|208:184|240:72,1,200,4|0,0:0|0:0,0:0:0
148,36,56189,1,8,0:0:0
64,92,56658,2,0,B|96:192|64:296,1,200
148,348,58064,1,8,0:0:0
240,312,58533,6,0,B|288:296|344:312,1,100,4|8,0:0|0:0,0:0:0
408,240,59470,2,0,B|388:192|408:136,1,100,2|8,0:0|0:0,0:0:0
336,72,60408,2,0,B|256:80|192:40,2,150,2|4|8,0:0|0:0|0:0,0:0:0
432,48,62283,5,4,0:0:0
408,144,62751,1,8,0:0:0
432,240,63220,1,0,0:0:0
408,336,63689,1,8,0:0:0
312,344,64158,6,0,B|240:352|160:344,1,150,4|0,0:0|0:0,0:0:0
168,192,65564,2,0,B|216:184|272:192,1,100,8|4,0:0|0:0,0:0:0
352,244,66501,6,0,B|404:244|452:208,1,100,8|0,0:0|0:0,0:0:0
480,120,67439,1,8,0:0:0
424,36,67908,2,0,B|316:16|248:112,1,200,2|0,0:0|0:0,0:0:0
264,208,69314,1,12,0:0:0
172,172,69783,6,0,B|96:144|84:52,2,150,2|0|8,0:0|0:0|0:0,0:0:0
264,208,71658,2,0,B|340:236|352:328,2,150,2|4|8,0:0|0:0|0:0,0:0:0
180,264,73533,6,0,B|132:284|80:288,1,100,2|8,0:0|0:0,0:0:0
4,228,74470,1,2,0:0:0
20,128,74939,1,8,0:0:0
100,64,75408,6,0,B|192:64|192:64|224:64|252:80,1,150,2|4,0:0|0:0,0:0:0
328,144,76579,2,0,B|352:192|328:240,1,100
288,272,77283,6,0,B|196:272|196:272|164:272|136:256,2,150,2|4|8,0:0|0:0|0:0,0:0:0
376,216,79158,6,0,B|376:104|376:104|376:48|336:8,1,200,4|0,0:0|0:0,0:0:0
256,56,80564,1,8,0:0:0
160,48,81033,6,0,B|112:40|56:48,1,100,2|8,0:0|0:0,0:0:0
32,144,81970,2,0,B|80:152|136:144,1,100,2|8,0:0|0:0,0:0:0
192,224,82908,1,2,0:0:0
120,296,83376,2,0,B|72:304|32:352,2,100,8|0|8,0:0|0:0|0:0,0:0:0
208,240,84783,6,0,P|320:192|208:144,1,300,0|8,0:0|0:0,0:0:0
256,192,86658,12,4,88533,0:0:0
