osu file format v13

[General]
AudioFilename: JUSTITIA.mp3
AudioLeadIn: 55
PreviewTime: 54568
Countdown: 0
SampleSet: Normal
StackLeniency: 0.3
Mode: 0
LetterboxInBreaks: 0
WidescreenStoryboard: 0

[Editor]
DistanceSpacing: 0.5
BeatDivisor: 4
GridSize: 8
TimelineZoom: 1

[Metadata]
Title:JUSTITIA (TV-version)
TitleUnicode:JUSTITIA (TV-version)
Artist:Lia
ArtistUnicode:Lia
Creator:No_Gu
Version:Insane
Source:Wizard Barristers ~ Benmashi Cecil
Tags:ウィザード・バリスターズ〜弁魔士セシル alacat
BeatmapID:443653
BeatmapSetID:185610

[Difficulty]
HPDrainRate:7
CircleSize:4
OverallDifficulty:8
ApproachRate:9
SliderMultiplier:1.6
SliderTickRate:1

[Events]
//Background and Video events
0,0,"bg.jpg",0,0
Video,22,"video.avi"
//Break Periods
//Storyboard Layer 0 (Background)
//Storyboard Layer 1 (Fail)
//Storyboard Layer 2 (Pass)
//Storyboard Layer 3 (Foreground)
//Storyboard Sound Samples
//Background Colour Transformations
3,100,163,162,255

[TimingPoints]
1057,337.078651685393,4,2,1,50,1,0
1057,-125,4,2,1,50,0,0
1731,-125,4,2,1,35,0,0
1815,-125,4,2,1,50,0,0
2236,-125,4,2,1,35,0,0
2405,-125,4,2,1,50,0,0
2995,-125,4,2,1,35,0,0
3163,-125,4,2,1,50,0,0
3416,-125,4,1,1,20,0,0
3753,-125,4,2,1,50,0,0
4427,-125,4,2,1,35,0,0
4512,-125,4,2,1,50,0,0
5101,-125,4,2,1,35,0,0
5186,-125,4,2,1,50,0,0
5439,-125,4,1,1,20,0,0
5776,-125,4,2,1,35,0,0
5860,-125,4,2,1,50,0,0
7124,-125,4,2,1,35,0,0
7208,-125,4,2,1,50,0,0
8472,-125,4,2,1,35,0,0
8556,-125,4,2,1,50,0,0
9821,-125,4,2,1,35,0,0
9905,-125,4,2,1,50,0,0
10073,-125,4,2,1,35,0,0
10832,-125,4,2,1,45,0,0
11169,-125,4,2,1,55,0,0
11506,-125,4,2,1,30,0,0
11843,-90.9090909090909,4,1,1,70,0,0
22630,-100,4,3,1,70,0,0
33248,-100,4,2,1,70,0,0
44203,-125,4,2,1,70,0,0
49596,-125,4,1,1,70,0,0
52292,-100,4,1,1,70,0,0
54315,-100,4,2,1,70,0,0
54989,-90.9090909090909,4,1,1,70,0,1
65691,-90.9090909090909,4,1,1,70,0,0
65776,-90.9090909090909,4,1,1,70,0,1
76478,-90.9090909090909,4,1,1,70,0,0
76562,-90.9090909090909,4,1,1,70,0,1
87349,-90.9090909090909,4,1,1,70,0,0
87433,-100,4,2,1,5,0,0

[Colours]
Combo1 : 128,255,128
Combo2 : 255,255,128
Combo3 : 128,255,255
Combo4 : 255,128,128

[HitObjects]
152,40,1057,6,0,L|160:168,1,128,4|0,1:0|0:0,0:0:0:0:
248,208,1562,1,0,0:0:0:0:
64,200,1731,2,0,L|0:208,1,64,0|0,1:0|0:0,0:0:0:0:
240,120,2068,2,0,L|304:112,1,64,0|0,0:0|1:0,0:0:0:0:
136,264,2405,5,2,0:0:0:0:
112,352,2573,1,0,0:0:0:0:
248,264,2742,1,2,0:0:0:0:
271,352,2910,1,0,0:0:0:0:
352,208,3079,1,2,1:0:0:0:
416,272,3247,1,0,0:0:0:0:
408,111,3416,2,0,L|400:64,1,32,2|0,0:0|0:0,0:0:0:0:
496,136,3585,2,0,L|488:89,1,32
424,200,3753,6,0,P|360:216|296:192,1,128,2|0,0:0|0:0,0:0:0:0:
240,104,4259,1,0,0:0:0:0:
192,208,4427,2,0,L|200:336,1,128,0|0,1:0|0:0,0:0:0:0:
0,360,4933,1,0,0:0:0:0:
88,312,5101,6,0,L|84:248,1,64,0|0,1:0|0:0,0:0:0:0:
176,88,5439,2,0,L|128:96,3,32,0|0|0|0,0:0|0:0|0:0|0:0,0:0:0:0:
208,112,5776,2,0,P|240:120|288:112,1,64,0|0,1:0|0:0,0:0:0:0:
368,48,6113,1,0,3:0:0:0:
368,48,6450,6,0,L|360:176,1,128,2|0,0:0|0:0,0:0:0:0:
264,232,6955,1,0,0:0:0:0:
168,192,7124,2,0,L|88:200,1,64,0|0,1:0|3:0,0:0:0:0:
360,280,7461,2,0,L|440:272,1,64,2|0,0:0|3:0,0:0:0:0:
264,336,7798,5,2,0:0:0:0:
264,232,7967,2,0,L|272:168,1,64,0|0,3:0|3:0,0:0:0:0:
264,336,8472,1,0,1:0:0:0:
360,280,8641,2,0,L|440:272,1,64,0|2,0:0|0:0,0:0:0:0:
168,288,8978,1,0,0:0:0:0:
168,288,9062,1,0,0:0:0:0:
168,288,9146,6,0,P|160:248|160:216,1,64,2|0,0:0|0:0,0:0:0:0:
352,176,9483,2,2,P|368:248|360:312,1,128,0|0,0:0|1:0,0:0:0:0:
264,336,9989,1,0,3:0:0:0:
264,336,10326,1,0,1:0:0:0:
168,288,10495,6,0,P|136:288|104:296,1,64,2|0,0:0|0:0,0:0:0:0:
8,336,10832,2,0,P|24:308|33:276,1,64,2|0,0:0|0:0,0:0:0:0:
48,168,11169,2,0,P|64:195|86:219,1,64,2|0,0:0|0:0,0:0:0:0:
160,192,11422,1,2,0:0:0:0:
240,208,11506,2,0,L|296:200,3,32,2|2|2|2,0:0|0:0|0:0|0:0,0:0:0:0:
344,248,11843,6,0,B|376:208|376:208|360:80,1,176.000005371094,6|8,1:0|1:0,0:0:0:0:
120,56,12349,2,0,B|88:96|88:96|104:224,1,176.000005371094,6|2,1:0|1:0,0:0:0:0:
216,296,12854,1,8,1:0:0:0:
502,262,13023,6,0,P|426:223|344:248,1,176.000005371094,6|2,1:0|0:0,0:0:0:0:
416,328,13528,1,8,1:0:0:0:
488,144,13697,2,0,P|496:104|488:56,1,88.000002685547,2|0,0:0|2:0,0:0:0:0:
392,24,14034,1,2,0:0:0:0:
392,24,14118,1,0,2:0:0:0:
392,24,14203,1,8,0:0:0:0:
296,192,14371,1,0,2:0:0:0:
104,136,14540,6,0,L|0:136,1,88.000002685547,6|2,0:0|0:0,0:0:0:0:
296,192,14877,1,8,0:0:0:0:
64,48,15045,2,0,L|48:224,1,176.000005371094,6|2,0:0|0:0,0:0:0:0:
144,312,15551,1,8,0:0:0:0:
351,279,15719,2,0,L|264:272,1,88.000002685547,2|0,0:0|2:0,0:0:0:0:
424,103,16056,6,0,L|512:96,1,88.000002685547,2|8,0:0|0:0,0:0:0:0:
224,112,16394,1,2,0:0:0:0:
224,112,16731,1,2,0:0:0:0:
160,336,16899,2,0,P|120:256|152:176,1,176.000005371094,8|6,0:0|0:0,0:0:0:0:
224,256,17405,5,0,0:0:0:0:
32,192,17573,1,8,0:0:0:0:
176,40,17742,2,0,B|232:32|232:32|296:48|296:48|352:40,1,176.000005371094,6|2,0:0|0:0,0:0:0:0:
504,136,18248,1,8,0:0:0:0:
368,296,18416,2,0,P|352:256|360:200,1,88.000002685547,6|0,0:0|2:0,0:0:0:0:
456,240,18753,5,2,0:0:0:0:
456,240,18837,1,0,2:0:0:0:
456,240,18922,1,8,0:0:0:0:
288,352,19090,2,0,L|96:336,1,176.000005371094,2|2,0:0|0:0,0:0:0:0:
160,152,19596,2,0,L|168:240,1,88.000002685547,8|0,0:0|2:0,0:0:0:0:
512,208,19933,5,2,0:0:0:0:
487,200,20017,1,2,2:0:0:0:
463,193,20101,1,2,0:0:0:0:
439,186,20186,1,2,2:0:0:0:
432,104,20270,5,10,0:0:0:0:
407,111,20354,1,2,2:0:0:0:
383,117,20438,1,2,0:0:0:0:
358,123,20523,1,2,2:0:0:0:
288,80,20607,5,2,2:0:0:0:
268,97,20691,1,2,2:0:0:0:
250,114,20775,1,2,0:0:0:0:
232,132,20860,1,2,2:0:0:0:
157,97,20944,5,10,0:0:0:0:
151,122,21028,1,2,2:0:0:0:
144,146,21112,1,6,0:0:0:0:
137,170,21197,1,2,2:0:0:0:
53,176,21281,5,2,2:0:0:0:
58,201,21365,1,2,2:0:0:0:
64,226,21449,1,10,0:0:0:0:
70,250,21534,1,2,2:0:0:0:
2,298,21618,5,2,0:0:0:0:
21,315,21702,1,2,2:0:0:0:
38,333,21786,1,2,0:0:0:0:
55,351,21871,1,2,2:0:0:0:
72,368,21955,5,8,0:0:0:0:
368,256,22124,1,8,0:0:0:0:
368,256,22630,6,0,L|384:96,1,160,2|0,0:2|0:0,0:0:0:0:
312,32,23135,1,0,2:0:0:0:
224,80,23304,2,0,L|136:72,1,80,0|0,0:0|2:0,0:0:0:0:
80,144,23641,2,0,L|-8:136,1,80,0|0,0:0|2:0,0:0:0:0:
48,248,23978,6,0,P|104:256|176:184,1,160
272,152,24483,1,0,2:0:0:0:
344,224,24652,2,0,L|432:216,1,80,0|0,0:0|2:0,0:0:0:0:
496,328,24989,2,0,L|408:336,1,80,0|0,0:0|2:0,0:0:0:0:
248,248,25326,6,0,P|264:168|336:136,1,160,2|0,0:0|0:0,0:0:0:0:
344,224,25832,1,0,2:0:0:0:
144,240,26000,2,0,L|48:232,1,80,0|0,0:0|2:0,0:0:0:0:
192,336,26337,2,0,L|314:325,1,120,0|2,0:0|2:0,0:0:0:0:
336,344,26674,6,0,L|344:264,1,80,0|0,0:0|2:0,0:0:0:0:
480,256,27012,2,0,L|472:176,1,80,0|0,0:0|2:0,0:0:0:0:
256,208,27349,2,0,L|264:128,1,80,0|0,0:0|2:0,0:0:0:0:
278,22,27686,1,0,0:0:0:0:
400,190,28023,5,2,0:0:0:0:
277,358,28360,1,0,0:0:0:0:
80,294,28697,1,0,0:0:0:0:
80,86,29034,1,0,0:0:0:0:
152,24,29203,1,2,2:0:0:0:
176,120,29371,6,0,L|168:208,1,80,2|0,0:0|2:0,0:0:0:0:
224,296,29708,1,0,0:0:0:0:
336,312,29877,1,0,2:0:0:0:
427,243,30045,2,0,P|467:241|504:256,1,80,0|0,0:0|2:0,0:0:0:0:
320,208,30382,2,0,P|296:136|320:56,2,160,0|2|0,0:0|0:0|0:0,0:0:0:0:
208,184,31225,6,0,P|168:176|128:184,1,80,2|0,2:0|0:0,0:0:0:0:
72,328,31562,2,0,P|112:336|152:328,1,80,0|0,2:0|0:0,0:0:0:0:
264,280,31899,1,0,2:0:0:0:
376,336,32068,6,0,L|384:248,1,80,0|0,0:0|2:0,0:0:0:0:
464,32,32405,2,0,L|472:120,1,80,0|0,0:0|2:0,0:0:0:0:
480,200,32742,1,0,0:0:0:0:
280,112,32910,1,0,0:0:0:0:
280,112,33248,6,0,L|112:120,1,160,4|0,3:2|3:0,0:0:0:0:
232,256,33753,2,0,P|312:272|376:224,1,160,8|0,3:2|3:0,0:0:0:0:
384,208,34174,1,0,0:0:0:0:
392,184,34259,1,0,0:0:0:0:
400,160,34343,1,0,0:0:0:0:
408,136,34427,1,8,0:0:0:0:
320,32,34596,1,0,0:0:0:0:
192,80,34764,6,0,L|104:72,1,80,0|0,3:0|3:0,0:0:0:0:
336,176,35101,2,0,L|424:168,1,80,8|0,3:2|0:0,0:0:0:0:
176,248,35439,2,0,P|152:256|96:248,1,80,0|8,3:0|0:0,0:0:0:0:
144,160,35776,1,8,3:0:0:0:
256,304,35944,6,0,P|336:320|400:272,1,160,2|2,3:0|0:0,0:0:0:0:
320,152,36450,2,0,P|312:200|320:248,1,80,8|0,3:0|0:0,0:0:0:0:
168,152,36787,1,0,3:0:0:0:
175,123,36871,1,0,0:0:0:0:
179,93,36955,1,0,0:0:0:0:
179,63,37039,1,0,0:0:0:0:
175,33,37124,1,8,3:0:0:0:
88,208,37292,2,0,L|96:288,1,80,0|0,0:0|3:0,0:0:0:0:
304,312,37630,5,0,3:0:0:0:
232,256,37798,1,8,3:0:0:0:
216,344,37967,1,0,0:0:0:0:
320,224,38135,1,0,3:0:0:0:
206,180,38304,1,8,2:0:0:0:
163,292,38472,1,8,3:0:0:0:
277,337,38641,6,0,L|440:328,1,160,2|2,3:0|2:0,0:0:0:0:
384,168,39146,2,0,L|304:172,1,80,8|0,3:0|0:0,0:0:0:0:
128,120,39483,2,0,P|112:88|112:40,1,80,0|0,3:0|0:0,0:0:0:0:
200,64,39821,1,8,3:0:0:0:
216,160,39989,6,0,P|160:208|72:192,1,160,2|0,3:0|0:0,0:0:0:0:
16,120,40495,2,0,L|8:40,1,80,8|0,3:0|3:0,0:0:0:0:
32,280,40832,2,0,L|24:360,1,80,0|8,3:0|0:0,0:0:0:0:
144,320,41169,1,8,3:0:0:0:
264,360,41337,6,0,P|304:368|352:352,1,80,2|0,0:0|3:0,0:0:0:0:
344,208,41674,2,0,P|317:238|306:288,1,80,0|8,0:0|3:0,0:0:0:0:
440,344,42012,1,0,0:0:0:0:
440,344,42096,1,0,0:0:0:0:
440,344,42180,2,0,P|426:305|389:271,1,80,0|0,3:0|0:0,0:0:0:0:
392,248,42405,2,0,L|328:240,1,40,0|8,0:0|3:0,0:0:0:0:
200,232,42686,1,0,0:0:0:0:
128,120,42854,5,0,3:0:0:0:
128,120,42939,1,0,0:0:0:0:
128,120,43023,1,2,0:0:0:0:
128,120,43107,1,0,0:0:0:0:
128,120,43191,1,8,3:0:0:0:
128,120,43276,1,0,0:0:0:0:
128,120,43360,1,2,0:0:0:0:
128,120,43444,1,0,0:0:0:0:
128,120,43528,1,8,3:0:0:0:
448,16,43865,1,8,3:0:0:0:
400,352,44203,6,0,P|336:368|272:344,1,128,4|0,3:2|0:0,0:0:0:0:
128,192,44792,1,0,0:0:0:0:
152,168,44877,2,0,P|200:160|240:176,1,85.3333333333333,2|2,3:0|0:0,0:0:0:0:
296,232,45214,2,0,L|344:224,1,48,0|2,3:0|0:0,0:0:0:0:
472,64,45551,6,0,L|387:73,1,85.3333333333333,2|0,0:0|3:0,0:0:0:0:
320,112,45888,2,0,L|235:102,1,64
152,88,46225,1,8,3:0:0:0:
144,72,46309,2,0,L|152:168,1,96,2|0,0:0|3:0,0:0:0:0:
464,320,46899,6,0,P|416:328|352:304,1,96,0|2,3:0|0:0,0:0:0:0:
296,352,47236,2,0,L|280:224,1,128,0|2,0:0|3:0,0:0:0:0:
136,64,47798,1,0,3:0:0:0:
96,136,47910,2,0,P|152:144|192:120,1,85.3333333333333
256,96,48248,6,0,L|320:104,1,64,0|0,0:0|3:0,0:0:0:0:
488,248,48585,2,0,L|400:256,1,85.3333333333333,2|0,0:0|3:0,0:0:0:0:
344,304,48922,1,8,3:0:0:0:
208,256,49090,1,0,3:0:0:0:
200,232,49174,1,0,3:0:0:0:
192,208,49259,1,8,3:0:0:0:
184,184,49343,1,8,3:0:0:0:
176,160,49427,1,8,3:0:0:0:
168,136,49512,1,8,3:0:0:0:
160,112,49596,5,4,0:0:0:0:
278,369,49821,1,4,0:0:0:0:
443,135,50045,1,4,0:0:0:0:
144,275,50270,1,4,0:0:0:0:
429,300,50495,1,4,0:0:0:0:
308,40,50719,1,4,0:0:0:0:
48,248,50944,6,0,P|48:296|63:331,1,85.3333333333333,4|4,0:0|0:0,0:0:0:0:
88,344,51281,1,8,0:0:0:0:
120,344,51394,2,0,L|208:352,1,85.3333333333333,4|4,0:0|0:0,0:0:0:0:
456,304,51843,1,4,0:0:0:0:
456,304,51955,1,8,0:0:0:0:
456,304,52068,1,4,0:0:0:0:
256,56,52292,6,0,L|272:224,1,160,4|8,0:0|0:0,0:0:0:0:
184,280,52798,1,0,2:0:0:0:
88,240,52967,2,0,L|0:248,1,80,0|0,0:0|2:0,0:0:0:0:
184,280,53304,1,8,0:0:0:0:
352,216,53472,2,0,P|360:176|360:128,1,80,0|0,0:0|2:0,0:0:0:0:
136,24,53809,5,0,0:0:0:0:
112,168,53978,1,8,0:0:0:0:
112,168,54062,1,0,0:0:0:0:
112,168,54146,1,0,0:0:0:0:
248,120,54315,6,0,L|240:144,7,20,10|0|2|0|2|0|2|0,1:0|0:0|0:0|0:0|1:0|0:0|0:0|0:0,0:0:0:0:
248,160,54652,2,0,L|235:197,3,40,2|0|2|0,0:0|0:0|1:0|0:0,0:0:0:0:
208,280,54989,6,0,L|296:272,1,88.000002685547,4|0,0:0|2:0,0:0:0:0:
408,328,55326,1,8,0:0:0:0:
232,184,55495,2,0,B|168:192|168:192|128:224|128:224|56:232,1,176.000005371094,2|2,0:0|0:0,0:0:0:0:
0,160,56000,1,8,0:0:0:0:
64,8,56169,6,0,L|72:104,1,88.000002685547,4|0,0:0|2:0,0:0:0:0:
312,320,56506,2,0,L|304:224,1,88.000002685547,2|8,0:0|0:0,0:0:0:0:
368,152,56843,1,0,2:0:0:0:
408,248,57012,1,2,0:0:0:0:
257,153,57180,1,2,0:0:0:0:
350,3,57349,1,8,0:0:0:0:
499,96,57517,1,0,2:0:0:0:
288,240,57686,6,0,P|240:248|192:232,1,88.000002685547,2|0,0:0|2:0,0:0:0:0:
152,152,58023,1,8,0:0:0:0:
328,320,58191,2,0,P|232:336|136:304,1,176.000005371094,2|2,0:0|0:0,0:0:0:0:
80,240,58697,1,8,0:0:0:0:
144,64,58865,6,0,L|152:160,1,88.000002685547,4|0,0:0|2:0,0:0:0:0:
336,264,59203,2,0,L|328:168,1,88.000002685547,0|8,0:0|0:0,0:0:0:0:
488,32,59540,2,0,P|520:112|480:200,1,176.000005371094,4|0,0:0|0:0,0:0:0:0:
248,288,60045,1,8,0:0:0:0:
216,280,60130,1,2,2:0:0:0:
184,272,60214,1,2,2:0:0:0:
152,264,60298,1,2,2:0:0:0:
120,256,60382,6,0,L|24:264,1,88.000002685547,4|0,0:0|2:0,0:0:0:0:
208,168,60719,1,8,0:0:0:0:
336,320,60888,2,0,P|424:336|496:288,1,176.000005371094,2|2,0:0|0:0,0:0:0:0:
448,136,61394,1,8,0:0:0:0:
288,152,61562,2,0,L|280:240,1,88.000002685547,4|0,0:0|2:0,0:0:0:0:
56,336,61899,6,0,L|48:248,1,88.000002685547,0|8,0:0|0:0,0:0:0:0:
32,80,62236,1,0,2:0:0:0:
144,160,62405,1,2,0:0:0:0:
280,160,62573,2,0,P|328:152|368:120,1,88.000002685547,0|8,0:0|0:0,0:0:0:0:
240,24,62910,1,0,2:0:0:0:
144,160,63079,6,0,L|152:248,1,88.000002685547,4|2,0:0|2:0,0:0:0:0:
248,328,63416,1,8,0:0:0:0:
512,288,63585,2,0,P|440:248|352:272,1,176.000005371094,4|2,0:0|0:0,0:0:0:0:
424,344,64090,1,8,0:0:0:0:
480,160,64259,2,0,P|488:120|480:64,1,88.000002685547,4|0,0:0|2:0,0:0:0:0:
312,32,64596,5,2,0:0:0:0:
63,199,64764,1,0,0:0:0:0:
94,209,64848,1,8,0:0:0:0:
126,215,64932,1,2,0:0:0:0:
159,216,65016,1,8,0:0:0:0:
192,211,65101,1,8,0:0:0:0:
223,200,65185,1,0,0:0:0:0:
252,185,65269,1,4,0:3:0:0:
279,166,65353,1,0,0:0:0:0:
304,144,65438,1,4,0:3:0:0:
336,168,65522,1,4,0:3:0:0:
352,200,65606,1,4,0:3:0:0:
352,232,65690,1,4,0:3:0:0:
344,264,65776,6,0,L|352:352,1,88.000002685547,4|0,0:0|2:0,0:0:0:0:
448,376,66113,1,8,0:0:0:0:
256,312,66281,2,0,B|248:240|248:240|272:176|336:176,1,176.000005371094,2|2,0:0|0:0,0:0:0:0:
392,256,66787,1,8,0:0:0:0:
176,352,66955,2,0,P|128:360|80:344,1,88.000002685547,4|0,0:0|2:0,0:0:0:0:
24,176,67292,6,0,P|72:168|120:184,1,88.000002685547,0|8,0:0|0:0,0:0:0:0:
208,248,67630,1,0,2:0:0:0:
296,168,67798,2,0,L|288:72,1,88.000002685547,2|2,0:0|0:0,0:0:0:0:
400,240,68135,2,0,L|408:336,1,88.000002685547,8|0,0:0|2:0,0:0:0:0:
160,368,68472,5,4,0:0:0:0:
67,326,68641,1,0,2:0:0:0:
45,227,68810,1,8,0:0:0:0:
103,144,68978,2,0,P|178:111|271:145,1,176.000005371094,4|2,0:0|0:0,0:0:0:0:
344,240,69483,1,8,0:0:0:0:
456,184,69652,2,0,P|464:144|456:96,1,88.000002685547,4|0,0:0|2:0,0:0:0:0:
184,216,69989,6,0,P|176:256|184:304,1,88.000002685547,0|8,0:0|0:0,0:0:0:0:
264,352,70326,2,0,P|200:320|96:344,1,176.000005371094,4|2,0:0|0:0,0:0:0:0:
384,320,70832,1,8,0:0:0:0:
392,288,70916,1,8,0:0:0:0:
400,256,71000,1,0,0:0:0:0:
408,224,71085,1,0,0:0:0:0:
416,192,71169,6,0,L|408:96,1,88.000002685547,4|2,0:0|2:0,0:0:0:0:
296,32,71506,1,8,0:0:0:0:
136,144,71674,2,0,P|208:184|296:152,1,176.000005371094,2|2,0:0|0:0,0:0:0:0:
224,88,72180,1,8,0:0:0:0:
112,248,72349,2,0,L|120:344,1,88.000002685547,4|0,0:0|2:0,0:0:0:0:
344,368,72686,6,0,L|336:272,1,88.000002685547,0|8,0:0|0:0,0:0:0:0:
272,144,73023,1,0,0:0:0:0:
128,192,73191,2,0,L|40:184,1,88.000002685547,2|0,0:0|0:0,0:0:0:0:
336,280,73528,2,0,L|423:272,1,88.000002685547,8|0,0:0|2:0,0:0:0:0:
224,56,73865,5,2,0:0:0:0:
152,128,74034,1,0,0:0:0:0:
168,232,74203,2,0,L|160:320,1,88.000002685547,8|2,0:0|0:0,0:0:0:0:
360,232,74540,2,0,L|352:144,1,88.000002685547,0|0,2:0|0:0,0:0:0:0:
256,56,74877,1,8,0:0:0:0:
9,115,75045,6,0,P|78:166|160:144,1,176.000005371094,4|2,0:0|0:0,0:0:0:0:
104,64,75551,1,8,0:0:0:0:
64,312,75719,1,0,0:0:0:0:
64,312,75804,1,8,0:0:0:0:
64,312,75888,2,8,L|120:304,1,44.0000013427735
232,240,76056,2,8,L|288:248,1,44.0000013427735
384,336,76225,2,0,L|400:192,1,132.00000402832,8|8,0:0|0:0,0:0:0:0:
464,152,76562,5,4,0:0:0:0:
328,24,76731,1,0,0:0:0:0:
328,24,76815,1,8,0:0:0:0:
328,24,76899,1,0,0:0:0:0:
272,208,77068,1,8,0:0:0:0:
448,32,77236,1,0,0:0:0:0:
240,96,77405,1,0,0:0:0:0:
240,96,77489,1,8,0:0:0:0:
240,96,77573,1,0,0:0:0:0:
392,248,77742,1,8,0:0:0:0:
184,296,77910,6,0,L|88:288,1,88.000002685547,4|0,0:0|0:0,0:0:0:0:
112,208,78163,1,8,0:0:0:0:
112,208,78248,2,0,L|16:200,1,88.000002685547,0|8,0:0|0:0,0:0:0:0:
232,16,78585,1,8,0:0:0:0:
251,35,78669,1,8,0:0:0:0:
264,59,78753,1,8,0:0:0:0:
271,86,78837,1,8,0:0:0:0:
270,113,78922,1,4,0:3:0:0:
263,139,79006,1,4,0:3:0:0:
248,163,79090,1,4,0:3:0:0:
228,181,79174,1,4,0:3:0:0:
204,194,79259,5,4,0:0:0:0:
368,128,79427,1,0,0:0:0:0:
368,128,79512,1,8,0:0:0:0:
368,128,79596,1,0,0:0:0:0:
352,304,79764,1,8,0:0:0:0:
268,115,79933,1,0,0:0:0:0:
408,224,80101,1,0,0:0:0:0:
408,224,80186,1,8,0:0:0:0:
408,224,80270,1,0,0:0:0:0:
247,298,80438,1,8,0:0:0:0:
88,248,80607,6,0,L|0:256,1,88.000002685547
112,224,80860,1,8,0:0:0:0:
112,224,80944,2,0,L|200:216,1,88.000002685547,0|8,0:0|0:0,0:0:0:0:
352,296,81281,1,0,0:0:0:0:
440,152,81450,1,0,0:0:0:0:
440,152,81534,1,8,0:0:0:0:
440,152,81618,1,0,0:0:0:0:
288,72,81787,1,8,0:0:0:0:
288,72,81871,1,0,0:0:0:0:
288,72,81955,5,4,0:0:0:0:
128,136,82124,2,0,L|72:128,2,44.0000013427735,0|8|0,0:0|0:0|0:0,0:0:0:0:
320,256,82461,2,0,L|432:240,1,88.000002685547,8|0,0:0|0:0,0:0:0:0:
208,336,82798,1,0,0:0:0:0:
208,336,82882,1,8,0:0:0:0:
208,336,82967,1,0,0:0:0:0:
272,184,83135,1,8,0:0:0:0:
168,56,83304,5,0,0:0:0:0:
432,200,83472,2,0,L|488:192,1,44.0000013427735,0|8,0:0|0:0,0:0:0:0:
392,208,83641,2,0,L|400:120,1,88.000002685547,0|8,0:0|0:0,0:0:0:0:
168,56,83978,2,0,L|176:144,1,88.000002685547,0|0,0:0|0:0,0:0:0:0:
208,336,84315,1,8,0:0:0:0:
208,336,84399,1,8,0:0:0:0:
208,336,84483,1,8,0:0:0:0:
208,336,84568,1,8,0:0:0:0:
208,336,84652,1,4,0:0:0:0:
208,336,86000,5,4,0:0:0:0:
424,288,86169,1,0,0:0:0:0:
424,288,86253,1,0,0:0:0:0:
424,288,86337,1,8,0:0:0:0:
280,120,86506,1,0,0:0:0:0:
280,120,86590,1,8,0:0:0:0:
280,120,86674,2,0,L|272:168,3,44.0000013427735,8|0|8|0,0:0|0:0|0:0|0:0,0:0:0:0:
144,320,87012,2,0,L|136:272,3,44.0000013427735,4|0|4|0,0:3|0:0|0:3|0:0,0:0:0:0:
112,104,87349,5,4,0:0:0:0:
256,192,87433,12,0,88697,0:0:0:0:
