osu file format v14

[General]
AudioFilename: JUSTITIA - Copy.mp3
AudioLeadIn: 1200
PreviewTime: 54568
Countdown: 0
SampleSet: Soft
StackLeniency: 0.7
Mode: 0
LetterboxInBreaks: 0
WidescreenStoryboard: 0

[Editor]
Bookmarks: 88697
DistanceSpacing: 1.4
BeatDivisor: 4
GridSize: 4
TimelineZoom: 1.6

[Metadata]
Title:JUSTITIA (TV-Version)
TitleUnicode:JUSTITIA (TV-Version)
Artist:Lia
ArtistUnicode:Lia
Creator:kamikin
Version:Easy
Source:ウィザード・バリスターズ〜弁魔士セシル
Tags:wizard barristers benmashi cecil Mike Ace LixRei AJIekceu opening Ichigaki eironeia
BeatmapID:510070
BeatmapSetID:217450

[Difficulty]
HPDrainRate:2
CircleSize:2
OverallDifficulty:1
ApproachRate:4
SliderMultiplier:0.7
SliderTickRate:1

[Events]
//Background and Video events
Video,-160,"video.avi"
0,0,"BG!!!!.jpg",0,0
//Break Periods
//Storyboard Layer 0 (Background)
//Storyboard Layer 1 (Fail)
//Storyboard Layer 2 (Pass)
//Storyboard Layer 3 (Foreground)
//Storyboard Sound Samples

[TimingPoints]
1057,337.078651685393,4,2,0,65,1,0
11759,-100,4,2,0,80,0,0
22545,-100,4,2,0,50,0,0
27939,-100,4,2,0,50,0,0
28107,-100,4,2,0,65,0,0
50101,-100,4,2,0,70,0,0
50776,-100,4,2,0,75,0,0
51450,-100,4,2,0,80,0,0
52124,-100,4,2,0,90,0,0
52461,-100,4,2,0,70,0,0
54568,-100,4,2,0,100,0,0
54736,-100,4,2,0,70,0,0
54989,-100,4,2,0,75,0,1
75888,-100,4,2,0,65,0,0
88360,-100,4,2,0,40,0,0

[Colours]
Combo1 : 128,128,255
Combo2 : 0,202,0
Combo3 : 18,124,255
Combo4 : 255,192,0

[HitObjects]
140,116,1057,6,0,P|212:76|280:84,1,140,2|2,0:0|0:0,0:0:0:0:
324,268,2405,2,0,P|252:308|184:300,1,140,2|2,0:0|0:0,0:0:0:0:
132,120,3753,1,2,0:0:0:0:
312,44,4427,2,0,P|388:68|432:112,1,140,2|2,0:0|0:0,0:0:0:0:
300,256,5776,5,2,0:0:0:0:
204,256,6113,1,0,0:0:0:0:
108,256,6450,2,0,P|40:220|56:168,1,140,2|2,0:0|0:0,0:0:0:0:
228,80,7798,1,2,0:0:0:0:
344,240,8472,2,0,P|288:288|216:288,1,140,2|2,0:0|0:0,0:0:0:0:
348,136,9821,2,0,P|403:157|444:224,1,140,2|2,0:0|0:0,0:0:0:0:
268,312,11169,6,0,L|324:360,2,70,2|0|4,0:0|0:0|0:0,0:0:0:0:
128,268,12349,2,0,P|172:200|236:168,1,140,2|2,0:0|0:0,0:0:0:0:
368,44,13697,2,0,P|404:68|428:128,1,105,2|2,0:0|0:0,0:0:0:0:
332,140,14540,2,0,P|336:196|300:244,1,105,2|2,0:0|0:0,0:0:0:0:
116,232,15719,2,0,L|64:176,2,70,2|0|2,0:0|0:0|0:0,0:0:0:0:
204,274,16731,6,0,L|247:272,1,35
336,276,17236,2,0,P|312:211|276:183,1,105,2|2,0:0|0:0,0:0:0:0:
128,96,18416,1,2,0:0:0:0:
56,280,19090,2,0,P|60:324|84:352,1,70,2|2,0:0|0:0,0:0:0:0:
220,352,19933,6,0,P|258:344|304:352,1,70,2|0,0:0|0:0,0:0:0:0:
316,252,20607,2,0,P|352:262|396:252,1,70,2|0,0:0|0:0,0:0:0:0:
480,252,21281,1,2,0:0:0:0:
480,156,21618,2,0,P|488:114|480:76,1,70,0|4,0:0|0:0,0:0:0:0:
292,52,22630,6,0,P|276:132|292:192,1,140,2|2,0:0|0:0,0:0:0:0:
481,200,23978,2,0,P|506:271|481:335,1,140,2|2,0:0|0:0,0:0:0:0:
408,268,24989,1,0,0:0:0:0:
334,200,25326,2,0,P|309:271|334:335,1,140,2|2,0:0|0:0,0:0:0:0:
128,324,26674,6,0,L|72:272,2,70,2|0|2,0:0|0:0|0:0,0:0:0:0:
216,276,27686,1,0,0:0:0:0:
312,272,28023,2,0,P|288:209|219:179,1,140,4|2,0:0|0:0,0:0:0:0:
380,60,29371,6,0,P|400:124|468:156,1,140,4|2,0:0|0:0,0:0:0:0:
456,252,30382,1,0,0:0:0:0:
360,232,30719,2,0,L|360:312,1,70,2|4,0:0|0:0,0:0:0:0:
200,56,32068,6,0,P|134:33|60:63,1,140,2|2,0:0|0:0,0:0:0:0:
136,184,33248,2,0,B|56:232|216:292|136:340,1,175,0|2,0:0|0:0,0:0:0:0:
251,321,34427,1,0,0:0:0:0:
338,364,34764,2,0,P|341:290|302:238,1,140,2|2,0:0|0:0,0:0:0:0:
227,176,35776,1,0,0:0:0:0:
139,132,36113,2,0,L|139:48,1,70,2|2,0:0|0:0,0:0:0:0:
427,120,37461,6,0,P|419:204|371:244,2,140,2|2|2,0:0|0:0|0:0,0:0:0:0:
335,154,39146,1,0,0:0:0:0:
240,132,39483,2,0,P|256:93|289:68,2,70,2|0|2,0:0|0:0|0:0,0:0:0:0:
61,202,40832,6,0,L|5:254,1,70,2|0,0:0|0:0,0:0:0:0:
81,314,41506,2,0,L|137:262,1,70,2|0,0:0|0:0,0:0:0:0:
153,170,42180,2,0,P|213:210|229:274,1,140,2|6,0:0|0:0,0:0:0:0:
425,278,43528,5,4,0:0:0:0:
429,182,43865,1,4,0:0:0:0:
337,222,44203,2,0,P|341:130|381:94,1,140,2|2,0:0|0:0,0:0:0:0:
285,54,45214,1,0,0:0:0:0:
189,54,45551,2,0,L|41:54,1,140,2|2,0:0|0:0,0:0:0:0:
41,150,46562,1,0,0:0:0:0:
57,246,46899,6,0,P|125:194|137:138,1,140,2|2,0:0|0:0,0:0:0:0:
233,158,47910,1,0,0:0:0:0:
333,154,48248,2,0,P|349:215|425:255,1,140,2|2,0:0|0:0,0:0:0:0:
244,356,49596,6,2,L|188:304,1,70,2|0,0:0|0:0,0:0:0:0:
244,225,50270,2,0,L|188:173,1,70,2|0,0:0|0:0,0:0:0:0:
244,94,50944,6,0,L|188:42,1,70,2|0,0:0|0:0,0:0:0:0:
124,116,51618,2,0,L|68:64,1,70,2|0,0:0|0:0,0:0:0:0:
46,162,52292,1,4,0:0:0:0:
115,231,52630,6,0,P|105:293|145:355,1,140,0|0,0:0|0:0,0:0:0:0:
202,275,53641,1,2,0:0:0:0:
299,278,53978,2,0,P|374:281|428:231,1,140,0|0,0:0|0:0,0:0:0:0:
340,187,54989,6,0,L|340:107,1,70,4|0,0:0|0:0,0:0:0:0:
290,37,55663,1,4,0:0:0:0:
193,52,56000,2,0,L|117:52,2,70,0|4|0,0:0|0:0|0:0,0:0:0:0:
244,135,57012,2,0,L|244:211,1,70,4|0,0:0|0:0,0:0:0:0:
217,299,57686,5,4,0:0:0:0:
133,351,58023,2,0,P|117:311|124:271,2,70,0|4|0,0:0|0:0|0:0,0:0:0:0:
216,300,59034,2,0,B|269:308|289:351|289:351|340:351,1,140,4|4,0:0|0:0,0:0:0:0:
441,185,60382,6,0,P|463:109|432:50,1,140,4|4,0:0|0:0,0:0:0:0:
366,122,61394,1,0,0:0:0:0:
268,122,61731,2,0,L|222:177,2,70,4|0|4,0:0|0:0|0:0,0:0:0:0:
416,240,63079,6,0,B|418:296|372:332|331:338,1,140,2|2,0:0|0:0,0:0:0:0:
318,240,64090,1,0,0:0:0:0:
220,240,64427,2,0,B|218:184|264:148|304:140,1,140,2|2,0:0|0:0,0:0:0:0:
114,94,65776,6,0,L|114:166,1,70,4|0,0:0|0:0,0:0:0:0:
114,261,66450,2,0,L|114:333,1,70,4|0,0:0|0:0,0:0:0:0:
210,312,67124,2,0,L|282:312,2,70,4|0|4,0:0|0:0|0:0,0:0:0:0:
282,130,68472,6,0,L|210:130,2,70,4|0|4,0:0|0:0|0:0,0:0:0:0:
365,180,69483,1,0,0:0:0:0:
463,180,69821,2,0,P|428:255|370:278,1,140,4|4,0:0|0:0,0:0:0:0:
277,109,71169,6,0,P|185:113|129:89,1,140,4|4,0:0|0:0,0:0:0:0:
140,194,72180,1,0,0:0:0:0:
144,291,72517,2,0,P|236:287|292:311,1,140,4|4,0:0|0:0,0:0:0:0:
278,107,73865,6,0,P|294:175|353:213,1,140,4|4,0:0|0:0,0:0:0:0:
374,119,74877,2,0,L|434:67,2,70,0|4|0,0:0|0:0|0:0,0:0:0:0:
186,175,76225,5,4,0:0:0:0:
186,273,76562,2,0,L|125:307,1,70,2|0,0:0|0:0,0:0:0:0:
30,327,77236,2,0,P|38:259|91:215,1,140,2|2,0:0|0:0,0:0:0:0:
253,105,78585,1,2,0:0:0:0:
384,248,79259,5,2,0:0:0:0:
438,167,79596,2,0,P|472:210|470:295,1,140,0|0,0:0|0:0,0:0:0:0:
384,248,80607,1,2,0:0:0:0:
294,290,80944,2,0,P|334:336|411:345,1,140,0|0,0:0|0:0,0:0:0:0:
384,250,81955,5,2,0:0:0:0:
302,195,82292,2,0,L|302:115,2,70,0|2|0,0:0|0:0|0:0,0:0:0:0:
216,242,83304,2,0,P|136:230|84:182,1,140,2|2,0:0|0:0,0:0:0:0:
231,56,84652,5,4,0:0:0:0:
393,166,85326,1,2,0:0:0:0:
231,276,86000,1,4,0:0:0:0:
151,332,86337,2,0,P|136:251|171:199,1,140,0|0,0:0|0:0,0:0:0:0:
256,192,87349,12,2,88697,0:0:0:0:
