osu file format v8

[General]
AudioFilename: Hoshikuzu no Kizuna.mp3
AudioLeadIn: 0
PreviewTime: 78598
Countdown: 0
SampleSet: Soft
StackLeniency: 0.6
Mode: 0
LetterboxInBreaks: 1

[Editor]
DistanceSpacing: 1.6
BeatDivisor: 4
GridSize: 8

[Metadata]
Title:Hoshikuzu no Kizuna
Artist:Lia
Creator:tsunamayo
Version:Normal
Source:Hoshiuta
Tags:veil

[Difficulty]
HPDrainRate:3
CircleSize:4
OverallDifficulty:3
ApproachRate:3
SliderMultiplier:1.5
SliderTickRate:0.5

[Events]
//Background and Video events
0,0,"hoshiuta.jpg"
//Break Periods
2,66423,70938
2,101390,105909
//Storyboard Layer 0 (Background)
//Storyboard Layer 1 (Fail)
//Storyboard Layer 2 (Pass)
//Storyboard Layer 3 (Foreground)
//Storyboard Sound Samples
//Background Colour Transformations
3,100,255,255,255

[TimingPoints]
1257,397.350993377483,4,2,1,85,1,0
15562,-100,4,2,1,85,0,1
15761,-100,4,2,1,85,0,0
26488,-100,4,2,1,64,0,0
28277,-100,4,2,1,64,0,0
45165,-100,4,2,1,0,0,0
45363,-100,4,2,1,82,0,0
45761,-100,4,2,1,0,0,0
45959,-100,4,2,1,85,0,0
46357,-100,4,2,1,55,0,0
47350,-100,4,2,1,85,0,0
64138,-100,4,2,1,0,0,0
64337,-100,4,2,1,85,0,0
64734,-100,4,2,1,0,0,0
64933,-100,4,2,1,85,0,0
65330,-100,4,2,1,56,0,0
72184,-100,4,2,1,85,0,0
77349,-100,4,2,1,0,0,0
79138,-100,4,2,1,69,0,1
79337,-100,4,2,1,85,0,0
88774,-100,4,2,1,67,0,0
90065,-100,4,2,1,85,0,0
90363,-100,4,2,1,67,0,0
98509,-100,4,2,1,0,0,0
98708,-100,4,2,1,85,0,0
99105,-100,4,2,1,0,0,0
99304,-200,4,2,1,61,0,0
99502,-100,4,2,1,0,0,0
107251,-100,4,2,1,85,0,0
107747,-100,4,2,1,85,0,1
107946,-100,4,2,1,85,0,0
118872,-100,4,2,1,64,0,0

[Colours]
Combo1 : 33,143,124
Combo2 : 245,244,255
Combo3 : 89,185,255
Combo4 : 249,224,128

[HitObjects]
184,176,15164,5,0
184,176,15561,2,0,B|184:280|296:304,1,150,4|8
384,296,16356,2,0,B|488:296,2,75,0|0|10
376,176,17151,2,0,B|376:96|288:56,1,150,0|8
176,56,17945,2,0,B|80:56,2,75,0|0|10
144,176,18740,6,0,B|144:280|248:304,3,150,0|8|0|10
218,294,20131,1,0
336,296,20528,1,0
440,240,20925,1,0
440,120,21323,1,0
440,120,21521,1,10
328,80,21919,6,0,B|160:80,1,150,0|8
112,176,22713,2,0,B|8:176,2,75,0|0|10
176,272,23508,2,0,B|360:272,1,150,0|8
400,176,24303,2,0,B|488:176,2,75,0|0|10
304,104,25098,2,0,B|192:224,3,150,0|8|0|10
256,192,26488,12,0,27879
312,304,28276,6,0,B|152:304,1,150,0|0
64,232,29071,1,0
64,112,29468,1,2
176,64,29866,2,0,B|256:72|272:176,3,150,0|0|0|2
376,232,31455,6,0,B|368:328|248:336,1,150
160,304,32250,2,0,B|128:304|136:272|88:248,2,75,0|0|2
208,192,33045,2,0,B|240:104|352:120,1,150
440,96,33839,2,0,B|472:72|424:48|464:24,2,75,0|0|2
440,216,34634,6,0,B|448:312|360:344,1,150
272,272,35429,1,0
304,152,35826,1,2
232,56,36223,2,0,B|144:48|88:112,3,150,0|0|0|2
128,216,37813,6,0,B|224:232|288:144,1,150
344,80,38607,2,0,B|368:168|456:176,1,150,0|2
376,272,39402,2,0,B|280:272|248:368,1,150
256,346,39998,1,0
136,320,40396,1,2
48,240,40793,6,0,B|176:200|168:40,1,225,4|8
224,48,41588,2,0,B|304:112|376:48,1,150
424,56,42184,2,0,B|496:112|464:216,1,150,8|0
416,296,42978,1,8
304,336,43376,1,0
184,312,43773,1,8
200,256,43972,6,0,B|312:184|432:224,1,225,0|8
456,176,44766,2,0,B|464:80|392:40,1,150,0|0
344,64,45362,2,0,B|281:113|194:61,1,150,8|0
144,56,45958,2,0,B|50:83|55:194,1,150,8|0
88,216,46555,2,8,B|104:264|144:240|176:232|201:272,2,112.5,8|8|8
264,296,47747,5,8
384,280,48144,1,0
408,160,48541,1,8
336,64,48939,2,0,B|256:72|240:176,3,150,0|8|0|10
136,232,50528,6,0,B|144:328|264:336,1,150,0|8
352,304,51323,2,0,B|384:304|376:272|424:248,2,75,0|0|8
304,192,52118,2,0,B|272:104|160:120,1,150,0|8
72,96,52912,2,0,B|40:72|88:48|48:24,2,75,0|0|8
72,216,53707,6,0,B|64:312|152:344,1,150,0|8
240,272,54502,1,0
208,152,54899,1,8
280,56,55296,2,0,B|368:48|424:112,3,150,0|8|0|10
384,216,56886,6,0,B|288:232|224:144,1,150,0|8
168,80,57680,2,0,B|144:168|56:176,1,150,0|8
136,272,58475,2,0,B|232:272|264:368,1,150,0|8
256,346,59071,1,0
304,240,59468,1,2
184,216,59866,6,0,B|176:80|312:48,1,225,0|8
360,48,60660,2,0,B|448:56|472:160,1,150
464,200,61256,2,0,B|456:280|360:312,1,150,10|0
248,312,62051,2,0,B|168:336|88:264,1,150,10|0
56,176,62846,1,8
120,176,63045,6,0,B|200:160|240:264|336:256,1,225,0|8
384,248,63839,2,0,B|472:232|472:120,1,150,0|0
408,136,64435,2,0,B|400:48|304:24,1,150,10|0
280,80,65031,2,0,B|184:96|176:192,1,150,10|8
216,224,65627,2,8,B|248:240|312:240,3,75,8|8|8|12
256,200,72382,5,8
256,200,72581,2,0,B|224:264|288:304|256:344,1,150,4|0
256,343,73177,1,10
384,304,73574,5,10
456,192,73971,5,10
384,80,74369,5,10
256,40,74766,5,10
128,80,75164,5,10
56,192,75561,5,10
56,192,75760,2,0,B|96:296|240:304,1,225,4|10
288,176,76753,2,0,B|352:120|448:144,1,150,10|10
256,192,77349,12,0,78740
192,280,79137,6,0,B|160:200|192:120|296:120,2,225,4|0|10
128,280,80528,2,0,B|296:280,2,150
104,224,81521,1,0
128,168,81720,1,0
104,112,81919,1,10
224,104,82316,5,0
400,72,82912,1,0
448,184,83309,1,0
448,240,83507,1,10
368,328,83906,1,0
192,352,84502,1,0
96,280,84899,1,0
96,216,85098,1,10
96,96,85495,6,0,B|184:144|264:80,1,150,0|8
288,56,86091,2,0,B|368:24|440:72,1,150
448,128,86687,1,10
416,288,87084,2,0,B|328:240|248:304,1,150,0|8
224,328,87680,2,0,B|144:360|72:312,1,150
64,256,88276,1,10
176,216,88674,6,0,B|264:208|320:312|400:296,1,225
464,208,89667,1,0
464,208,89866,1,10
360,144,90263,2,0,B|272:136|216:240|136:224,1,225
72,136,91256,1,0
72,136,91455,1,10
72,256,91853,5,0
176,320,92250,1,8
280,256,92647,2,0,B|304:176|272:88,1,150,0|8
168,64,93442,1,0
96,160,93839,1,8
208,216,94237,2,0,B|288:272|368:240,1,150,0|10
456,192,95031,6,0,B|376:136|296:168,1,150,0|10
256,160,95627,2,0,B|176:160|136:272|48:248,1,225,0|10
57,250,96422,1,0
144,96,97018,1,8
256,56,97415,1,0
368,96,97813,1,10
424,200,98210,6,0,B|360:240|280:200,1,150,8|0
232,168,98806,2,0,B|168:128|72:176,1,150,8|0
96,232,99402,2,0,B|152:344|288:240|408:312,1,337.5,4|0
328,176,107349,5,0
328,176,107746,2,0,B|328:280|216:304,1,150,4|8
128,296,108541,2,0,B|24:296,2,75,0|0|10
136,176,109336,2,0,B|136:96|224:56,1,150,0|8
336,56,110130,2,0,B|432:56,2,75,0|0|10
368,176,110925,6,0,B|368:280|264:304,3,150,0|8|0|10
293,294,112316,1,0
176,296,112713,1,0
72,240,113110,1,0
72,120,113508,1,0
72,120,113706,1,10
184,80,114104,6,0,B|352:80,1,150,0|8
400,176,114898,2,0,B|504:176,2,75,0|0|10
336,272,115693,2,0,B|152:272,1,150,0|8
112,176,116488,2,0,B|24:176,2,75,0|0|10
208,104,117283,2,0,B|320:224,3,150,0|8|0|10
256,192,118674,12,0,120263
