osu file format v8

[General]
AudioFilename: Hoshikuzu no Kizuna.mp3
AudioLeadIn: 0
PreviewTime: 78598
Countdown: 0
SampleSet: Soft
StackLeniency: 0.5
Mode: 0
LetterboxInBreaks: 1

[Editor]
DistanceSpacing: 0.9
BeatDivisor: 4
GridSize: 8

[Metadata]
Title:Hoshikuzu no Kizuna
Artist:Lia
Creator:tsunamayo
Version:Hard
Source:Hoshiuta
Tags:veil

[Difficulty]
HPDrainRate:5
CircleSize:4
OverallDifficulty:7
ApproachRate:7
SliderMultiplier:1.8
SliderTickRate:0.5

[Events]
//Background and Video events
0,0,"hoshiuta.jpg"
//Break Periods
2,66423,71482
//Storyboard Layer 0 (Background)
//Storyboard Layer 1 (Fail)
//Storyboard Layer 2 (Pass)
//Storyboard Layer 3 (Foreground)
//Storyboard Sound Samples
//Background Colour Transformations
3,100,255,255,255

[TimingPoints]
1257,397.350993377483,4,2,1,85,1,0
15562,-100,4,2,1,85,0,1
15761,-100,4,2,1,85,0,0
26687,-100,4,2,1,64,0,0
28277,-100,4,2,0,64,0,0
40496,-100,4,2,1,85,0,0
44867,-100,4,2,1,0,0,0
45264,-100,4,2,1,85,0,0
45661,-100,4,2,1,0,0,0
45860,-100,4,2,1,85,0,0
46257,-100,4,2,1,55,0,0
47350,-100,4,2,1,85,0,0
52615,-100,4,2,1,56,0,0
53012,-100,4,2,1,73,0,0
53708,-100,4,2,1,85,0,0
63939,-100,4,2,1,0,0,0
64337,-100,4,2,1,85,0,0
64734,-100,4,2,1,0,0,0
64933,-100,4,2,1,85,0,0
65330,-100,4,2,1,54,0,0
72383,-100,4,2,1,85,0,0
77449,-100,4,2,1,0,0,0
78641,-100,4,2,1,55,0,0
78840,-100,4,2,1,37,0,0
79138,-100,4,2,1,85,0,1
79337,-100,4,2,1,85,0,0
88575,-100,4,2,1,94,0,0
88774,-100,4,2,1,54,0,0
89171,-100,4,2,1,94,0,0
89767,-100,4,2,1,54,0,0
90165,-100,4,2,1,94,0,0
90363,-100,4,2,1,46,0,0
90761,-100,4,2,1,94,0,0
91357,-100,4,2,1,73,0,0
91555,-100,4,2,1,55,0,0
91853,-100,4,2,1,85,0,0
98509,-100,4,2,1,0,0,0
98708,-100,4,2,1,85,0,0
98906,-100,4,2,1,26,0,0
99105,-100,4,2,1,0,0,0
99304,-200,4,2,1,61,0,0
99502,-200,4,2,1,0,0,0
101092,-200,4,2,0,61,0,0
106059,-100,4,2,1,85,0,0
107052,-100,4,2,1,64,0,0
107251,-100,4,2,1,55,0,0
107747,-100,4,2,1,85,0,1
107946,-100,4,2,1,85,0,0
118178,-100,4,2,1,55,0,0
118872,-100,4,2,1,64,0,0

[Colours]
Combo1 : 33,143,124
Combo2 : 245,244,255
Combo3 : 89,185,255
Combo4 : 249,224,128

[HitObjects]
368,296,15164,1,0
336,216,15362,1,0
368,136,15561,2,0,B|321:47|219:46,1,180,4|8
144,48,16157,1,0
72,88,16356,1,0
72,168,16555,1,0
144,208,16753,1,10
216,168,16952,2,0,B|258:79|364:58,1,180
368,192,17548,1,8
504,216,17747,2,0,B|462:305|357:325,1,180
367,323,18343,1,10
367,323,18541,1,0
88,128,18939,6,0,B|96:72|34:48,2,90,0|8|0
128,200,19535,1,0
104,280,19733,1,0
176,320,19932,2,0,B|288:320,1,90,10|0
392,64,20528,1,0
112,136,20925,1,0
328,328,21323,1,0
288,256,21521,1,10
304,176,21720,1,0
280,96,21919,6,0,B|224:24|104:48,1,180,0|8
40,80,22515,2,0,B|0:112|8:184,2,90
112,120,23111,1,10
96,200,23309,2,0,B|120:312|224:320,1,180
264,192,23906,1,8
288,56,24104,2,0,B|400:80|416:176,1,180
432,248,24700,1,10
368,296,24899,6,0,B|321:210|371:116,1,180
413,56,25495,2,0,B|469:57|491:107,2,90,8|0|0
368,124,26091,2,0,B|344:172|296:172,2,90,0|10|0
256,192,26687,12,0,27879
440,136,28475,5,0
464,216,28674,1,0
400,272,28872,1,0
320,256,29071,2,0,B|296:152|352:72,1,180,0|2
400,144,29667,2,0,B|344:224|208:208,1,180
168,168,30263,2,0,B|152:120|176:72,2,90,0|0|0
256,256,30859,2,0,B|272:304|248:352,2,90,0|2|0
352,168,31455,6,0,B|328:272|200:272,1,180
144,272,32051,2,0,B|48:272,1,90
16,200,32449,2,0,B|96:104,1,90,0|2
136,176,32846,2,0,B|240:256,1,90
272,280,33243,1,0
312,208,33442,1,0
288,128,33641,2,0,B|336:32|456:56,1,180
464,128,34237,1,2
464,128,34435,1,0
320,312,34833,5,0
240,320,35031,1,0
224,240,35230,1,0
152,200,35429,2,0,B|136:88|232:32,1,180,0|2
256,112,36025,2,0,B|229:156|160:152,1,90
104,184,36422,2,0,B|104:312|232:328,1,180
440,208,37217,5,0
440,208,37415,1,2
440,208,37614,2,0,B|399:106|266:99,1,180
72,176,38210,2,0,B|113:278|246:285,1,180
280,248,38806,2,0,B|331:248|372:323,2,90,0|2|0
208,208,39402,2,0,B|209:98|312:56,1,180
376,64,39998,1,0
440,112,40197,1,0
440,192,40396,1,0
376,248,40594,1,8
296,248,40793,6,0,B|205:206|222:89,1,180,4|0
288,56,41389,1,8
312,136,41588,2,0,B|256:216|156:206,1,180
112,272,42184,2,0,B|158:360|260:356,1,180,8|0
288,280,42780,1,0
368,264,42978,1,8
344,184,43177,1,0
416,144,43376,2,0,B|419:94|374:55,2,90,0|0|8
416,224,43972,6,0,B|384:328|272:336,1,180,4|0
112,160,44568,2,0,B|136:48|248:32,1,180,8|0
320,120,45164,1,0
256,224,45362,2,0,B|264:336|368:352,1,180,8|0
456,264,45958,2,0,B|504:160|432:80,1,180,8|8
435,84,46455,1,8
427,75,46555,1,8
248,128,46853,1,8
392,256,47151,1,8
232,264,47548,5,0
152,248,47747,1,8
120,320,47945,1,0
48,280,48144,2,0,B|9:191|54:90,1,180,0|8
112,56,48740,2,0,B|224:56,1,90
328,160,49137,2,0,B|216:160,1,90,0|10
366,57,49535,2,0,B|486:57,1,90
448,216,49932,5,0
424,296,50131,1,8
344,280,50329,2,0,B|272:208|320:96,1,180
376,168,50925,2,0,B|331:274|200:272,1,180,8|0
176,216,51521,1,0
104,256,51720,1,8
152,320,51919,1,0
72,344,52117,6,0,B|16:336|0:272,2,90,0|0|8
72,264,52713,1,0
72,248,52813,1,8
72,232,52912,1,8
40,160,53111,1,0
72,40,53309,1,10
184,96,53508,1,4
400,184,53906,5,0
424,104,54104,1,8
368,40,54303,1,0
320,104,54502,2,0,B|288:192|328:280,1,180,0|8
400,248,55098,2,0,B|316:216|224:249,1,180
152,288,55694,2,0,B|101:308|80:376,2,90,8|0|0
264,224,56290,1,0
264,352,56488,1,10
152,288,56687,2,0,B|121:199|157:97,1,180
360,96,57283,2,0,B|391:185|355:287,1,180,8|0
280,272,57879,6,0,B|248:232|264:176,2,90,0|8|0
328,336,58475,2,0,B|448:326|448:200,1,180,0|8
448,144,59071,1,0
392,80,59270,1,0
312,80,59468,1,0
256,144,59667,1,10
256,224,59866,6,0,B|232:328|96:336,1,180,4|0
56,296,60462,1,8
120,240,60660,2,0,B|176:152|128:64,1,180
72,128,61256,2,0,B|120:224|240:217,1,180,10|0
272,272,61853,1,0
328,216,62051,1,10
304,136,62250,1,0
328,56,62449,2,0,B|376:48|408:88,2,90,0|0|8
246,56,63045,6,0,B|134:45|65:155,1,180,4|0
266,328,63641,2,0,B|378:339|447:229,1,180,8|0
392,136,64237,1,0
272,168,64435,2,0,B|256:280|144:296,1,180,10|0
32,288,65031,2,0,B|-8:200|40:104,1,180,10|8
40,104,65528,1,8
48,96,65627,1,8
168,64,65826,1,8
256,152,66025,1,8
136,200,66223,1,4
256,112,72382,5,8
256,112,72581,2,0,B|224:144|304:200|216:248|264:296,1,180,4|0
376,336,73177,5,10
376,336,73376,1,0
472,256,73574,5,10
472,256,73773,1,0
472,128,73972,5,10
472,128,74170,1,0
376,48,74369,5,10
376,48,74568,1,0
256,88,74766,5,10
256,88,74965,1,0
136,48,75164,5,10
136,48,75362,1,0
40,128,75561,5,10
40,128,75760,2,0,B|88:224|216:192,1,180,4|0
256,88,76356,6,0,B|296:40|352:56,1,90,10|0
480,160,76753,6,0,B|504:208|464:256,1,90,10|0
304,312,77151,6,0,B|248:320|224:264,1,90,10|4
256,192,77449,12,0,78343
288,232,78740,5,8
288,232,78839,1,8
288,232,78939,1,8
288,232,79038,1,8
288,232,79137,2,0,B|184:232|160:120,1,180,4|8
208,40,79733,1,0
288,104,79932,2,0,B|240:208|120:208,1,180,0|10
56,184,80528,2,0,B|10:142|9:85|54:51|106:52,2,180,0|0|0
72,280,81521,2,0,B|88:328|136:352,1,90,0|0
160,256,81919,2,0,B|208:288|264:280,1,90,10|0
216,184,82316,6,0,B|224:80|344:48,1,180,4|8
416,88,82912,1,0
456,176,83111,2,0,B|448:288|336:312,1,180,0|10
256,280,83707,1,0
288,184,83906,2,0,B|256:80|144:80,1,180,0|8
88,152,84502,1,0
80,248,84700,6,0,B|41:257|27:281|14:303|38:355,2,135,0|0|0
160,312,85495,2,0,B|216:224|152:128,1,180,0|8
80,200,86091,2,0,B|144:288|266:287,1,180
250,288,86588,1,0
267,288,86687,1,10
344,224,86886,5,0
360,216,86985,1,0
376,208,87084,2,0,B|456:168|432:88,2,135,0|0|0
296,144,87879,2,0,B|256:232|304:336,1,180,0|10
392,344,88475,1,0
472,288,88674,5,8
416,208,88872,1,8
456,120,89071,1,8
376,56,89270,2,0,B|352:168|232:176,1,180,8|0
160,136,89866,1,10
144,128,89965,1,8
128,120,90064,1,8
32,152,90263,5,8
48,248,90462,1,8
56,264,90561,1,8
64,280,90660,1,8
160,312,90859,2,0,B|210:222|157:128,1,180,8|0
104,64,91455,1,10
120,64,91555,1,8
136,64,91654,1,8
152,64,91753,1,8
168,64,91853,6,0,B|272:64|272:64,1,90,12|0
376,160,92250,2,0,B|272:160,1,90,8|0
168,256,92647,2,0,B|280:256,1,90,8|0
376,352,93045,2,0,B|272:352,1,90,10|0
48,352,93442,6,0,B|176:352,1,90,8|0
256,256,93839,2,0,B|120:256,1,90,8|0
48,160,94237,2,0,B|168:160,1,90,8|0
256,64,94634,2,0,B|152:64,1,90,10|0
104,144,95031,5,8
120,240,95230,1,0
216,224,95429,1,0
280,144,95627,2,0,B|331:47|448:64,1,180,8|0
416,208,96223,1,2
360,344,96422,2,0,B|251:313|256:176,1,180,8|0
280,112,97018,6,0,B|312:64|376:56,2,90,8|0|8
208,184,97614,1,0
288,248,97813,1,10
240,336,98011,1,0
144,320,98210,2,0,B|64:256|104:136,1,180,8|0
144,72,98806,2,0,B|112:24|24:40,2,90,8|8|0
240,88,99402,2,0,B|285:113|313:182|258:187|197:257|235:307|290:323,1,270,12|0
400,144,101190,6,0,B|424:120|392:96|408:48,2,90,2|0|0
400,168,102184,1,0
400,192,102382,1,0
112,240,102780,6,0,B|88:264|120:288|104:336,2,90,2|0|0
112,216,103773,1,0
112,192,103972,1,0
256,24,104369,6,0,B|224:56|288:104|256:152,1,135,0|2
256,176,105164,1,0
256,200,105362,1,0
256,224,105561,1,0
256,248,105760,1,2
256,328,106157,5,2
128,88,106455,1,2
400,88,106753,1,2
384,296,107151,5,8
379,286,107250,1,8
364,285,107349,1,8
360,272,107449,1,8
346,269,107548,1,8
344,256,107647,1,8
332,256,107747,2,0,B|295:258|298:226|308:181|284:147|248:98|203:158,1,180,4|8
160,88,108343,2,0,B|128:48|64:40,1,90
120,168,108740,2,0,B|64:168|24:200,1,90,0|10
144,256,109137,2,0,B|104:280|96:336,1,90
224,328,109535,2,0,B|272:304|272:240,1,90,0|8
272,176,109932,2,0,B|288:72|408:56,1,180
416,192,110528,1,10
392,328,110727,6,0,B|288:312|272:208,1,180
240,136,111323,1,8
256,56,111521,1,0
176,40,111720,2,0,B|128:24|80:56,1,90
56,128,112117,2,0,B|104:144|152:112,1,90,10|0
424,64,112713,1,0
344,344,113111,1,0
136,144,113508,1,0
96,216,113707,1,10
120,296,113906,1,0
40,312,114104,6,0,B|-8:224|48:120,1,180,0|8
88,72,114700,2,0,B|120:32|184:32,2,90
128,144,115296,1,10
120,224,115495,2,0,B|144:336|280:328,1,180
376,288,116091,1,8
424,160,116290,2,0,B|392:64|280:64,1,180
192,72,116886,6,0,B|80:64,1,90,8|0
152,184,117283,2,0,B|40:248,1,90
232,264,117680,2,0,B|200:352,2,90,8|0|0
256,184,118276,1,8
264,168,118376,1,8
272,152,118475,1,8
304,80,118674,1,8
256,192,118872,12,0,120263
